osu file format v14

[General]
AudioFilename: Ice - Entrance.mp3
AudioLeadIn: 2000
PreviewTime: 75148
Countdown: 0
SampleSet: Normal
StackLeniency: 0.7
Mode: 3
LetterboxInBreaks: 0
EpilepsyWarning: 1
SpecialStyle: 0
WidescreenStoryboard: 0

[Editor]
DistanceSpacing: 1.6
BeatDivisor: 4
GridSize: 8
TimelineZoom: 2.1

[Metadata]
Title:[Full LN] training
TitleUnicode:[Full LN] training
Artist:Various Artist
ArtistUnicode:Various Artist
Creator:Allezard
Version:Ice - Entrance Lv. 1
Source:Cytus
Tags:Full LN Training Various Artist Collection 4k NOODLE BMS Deemo Cytus SOUND VOLTEX II -infinite infection- beatmania IIDX
BeatmapID:819048
BeatmapSetID:368373

[Difficulty]
HPDrainRate:5
CircleSize:4
OverallDifficulty:1
ApproachRate:5
SliderMultiplier:1.4
SliderTickRate:1

[Events]
//Background and Video events
0,0,"Ice - Entrance.png",0,0
//Break Periods
//Storyboard Layer 0 (Background)
//Storyboard Layer 1 (Fail)
//Storyboard Layer 2 (Pass)
//Storyboard Layer 3 (Foreground)
//Storyboard Sound Samples

[TimingPoints]
593,333.3333,4,1,0,30,1,0
75259,-100,4,1,0,30,0,1
96592,-100,4,1,0,30,0,0

[HitObjects]
64,192,593,128,0,842:0:0:0:0:
448,192,593,128,0,2509:0:0:0:0:
64,192,926,128,0,3176:0:0:0:0:
192,192,1259,128,0,1842:0:0:0:0:
320,192,1592,128,0,2176:0:0:0:0:
192,192,1926,128,0,3509:0:0:0:0:
320,192,2259,128,0,2842:0:0:0:0:
448,192,2592,128,0,6176:0:0:0:0:
320,192,2926,128,0,4509:0:0:0:0:
64,192,3259,128,0,3842:0:0:0:0:
192,192,3592,128,0,4176:0:0:0:0:
64,192,3926,128,0,7509:0:0:0:0:
192,192,4259,128,0,4842:0:0:0:0:
320,192,4592,128,0,5176:0:0:0:0:
192,192,4926,128,0,5592:0:0:0:0:
320,192,5259,128,0,5842:0:0:0:0:
192,192,5926,128,0,8176:0:0:0:0:
320,192,5926,128,0,6509:0:0:0:0:
448,192,6259,128,0,6842:0:0:0:0:
320,192,6592,128,0,7176:0:0:0:0:
448,192,6926,128,0,11176:0:0:0:0:
320,192,7259,128,0,7842:0:0:0:0:
64,192,7592,128,0,9509:0:0:0:0:
320,192,7926,128,0,8509:0:0:0:0:
192,192,8259,128,0,8842:0:0:0:0:
320,192,8592,128,0,9176:0:0:0:0:
192,192,8926,128,0,10509:0:0:0:0:
320,192,9259,128,0,9842:0:0:0:0:
64,192,9592,128,0,11176:0:0:0:0:
320,192,9926,128,0,11842:0:0:0:0:
192,192,10592,128,0,12509:0:0:0:0:
64,192,11259,128,0,13176:0:0:0:0:
448,192,11259,128,0,11509:0:0:0:0:
448,192,11592,128,0,15176:0:0:0:0:
320,192,11926,128,0,12176:0:0:0:0:
320,192,12259,128,0,14509:0:0:0:0:
192,192,12592,128,0,12842:0:0:0:0:
192,192,12926,128,0,13842:0:0:0:0:
64,192,13259,128,0,13509:0:0:0:0:
64,192,13592,128,0,15926:0:0:0:0:
192,192,13926,128,0,14176:0:0:0:0:
192,192,14259,128,0,16509:0:0:0:0:
320,192,14592,128,0,14842:0:0:0:0:
320,192,14926,128,0,16259:0:0:0:0:
448,192,15259,128,0,15509:0:0:0:0:
448,192,15592,128,0,19176:0:0:0:0:
64,192,16259,128,0,17176:0:0:0:0:
320,192,16592,128,0,18509:0:0:0:0:
192,192,16592,128,0,16842:0:0:0:0:
192,192,16926,128,0,17842:0:0:0:0:
64,192,17259,128,0,17509:0:0:0:0:
64,192,17592,128,0,21259:0:0:0:0:
192,192,17926,128,0,18176:0:0:0:0:
192,192,18259,128,0,20509:0:0:0:0:
320,192,18592,128,0,18842:0:0:0:0:
320,192,18926,128,0,19842:0:0:0:0:
448,192,19259,128,0,19509:0:0:0:0:
448,192,19592,128,0,21926:0:0:0:0:
320,192,19926,128,0,20176:0:0:0:0:
320,192,20259,128,0,20842:0:0:0:0:
192,192,20592,128,0,21592:0:0:0:0:
320,192,20926,128,0,23259:0:0:0:0:
64,192,21926,128,0,27259:0:0:0:0:
192,192,21926,128,0,24592:0:0:0:0:
448,192,23259,128,0,31259:0:0:0:0:
320,192,24592,128,0,25926:0:0:0:0:
192,192,25926,128,0,29926:0:0:0:0:
320,192,27259,128,0,28592:0:0:0:0:
64,192,28592,128,0,32509:0:0:0:0:
320,192,29926,128,0,34509:0:0:0:0:
192,192,31259,128,0,33176:0:0:0:0:
448,192,32592,128,0,32842:0:0:0:0:
64,192,32592,128,0,33509:0:0:0:0:
448,192,32926,128,0,33842:0:0:0:0:
192,192,33259,128,0,34176:0:0:0:0:
64,192,33592,128,0,34842:0:0:0:0:
448,192,33926,128,0,35176:0:0:0:0:
192,192,34259,128,0,35509:0:0:0:0:
320,192,34592,128,0,36176:0:0:0:0:
64,192,34926,128,0,35842:0:0:0:0:
448,192,35259,128,0,36842:0:0:0:0:
192,192,35592,128,0,36509:0:0:0:0:
64,192,35926,128,0,37259:0:0:0:0:
320,192,36259,128,0,37592:0:0:0:0:
192,192,36592,128,0,37842:0:0:0:0:
448,192,36926,128,0,38509:0:0:0:0:
64,192,37592,128,0,40176:0:0:0:0:
320,192,37926,128,0,38176:0:0:0:0:
192,192,37926,128,0,38842:0:0:0:0:
320,192,38259,128,0,39176:0:0:0:0:
448,192,38592,128,0,40509:0:0:0:0:
192,192,38926,128,0,39509:0:0:0:0:
320,192,39259,128,0,39842:0:0:0:0:
192,192,39592,128,0,40842:0:0:0:0:
320,192,39926,128,0,41176:0:0:0:0:
64,192,40259,128,0,41509:0:0:0:0:
448,192,40592,128,0,42509:0:0:0:0:
192,192,40926,128,0,41842:0:0:0:0:
320,192,41259,128,0,42176:0:0:0:0:
64,192,41592,128,0,42842:0:0:0:0:
192,192,41926,128,0,44592:0:0:0:0:
320,192,42259,128,0,43176:0:0:0:0:
448,192,42592,128,0,43259:0:0:0:0:
64,192,42926,128,0,47259:0:0:0:0:
320,192,43259,128,0,45926:0:0:0:0:
448,192,44592,128,0,51259:0:0:0:0:
192,192,45926,128,0,48592:0:0:0:0:
320,192,47259,128,0,52592:0:0:0:0:
64,192,48592,128,0,53842:0:0:0:0:
192,192,51259,128,0,54509:0:0:0:0:
448,192,52592,128,0,57176:0:0:0:0:
64,192,53926,128,0,55176:0:0:0:0:
320,192,53926,128,0,56509:0:0:0:0:
192,192,54592,128,0,55842:0:0:0:0:
64,192,55259,128,0,59176:0:0:0:0:
192,192,55926,128,0,57842:0:0:0:0:
320,192,56592,128,0,58509:0:0:0:0:
448,192,57259,128,0,61176:0:0:0:0:
192,192,57926,128,0,59842:0:0:0:0:
320,192,58592,128,0,60509:0:0:0:0:
64,192,59259,128,0,61842:0:0:0:0:
192,192,59926,128,0,62509:0:0:0:0:
320,192,60592,128,0,63176:0:0:0:0:
448,192,61259,128,0,64509:0:0:0:0:
64,192,61926,128,0,63842:0:0:0:0:
192,192,62592,128,0,64842:0:0:0:0:
320,192,63259,128,0,65259:0:0:0:0:
64,192,63926,128,0,64509:0:0:0:0:
448,192,64592,128,0,65842:0:0:0:0:
64,192,64592,128,0,65842:0:0:0:0:
192,192,64926,128,0,66592:0:0:0:0:
320,192,65926,128,0,66176:0:0:0:0:
448,192,65926,128,0,67176:0:0:0:0:
64,192,65926,128,0,68509:0:0:0:0:
320,192,66259,128,0,67926:0:0:0:0:
192,192,67259,128,0,67509:0:0:0:0:
448,192,67259,128,0,69842:0:0:0:0:
192,192,67592,128,0,69259:0:0:0:0:
320,192,68592,128,0,68842:0:0:0:0:
64,192,68592,128,0,71592:0:0:0:0:
320,192,68926,128,0,70592:0:0:0:0:
192,192,69926,128,0,70259:0:0:0:0:
448,192,69926,128,0,70926:0:0:0:0:
192,192,70592,128,0,71926:0:0:0:0:
320,192,70926,128,0,71259:0:0:0:0:
448,192,71259,128,0,72592:0:0:0:0:
320,192,71592,128,0,72259:0:0:0:0:
64,192,71926,128,0,73926:0:0:0:0:
192,192,72259,128,0,75176:0:0:0:0:
320,192,72592,128,0,75509:0:0:0:0:
448,192,73926,128,0,75176:0:0:0:0:
192,192,75259,128,0,75842:0:0:0:0:
448,192,75259,128,0,79842:0:0:0:0:
64,192,75259,128,0,76509:0:0:0:0:
320,192,75592,128,0,77842:0:0:0:0:
192,192,75926,128,0,76176:0:0:0:0:
192,192,76259,128,0,77176:0:0:0:0:
64,192,76592,128,0,76842:0:0:0:0:
64,192,76926,128,0,80842:0:0:0:0:
192,192,77259,128,0,77509:0:0:0:0:
192,192,77592,128,0,78509:0:0:0:0:
320,192,77926,128,0,78176:0:0:0:0:
320,192,78259,128,0,79176:0:0:0:0:
192,192,78592,128,0,78842:0:0:0:0:
192,192,78926,128,0,80509:0:0:0:0:
320,192,79259,128,0,79509:0:0:0:0:
320,192,79592,128,0,80509:0:0:0:0:
448,192,79926,128,0,80176:0:0:0:0:
448,192,80259,128,0,82842:0:0:0:0:
192,192,80592,128,0,81176:0:0:0:0:
320,192,80592,128,0,81509:0:0:0:0:
64,192,80926,128,0,81842:0:0:0:0:
192,192,81259,128,0,82176:0:0:0:0:
320,192,81592,128,0,82509:0:0:0:0:
64,192,81926,128,0,84176:0:0:0:0:
192,192,82259,128,0,83509:0:0:0:0:
320,192,82592,128,0,83176:0:0:0:0:
448,192,82926,128,0,85842:0:0:0:0:
320,192,83259,128,0,83842:0:0:0:0:
192,192,83592,128,0,84509:0:0:0:0:
320,192,83926,128,0,84842:0:0:0:0:
64,192,84259,128,0,85176:0:0:0:0:
192,192,84592,128,0,85509:0:0:0:0:
320,192,84926,128,0,87176:0:0:0:0:
64,192,85259,128,0,85842:0:0:0:0:
192,192,85592,128,0,86509:0:0:0:0:
64,192,85926,128,0,87842:0:0:0:0:
448,192,85926,128,0,86176:0:0:0:0:
448,192,86259,128,0,88176:0:0:0:0:
192,192,86592,128,0,86842:0:0:0:0:
192,192,86926,128,0,88509:0:0:0:0:
320,192,87259,128,0,87509:0:0:0:0:
320,192,87592,128,0,88842:0:0:0:0:
64,192,87926,128,0,90176:0:0:0:0:
448,192,88259,128,0,90842:0:0:0:0:
192,192,88592,128,0,89176:0:0:0:0:
320,192,88926,128,0,89509:0:0:0:0:
192,192,89259,128,0,92592:0:0:0:0:
320,192,89592,128,0,89842:0:0:0:0:
320,192,89926,128,0,90509:0:0:0:0:
64,192,90259,128,0,91176:0:0:0:0:
320,192,90592,128,0,91259:0:0:0:0:
448,192,90926,128,0,93926:0:0:0:0:
64,192,91259,128,0,95926:0:0:0:0:
192,192,93926,128,0,95259:0:0:0:0:
448,192,95259,128,0,96926:0:0:0:0:
192,192,95926,128,0,96509:0:0:0:0:
192,192,96592,128,0,96926:0:0:0:0:
64,192,96592,128,0,96926:0:0:0:0:
