osu file format v14

[General]
AudioFilename: GReeeeN - Shinobi.mp3
AudioLeadIn: 0
PreviewTime: 120340
Countdown: 0
SampleSet: Normal
StackLeniency: 0.7
Mode: 3
LetterboxInBreaks: 0
SpecialStyle: 0
WidescreenStoryboard: 0

[Editor]
DistanceSpacing: 0.8
BeatDivisor: 4
GridSize: 4
TimelineZoom: 3.499999

[Metadata]
Title:[Full LN] training
TitleUnicode:[Full LN] training
Artist:Various Artist
ArtistUnicode:Various Artist
Creator:Allezard
Version:GReeeeN - Shinobi Lv. 5
Source:Teenage Mutant Ninja Turtles
Tags:Full LN Training Various Artist Collection 4k NOODLE BMS Deemo Cytus SOUND VOLTEX II -infinite infection- beatmania IIDX
BeatmapID:819138
BeatmapSetID:368373

[Difficulty]
HPDrainRate:8
CircleSize:4
OverallDifficulty:1
ApproachRate:5
SliderMultiplier:1.4
SliderTickRate:1

[Events]
//Background and Video events
0,0,"GReeeeN - Shinobi.png",0,0
//Break Periods
//Storyboard Layer 0 (Background)
//Storyboard Layer 1 (Fail)
//Storyboard Layer 2 (Pass)
//Storyboard Layer 3 (Foreground)
//Storyboard Sound Samples

[TimingPoints]
816,357.142857142857,4,1,1,50,1,0
47958,-111.111111111111,4,2,0,50,0,0
53673,-100,4,1,1,50,0,0
59387,-100,4,1,1,50,0,1
82244,-100,4,1,1,50,0,0
96530,-100,4,1,1,50,0,0
97244,-111.111111111111,4,1,1,50,0,0
97958,-125,4,1,1,50,0,0
119387,-111.111111111111,4,1,1,50,0,0
120101,-100,4,1,1,50,0,0
131530,357.142857142857,4,1,1,50,1,0
132244,-100,4,1,1,50,0,1
154387,-100,4,2,1,50,0,0

[HitObjects]
448,192,1530,128,0,1798:0:0:0:0:
320,192,1530,128,0,1976:0:0:0:0:
448,192,1887,128,0,2155:0:0:0:0:
192,192,1887,128,0,2155:0:0:0:0:
64,192,1887,128,0,2155:0:0:0:0:
320,192,2065,128,0,2512:0:0:0:0:
448,192,2244,128,0,2333:0:0:0:0:
192,192,2244,128,0,2423:0:0:0:0:
64,192,2244,128,0,2333:0:0:0:0:
448,192,2423,128,0,2512:0:0:0:0:
64,192,2423,128,0,2958:0:0:0:0:
192,192,2512,128,0,2869:0:0:0:0:
448,192,2601,128,0,2690:0:0:0:0:
320,192,2601,128,0,2690:0:0:0:0:
448,192,2780,128,0,2869:0:0:0:0:
320,192,2780,128,0,2869:0:0:0:0:
448,192,2958,128,0,3226:0:0:0:0:
192,192,2958,128,0,3048:0:0:0:0:
320,192,2958,128,0,3048:0:0:0:0:
64,192,3048,128,0,3405:0:0:0:0:
192,192,3137,128,0,3226:0:0:0:0:
320,192,3137,128,0,3583:0:0:0:0:
448,192,3315,128,0,3405:0:0:0:0:
192,192,3315,128,0,3405:0:0:0:0:
448,192,3494,128,0,3583:0:0:0:0:
64,192,3494,128,0,3583:0:0:0:0:
192,192,3494,128,0,3940:0:0:0:0:
448,192,3673,128,0,3851:0:0:0:0:
64,192,3673,128,0,3762:0:0:0:0:
320,192,3673,128,0,3762:0:0:0:0:
64,192,3851,128,0,3940:0:0:0:0:
320,192,3851,128,0,4298:0:0:0:0:
448,192,3940,128,0,4298:0:0:0:0:
192,192,4030,128,0,4119:0:0:0:0:
64,192,4030,128,0,4119:0:0:0:0:
64,192,4208,128,0,4387:0:0:0:0:
192,192,4208,128,0,4298:0:0:0:0:
448,192,4387,128,0,5012:0:0:0:0:
192,192,4387,128,0,4476:0:0:0:0:
320,192,4387,128,0,4476:0:0:0:0:
64,192,4476,128,0,4655:0:0:0:0:
320,192,4565,128,0,4655:0:0:0:0:
192,192,4565,128,0,4655:0:0:0:0:
64,192,4744,128,0,4833:0:0:0:0:
320,192,4744,128,0,4833:0:0:0:0:
192,192,4744,128,0,5012:0:0:0:0:
320,192,4923,128,0,5190:0:0:0:0:
64,192,4923,128,0,5012:0:0:0:0:
448,192,5101,128,0,5190:0:0:0:0:
192,192,5101,128,0,5280:0:0:0:0:
64,192,5101,128,0,5369:0:0:0:0:
448,192,5280,128,0,5726:0:0:0:0:
320,192,5280,128,0,5548:0:0:0:0:
192,192,5369,128,0,5548:0:0:0:0:
64,192,5458,128,0,5726:0:0:0:0:
192,192,5637,128,0,5726:0:0:0:0:
320,192,5637,128,0,5905:0:0:0:0:
448,192,5815,128,0,5905:0:0:0:0:
192,192,5815,128,0,5994:0:0:0:0:
64,192,5815,128,0,6083:0:0:0:0:
448,192,5994,128,0,6440:0:0:0:0:
320,192,5994,128,0,6262:0:0:0:0:
192,192,6083,128,0,6262:0:0:0:0:
64,192,6173,128,0,6619:0:0:0:0:
320,192,6351,128,0,6440:0:0:0:0:
192,192,6351,128,0,6440:0:0:0:0:
448,192,6530,128,0,6619:0:0:0:0:
192,192,6530,128,0,6798:0:0:0:0:
320,192,6530,128,0,6798:0:0:0:0:
448,192,6708,128,0,6798:0:0:0:0:
64,192,6708,128,0,7155:0:0:0:0:
192,192,6887,128,0,7155:0:0:0:0:
320,192,6887,128,0,7155:0:0:0:0:
448,192,6887,128,0,6976:0:0:0:0:
448,192,7065,128,0,7512:0:0:0:0:
192,192,7244,128,0,7512:0:0:0:0:
64,192,7244,128,0,7869:0:0:0:0:
320,192,7244,128,0,7512:0:0:0:0:
448,192,7601,128,0,7869:0:0:0:0:
192,192,7601,128,0,8048:0:0:0:0:
320,192,7601,128,0,7869:0:0:0:0:
320,192,7958,128,0,8137:0:0:0:0:
448,192,7958,128,0,8048:0:0:0:0:
64,192,7958,128,0,8226:0:0:0:0:
192,192,8137,128,0,8226:0:0:0:0:
448,192,8137,128,0,8226:0:0:0:0:
320,192,8226,128,0,8583:0:0:0:0:
448,192,8315,128,0,8405:0:0:0:0:
192,192,8315,128,0,8405:0:0:0:0:
64,192,8315,128,0,8583:0:0:0:0:
448,192,8494,128,0,8583:0:0:0:0:
192,192,8494,128,0,8673:0:0:0:0:
448,192,8673,128,0,8762:0:0:0:0:
320,192,8673,128,0,8940:0:0:0:0:
64,192,8673,128,0,8762:0:0:0:0:
192,192,8762,128,0,8940:0:0:0:0:
448,192,8851,128,0,8940:0:0:0:0:
64,192,8851,128,0,9119:0:0:0:0:
448,192,9030,128,0,9119:0:0:0:0:
192,192,9030,128,0,9119:0:0:0:0:
320,192,9030,128,0,9476:0:0:0:0:
448,192,9208,128,0,9298:0:0:0:0:
192,192,9208,128,0,9298:0:0:0:0:
64,192,9208,128,0,9298:0:0:0:0:
64,192,9387,128,0,9565:0:0:0:0:
192,192,9387,128,0,9476:0:0:0:0:
448,192,9387,128,0,9655:0:0:0:0:
320,192,9565,128,0,9655:0:0:0:0:
192,192,9565,128,0,9655:0:0:0:0:
64,192,9655,128,0,10012:0:0:0:0:
192,192,9744,128,0,9833:0:0:0:0:
320,192,9744,128,0,10012:0:0:0:0:
448,192,9744,128,0,9833:0:0:0:0:
192,192,9923,128,0,10012:0:0:0:0:
448,192,9923,128,0,10101:0:0:0:0:
192,192,10101,128,0,10190:0:0:0:0:
320,192,10101,128,0,10369:0:0:0:0:
64,192,10101,128,0,10190:0:0:0:0:
448,192,10190,128,0,10548:0:0:0:0:
192,192,10280,128,0,10369:0:0:0:0:
64,192,10280,128,0,10458:0:0:0:0:
192,192,10458,128,0,10905:0:0:0:0:
320,192,10458,128,0,10548:0:0:0:0:
64,192,10548,128,0,10726:0:0:0:0:
320,192,10637,128,0,10726:0:0:0:0:
448,192,10637,128,0,10726:0:0:0:0:
320,192,10815,128,0,10994:0:0:0:0:
64,192,10815,128,0,10905:0:0:0:0:
448,192,10815,128,0,10994:0:0:0:0:
192,192,10994,128,0,11083:0:0:0:0:
64,192,10994,128,0,11083:0:0:0:0:
320,192,11083,128,0,11262:0:0:0:0:
448,192,11083,128,0,11262:0:0:0:0:
192,192,11173,128,0,11351:0:0:0:0:
64,192,11173,128,0,11351:0:0:0:0:
320,192,11351,128,0,11440:0:0:0:0:
448,192,11351,128,0,11440:0:0:0:0:
192,192,11440,128,0,11619:0:0:0:0:
64,192,11440,128,0,11619:0:0:0:0:
320,192,11530,128,0,11708:0:0:0:0:
448,192,11530,128,0,11708:0:0:0:0:
64,192,11708,128,0,11798:0:0:0:0:
192,192,11708,128,0,11798:0:0:0:0:
448,192,11798,128,0,11976:0:0:0:0:
320,192,11798,128,0,12155:0:0:0:0:
64,192,11887,128,0,11976:0:0:0:0:
192,192,11887,128,0,12065:0:0:0:0:
448,192,12065,128,0,12155:0:0:0:0:
64,192,12065,128,0,12155:0:0:0:0:
192,192,12155,128,0,12333:0:0:0:0:
448,192,12244,128,0,12512:0:0:0:0:
320,192,12244,128,0,12333:0:0:0:0:
64,192,12244,128,0,12512:0:0:0:0:
192,192,12423,128,0,12690:0:0:0:0:
320,192,12423,128,0,12512:0:0:0:0:
64,192,12601,128,0,13048:0:0:0:0:
320,192,12601,128,0,12690:0:0:0:0:
448,192,12601,128,0,12869:0:0:0:0:
192,192,12780,128,0,12869:0:0:0:0:
320,192,12780,128,0,12869:0:0:0:0:
448,192,12958,128,0,13226:0:0:0:0:
320,192,12958,128,0,13226:0:0:0:0:
192,192,12958,128,0,13048:0:0:0:0:
192,192,13137,128,0,13226:0:0:0:0:
64,192,13137,128,0,13226:0:0:0:0:
320,192,13315,128,0,13583:0:0:0:0:
448,192,13315,128,0,13583:0:0:0:0:
64,192,13315,128,0,13583:0:0:0:0:
192,192,13315,128,0,13583:0:0:0:0:
320,192,13673,128,0,13762:0:0:0:0:
192,192,13673,128,0,13940:0:0:0:0:
448,192,13673,128,0,13940:0:0:0:0:
64,192,13673,128,0,14119:0:0:0:0:
320,192,13851,128,0,13940:0:0:0:0:
320,192,14030,128,0,14208:0:0:0:0:
448,192,14030,128,0,14119:0:0:0:0:
192,192,14030,128,0,14298:0:0:0:0:
448,192,14208,128,0,14655:0:0:0:0:
64,192,14208,128,0,14298:0:0:0:0:
320,192,14298,128,0,14655:0:0:0:0:
192,192,14387,128,0,14476:0:0:0:0:
64,192,14387,128,0,14655:0:0:0:0:
192,192,14565,128,0,14833:0:0:0:0:
448,192,14744,128,0,14833:0:0:0:0:
320,192,14744,128,0,15012:0:0:0:0:
64,192,14744,128,0,15012:0:0:0:0:
448,192,14923,128,0,15190:0:0:0:0:
192,192,14923,128,0,15190:0:0:0:0:
64,192,15101,128,0,15369:0:0:0:0:
320,192,15101,128,0,15369:0:0:0:0:
448,192,15280,128,0,15369:0:0:0:0:
192,192,15280,128,0,15905:0:0:0:0:
448,192,15458,128,0,15637:0:0:0:0:
64,192,15458,128,0,15548:0:0:0:0:
320,192,15458,128,0,15548:0:0:0:0:
64,192,15637,128,0,15726:0:0:0:0:
320,192,15637,128,0,15726:0:0:0:0:
448,192,15726,128,0,16083:0:0:0:0:
64,192,15815,128,0,16262:0:0:0:0:
320,192,15815,128,0,16083:0:0:0:0:
192,192,15994,128,0,16083:0:0:0:0:
448,192,16173,128,0,16440:0:0:0:0:
192,192,16173,128,0,16440:0:0:0:0:
320,192,16173,128,0,16262:0:0:0:0:
320,192,16351,128,0,16798:0:0:0:0:
64,192,16351,128,0,16708:0:0:0:0:
192,192,16530,128,0,16619:0:0:0:0:
448,192,16530,128,0,16619:0:0:0:0:
192,192,16708,128,0,16798:0:0:0:0:
448,192,16708,128,0,16798:0:0:0:0:
64,192,16798,128,0,16976:0:0:0:0:
192,192,16887,128,0,17065:0:0:0:0:
320,192,16887,128,0,16976:0:0:0:0:
448,192,16887,128,0,17155:0:0:0:0:
320,192,17065,128,0,17155:0:0:0:0:
64,192,17065,128,0,17333:0:0:0:0:
192,192,17155,128,0,17512:0:0:0:0:
320,192,17244,128,0,17333:0:0:0:0:
448,192,17244,128,0,17423:0:0:0:0:
320,192,17423,128,0,17512:0:0:0:0:
64,192,17423,128,0,17512:0:0:0:0:
448,192,17512,128,0,17869:0:0:0:0:
192,192,17601,128,0,17690:0:0:0:0:
320,192,17601,128,0,18226:0:0:0:0:
64,192,17601,128,0,17690:0:0:0:0:
192,192,17780,128,0,18048:0:0:0:0:
64,192,17780,128,0,17869:0:0:0:0:
448,192,17958,128,0,18226:0:0:0:0:
64,192,17958,128,0,18048:0:0:0:0:
64,192,18137,128,0,18494:0:0:0:0:
192,192,18137,128,0,18405:0:0:0:0:
320,192,18315,128,0,18405:0:0:0:0:
448,192,18315,128,0,18494:0:0:0:0:
320,192,18494,128,0,18583:0:0:0:0:
192,192,18494,128,0,18583:0:0:0:0:
64,192,18583,128,0,18762:0:0:0:0:
448,192,18583,128,0,19030:0:0:0:0:
192,192,18673,128,0,19030:0:0:0:0:
320,192,18673,128,0,18940:0:0:0:0:
64,192,18851,128,0,18940:0:0:0:0:
64,192,19030,128,0,19119:0:0:0:0:
320,192,19030,128,0,19119:0:0:0:0:
448,192,19119,128,0,19208:0:0:0:0:
192,192,19119,128,0,19208:0:0:0:0:
64,192,19208,128,0,19298:0:0:0:0:
320,192,19208,128,0,19298:0:0:0:0:
192,192,19298,128,0,19476:0:0:0:0:
448,192,19298,128,0,19655:0:0:0:0:
64,192,19387,128,0,20012:0:0:0:0:
320,192,19387,128,0,19655:0:0:0:0:
192,192,19565,128,0,19655:0:0:0:0:
448,192,19744,128,0,19923:0:0:0:0:
192,192,19744,128,0,19833:0:0:0:0:
320,192,19744,128,0,19833:0:0:0:0:
192,192,19923,128,0,20012:0:0:0:0:
320,192,19923,128,0,20369:0:0:0:0:
448,192,20012,128,0,20190:0:0:0:0:
64,192,20101,128,0,20369:0:0:0:0:
192,192,20101,128,0,20190:0:0:0:0:
448,192,20280,128,0,20369:0:0:0:0:
192,192,20280,128,0,20726:0:0:0:0:
448,192,20458,128,0,20726:0:0:0:0:
320,192,20458,128,0,20548:0:0:0:0:
64,192,20458,128,0,20548:0:0:0:0:
64,192,20637,128,0,20905:0:0:0:0:
320,192,20637,128,0,21083:0:0:0:0:
192,192,20815,128,0,20905:0:0:0:0:
448,192,20815,128,0,21083:0:0:0:0:
64,192,20994,128,0,21083:0:0:0:0:
192,192,20994,128,0,21440:0:0:0:0:
448,192,21173,128,0,21262:0:0:0:0:
64,192,21173,128,0,21262:0:0:0:0:
320,192,21173,128,0,21351:0:0:0:0:
448,192,21351,128,0,21798:0:0:0:0:
64,192,21351,128,0,21440:0:0:0:0:
320,192,21440,128,0,21619:0:0:0:0:
192,192,21530,128,0,21619:0:0:0:0:
64,192,21530,128,0,21798:0:0:0:0:
192,192,21708,128,0,21798:0:0:0:0:
320,192,21708,128,0,21976:0:0:0:0:
448,192,21887,128,0,22333:0:0:0:0:
192,192,21887,128,0,22155:0:0:0:0:
64,192,21887,128,0,21976:0:0:0:0:
320,192,22065,128,0,22155:0:0:0:0:
64,192,22065,128,0,22423:0:0:0:0:
192,192,22244,128,0,22333:0:0:0:0:
320,192,22244,128,0,22512:0:0:0:0:
448,192,22423,128,0,22512:0:0:0:0:
192,192,22423,128,0,22512:0:0:0:0:
64,192,22512,128,0,22690:0:0:0:0:
448,192,22601,128,0,22869:0:0:0:0:
320,192,22601,128,0,22780:0:0:0:0:
192,192,22601,128,0,22690:0:0:0:0:
64,192,22780,128,0,22869:0:0:0:0:
192,192,22780,128,0,23048:0:0:0:0:
320,192,22869,128,0,23226:0:0:0:0:
64,192,22958,128,0,23137:0:0:0:0:
448,192,22958,128,0,23048:0:0:0:0:
448,192,23137,128,0,23226:0:0:0:0:
192,192,23137,128,0,23226:0:0:0:0:
64,192,23226,128,0,23405:0:0:0:0:
192,192,23315,128,0,23583:0:0:0:0:
448,192,23315,128,0,23583:0:0:0:0:
320,192,23315,128,0,23405:0:0:0:0:
320,192,23494,128,0,23762:0:0:0:0:
64,192,23494,128,0,23762:0:0:0:0:
192,192,23673,128,0,23940:0:0:0:0:
448,192,23673,128,0,24119:0:0:0:0:
320,192,23851,128,0,23940:0:0:0:0:
64,192,23851,128,0,24030:0:0:0:0:
320,192,24030,128,0,24119:0:0:0:0:
192,192,24030,128,0,24208:0:0:0:0:
64,192,24119,128,0,24476:0:0:0:0:
320,192,24208,128,0,24298:0:0:0:0:
448,192,24208,128,0,24298:0:0:0:0:
192,192,24298,128,0,24655:0:0:0:0:
448,192,24387,128,0,24744:0:0:0:0:
320,192,24387,128,0,24744:0:0:0:0:
64,192,24565,128,0,24655:0:0:0:0:
192,192,24744,128,0,24833:0:0:0:0:
64,192,24744,128,0,24833:0:0:0:0:
448,192,24833,128,0,24923:0:0:0:0:
320,192,24833,128,0,24923:0:0:0:0:
64,192,24923,128,0,25012:0:0:0:0:
192,192,24923,128,0,25012:0:0:0:0:
448,192,25012,128,0,25280:0:0:0:0:
320,192,25012,128,0,25190:0:0:0:0:
192,192,25101,128,0,25548:0:0:0:0:
64,192,25101,128,0,25190:0:0:0:0:
64,192,25280,128,0,25369:0:0:0:0:
320,192,25280,128,0,25369:0:0:0:0:
448,192,25369,128,0,25548:0:0:0:0:
64,192,25458,128,0,25637:0:0:0:0:
320,192,25458,128,0,26083:0:0:0:0:
192,192,25637,128,0,25726:0:0:0:0:
448,192,25637,128,0,25726:0:0:0:0:
64,192,25726,128,0,25905:0:0:0:0:
448,192,25815,128,0,26083:0:0:0:0:
192,192,25815,128,0,25905:0:0:0:0:
64,192,25994,128,0,26440:0:0:0:0:
192,192,25994,128,0,26262:0:0:0:0:
320,192,26173,128,0,26262:0:0:0:0:
448,192,26173,128,0,26619:0:0:0:0:
320,192,26351,128,0,26708:0:0:0:0:
192,192,26351,128,0,26440:0:0:0:0:
192,192,26530,128,0,26798:0:0:0:0:
64,192,26530,128,0,26619:0:0:0:0:
64,192,26708,128,0,26976:0:0:0:0:
448,192,26708,128,0,26798:0:0:0:0:
320,192,26798,128,0,27155:0:0:0:0:
192,192,26887,128,0,27065:0:0:0:0:
448,192,26887,128,0,26976:0:0:0:0:
448,192,27065,128,0,27333:0:0:0:0:
64,192,27065,128,0,27155:0:0:0:0:
192,192,27155,128,0,27512:0:0:0:0:
320,192,27244,128,0,27333:0:0:0:0:
64,192,27244,128,0,27869:0:0:0:0:
448,192,27423,128,0,27690:0:0:0:0:
320,192,27423,128,0,27512:0:0:0:0:
192,192,27601,128,0,27869:0:0:0:0:
320,192,27601,128,0,27690:0:0:0:0:
448,192,27780,128,0,28048:0:0:0:0:
320,192,27780,128,0,28226:0:0:0:0:
192,192,27958,128,0,28048:0:0:0:0:
64,192,27958,128,0,28137:0:0:0:0:
448,192,28137,128,0,28226:0:0:0:0:
192,192,28137,128,0,28583:0:0:0:0:
64,192,28226,128,0,28405:0:0:0:0:
448,192,28315,128,0,28494:0:0:0:0:
320,192,28315,128,0,28405:0:0:0:0:
64,192,28494,128,0,28583:0:0:0:0:
320,192,28494,128,0,28940:0:0:0:0:
448,192,28583,128,0,29119:0:0:0:0:
192,192,28673,128,0,28762:0:0:0:0:
64,192,28673,128,0,28762:0:0:0:0:
192,192,28851,128,0,28940:0:0:0:0:
64,192,28851,128,0,29298:0:0:0:0:
192,192,29030,128,0,29298:0:0:0:0:
320,192,29030,128,0,29655:0:0:0:0:
448,192,29208,128,0,29298:0:0:0:0:
448,192,29387,128,0,29655:0:0:0:0:
64,192,29387,128,0,30012:0:0:0:0:
192,192,29387,128,0,29655:0:0:0:0:
320,192,29744,128,0,30369:0:0:0:0:
448,192,29744,128,0,30012:0:0:0:0:
192,192,29744,128,0,30012:0:0:0:0:
448,192,30101,128,0,30369:0:0:0:0:
64,192,30101,128,0,30548:0:0:0:0:
192,192,30101,128,0,30369:0:0:0:0:
320,192,30458,128,0,30905:0:0:0:0:
448,192,30458,128,0,30637:0:0:0:0:
192,192,30458,128,0,30548:0:0:0:0:
64,192,30637,128,0,30726:0:0:0:0:
192,192,30637,128,0,30726:0:0:0:0:
448,192,30726,128,0,30905:0:0:0:0:
64,192,30815,128,0,30994:0:0:0:0:
192,192,30815,128,0,31083:0:0:0:0:
320,192,30994,128,0,31083:0:0:0:0:
448,192,30994,128,0,31351:0:0:0:0:
64,192,31083,128,0,31262:0:0:0:0:
192,192,31173,128,0,31262:0:0:0:0:
320,192,31173,128,0,31440:0:0:0:0:
192,192,31351,128,0,31440:0:0:0:0:
64,192,31351,128,0,31619:0:0:0:0:
448,192,31440,128,0,31798:0:0:0:0:
320,192,31530,128,0,31976:0:0:0:0:
192,192,31530,128,0,31619:0:0:0:0:
64,192,31708,128,0,31798:0:0:0:0:
192,192,31708,128,0,31976:0:0:0:0:
64,192,31887,128,0,32155:0:0:0:0:
448,192,31887,128,0,32333:0:0:0:0:
320,192,32065,128,0,32423:0:0:0:0:
192,192,32065,128,0,32155:0:0:0:0:
64,192,32244,128,0,32512:0:0:0:0:
192,192,32244,128,0,32333:0:0:0:0:
192,192,32423,128,0,32780:0:0:0:0:
448,192,32423,128,0,32512:0:0:0:0:
320,192,32512,128,0,32690:0:0:0:0:
64,192,32601,128,0,32690:0:0:0:0:
448,192,32601,128,0,32869:0:0:0:0:
320,192,32780,128,0,33048:0:0:0:0:
64,192,32780,128,0,32869:0:0:0:0:
192,192,32869,128,0,33048:0:0:0:0:
64,192,32958,128,0,33405:0:0:0:0:
448,192,32958,128,0,33226:0:0:0:0:
192,192,33137,128,0,33583:0:0:0:0:
320,192,33137,128,0,33226:0:0:0:0:
320,192,33315,128,0,33762:0:0:0:0:
448,192,33315,128,0,33405:0:0:0:0:
64,192,33494,128,0,33583:0:0:0:0:
448,192,33494,128,0,34208:0:0:0:0:
64,192,33673,128,0,33851:0:0:0:0:
192,192,33673,128,0,33762:0:0:0:0:
320,192,33851,128,0,33940:0:0:0:0:
192,192,33851,128,0,33940:0:0:0:0:
64,192,33940,128,0,34476:0:0:0:0:
320,192,34030,128,0,34119:0:0:0:0:
192,192,34030,128,0,34119:0:0:0:0:
320,192,34208,128,0,34298:0:0:0:0:
192,192,34208,128,0,34298:0:0:0:0:
448,192,34298,128,0,34476:0:0:0:0:
320,192,34387,128,0,34923:0:0:0:0:
192,192,34387,128,0,34565:0:0:0:0:
64,192,34565,128,0,34655:0:0:0:0:
448,192,34565,128,0,34655:0:0:0:0:
192,192,34655,128,0,35101:0:0:0:0:
448,192,34744,128,0,34833:0:0:0:0:
64,192,34744,128,0,34833:0:0:0:0:
64,192,34923,128,0,35012:0:0:0:0:
448,192,34923,128,0,35012:0:0:0:0:
320,192,35012,128,0,35280:0:0:0:0:
448,192,35101,128,0,35190:0:0:0:0:
64,192,35101,128,0,35369:0:0:0:0:
192,192,35190,128,0,35369:0:0:0:0:
448,192,35280,128,0,35369:0:0:0:0:
320,192,35369,128,0,35458:0:0:0:0:
64,192,35458,128,0,35637:0:0:0:0:
448,192,35458,128,0,35726:0:0:0:0:
192,192,35458,128,0,35548:0:0:0:0:
320,192,35548,128,0,35726:0:0:0:0:
192,192,35637,128,0,35994:0:0:0:0:
64,192,35726,128,0,35905:0:0:0:0:
320,192,35815,128,0,35905:0:0:0:0:
448,192,35815,128,0,36440:0:0:0:0:
320,192,35994,128,0,36083:0:0:0:0:
64,192,35994,128,0,36083:0:0:0:0:
192,192,36083,128,0,36262:0:0:0:0:
320,192,36173,128,0,36262:0:0:0:0:
64,192,36173,128,0,36440:0:0:0:0:
320,192,36351,128,0,36440:0:0:0:0:
192,192,36351,128,0,36619:0:0:0:0:
320,192,36530,128,0,36708:0:0:0:0:
64,192,36530,128,0,36619:0:0:0:0:
448,192,36530,128,0,36708:0:0:0:0:
64,192,36708,128,0,36798:0:0:0:0:
192,192,36708,128,0,36798:0:0:0:0:
320,192,36798,128,0,37333:0:0:0:0:
448,192,36798,128,0,36976:0:0:0:0:
192,192,36887,128,0,37423:0:0:0:0:
64,192,36887,128,0,36976:0:0:0:0:
64,192,37065,128,0,37155:0:0:0:0:
448,192,37065,128,0,37155:0:0:0:0:
64,192,37244,128,0,37423:0:0:0:0:
448,192,37244,128,0,37333:0:0:0:0:
320,192,37423,128,0,37512:0:0:0:0:
448,192,37423,128,0,37512:0:0:0:0:
64,192,37512,128,0,37690:0:0:0:0:
192,192,37512,128,0,38048:0:0:0:0:
320,192,37601,128,0,38048:0:0:0:0:
448,192,37601,128,0,37690:0:0:0:0:
64,192,37780,128,0,37869:0:0:0:0:
448,192,37780,128,0,37869:0:0:0:0:
64,192,37958,128,0,38137:0:0:0:0:
448,192,37958,128,0,38137:0:0:0:0:
320,192,38137,128,0,38226:0:0:0:0:
192,192,38137,128,0,38226:0:0:0:0:
64,192,38226,128,0,38762:0:0:0:0:
448,192,38226,128,0,38405:0:0:0:0:
320,192,38315,128,0,38851:0:0:0:0:
192,192,38315,128,0,38405:0:0:0:0:
192,192,38494,128,0,38583:0:0:0:0:
448,192,38494,128,0,38583:0:0:0:0:
192,192,38673,128,0,38851:0:0:0:0:
448,192,38673,128,0,38762:0:0:0:0:
448,192,38851,128,0,38940:0:0:0:0:
64,192,38851,128,0,38940:0:0:0:0:
320,192,38940,128,0,39119:0:0:0:0:
192,192,38940,128,0,39565:0:0:0:0:
448,192,39030,128,0,39476:0:0:0:0:
64,192,39030,128,0,39119:0:0:0:0:
64,192,39208,128,0,39298:0:0:0:0:
320,192,39208,128,0,39298:0:0:0:0:
320,192,39387,128,0,39565:0:0:0:0:
64,192,39387,128,0,39476:0:0:0:0:
448,192,39565,128,0,39655:0:0:0:0:
64,192,39565,128,0,39655:0:0:0:0:
192,192,39655,128,0,39833:0:0:0:0:
320,192,39655,128,0,39833:0:0:0:0:
64,192,39744,128,0,40280:0:0:0:0:
448,192,39744,128,0,40280:0:0:0:0:
320,192,39923,128,0,40012:0:0:0:0:
192,192,39923,128,0,40012:0:0:0:0:
320,192,40101,128,0,40190:0:0:0:0:
192,192,40101,128,0,40190:0:0:0:0:
192,192,40280,128,0,40369:0:0:0:0:
320,192,40280,128,0,40369:0:0:0:0:
64,192,40369,128,0,40548:0:0:0:0:
448,192,40369,128,0,40548:0:0:0:0:
192,192,40458,128,0,40548:0:0:0:0:
320,192,40458,128,0,40726:0:0:0:0:
192,192,40637,128,0,40726:0:0:0:0:
448,192,40637,128,0,40726:0:0:0:0:
64,192,40637,128,0,40726:0:0:0:0:
192,192,40815,128,0,40905:0:0:0:0:
448,192,40815,128,0,41083:0:0:0:0:
320,192,40815,128,0,40905:0:0:0:0:
64,192,40815,128,0,41083:0:0:0:0:
192,192,40994,128,0,41083:0:0:0:0:
320,192,40994,128,0,41083:0:0:0:0:
448,192,41173,128,0,41262:0:0:0:0:
320,192,41173,128,0,41262:0:0:0:0:
64,192,41173,128,0,41440:0:0:0:0:
192,192,41173,128,0,41440:0:0:0:0:
448,192,41351,128,0,41440:0:0:0:0:
320,192,41351,128,0,41440:0:0:0:0:
448,192,41530,128,0,41798:0:0:0:0:
64,192,41530,128,0,41798:0:0:0:0:
192,192,41530,128,0,41798:0:0:0:0:
320,192,41530,128,0,41798:0:0:0:0:
448,192,41887,128,0,42423:0:0:0:0:
64,192,41887,128,0,42423:0:0:0:0:
320,192,41887,128,0,42155:0:0:0:0:
192,192,41887,128,0,42155:0:0:0:0:
192,192,42244,128,0,42333:0:0:0:0:
320,192,42244,128,0,42333:0:0:0:0:
192,192,42423,128,0,42512:0:0:0:0:
320,192,42423,128,0,42512:0:0:0:0:
448,192,42512,128,0,42869:0:0:0:0:
64,192,42512,128,0,42690:0:0:0:0:
192,192,42601,128,0,42690:0:0:0:0:
320,192,42601,128,0,42869:0:0:0:0:
64,192,42780,128,0,43137:0:0:0:0:
192,192,42780,128,0,43048:0:0:0:0:
448,192,42958,128,0,43048:0:0:0:0:
320,192,42958,128,0,43137:0:0:0:0:
192,192,43137,128,0,43226:0:0:0:0:
448,192,43137,128,0,43226:0:0:0:0:
64,192,43226,128,0,43405:0:0:0:0:
320,192,43226,128,0,43583:0:0:0:0:
448,192,43315,128,0,43583:0:0:0:0:
192,192,43315,128,0,43405:0:0:0:0:
192,192,43494,128,0,43762:0:0:0:0:
64,192,43494,128,0,43940:0:0:0:0:
320,192,43673,128,0,43940:0:0:0:0:
448,192,43673,128,0,43762:0:0:0:0:
192,192,43851,128,0,44119:0:0:0:0:
448,192,43851,128,0,43940:0:0:0:0:
448,192,44030,128,0,44298:0:0:0:0:
64,192,44030,128,0,44119:0:0:0:0:
320,192,44030,128,0,44298:0:0:0:0:
64,192,44208,128,0,44655:0:0:0:0:
192,192,44208,128,0,44655:0:0:0:0:
320,192,44387,128,0,45012:0:0:0:0:
448,192,44387,128,0,44655:0:0:0:0:
192,192,44744,128,0,45012:0:0:0:0:
448,192,44744,128,0,45012:0:0:0:0:
64,192,44744,128,0,44833:0:0:0:0:
64,192,44923,128,0,45012:0:0:0:0:
192,192,45101,128,0,45280:0:0:0:0:
320,192,45101,128,0,45190:0:0:0:0:
64,192,45101,128,0,45190:0:0:0:0:
448,192,45101,128,0,45280:0:0:0:0:
64,192,45280,128,0,45369:0:0:0:0:
320,192,45280,128,0,45369:0:0:0:0:
448,192,45369,128,0,45548:0:0:0:0:
192,192,45369,128,0,45726:0:0:0:0:
320,192,45458,128,0,45726:0:0:0:0:
64,192,45458,128,0,45726:0:0:0:0:
448,192,45637,128,0,45726:0:0:0:0:
320,192,45815,128,0,45994:0:0:0:0:
448,192,45815,128,0,45994:0:0:0:0:
64,192,45815,128,0,45905:0:0:0:0:
192,192,45815,128,0,45905:0:0:0:0:
192,192,45994,128,0,46083:0:0:0:0:
64,192,45994,128,0,46083:0:0:0:0:
448,192,46083,128,0,46440:0:0:0:0:
320,192,46083,128,0,46262:0:0:0:0:
64,192,46173,128,0,46440:0:0:0:0:
192,192,46173,128,0,46440:0:0:0:0:
320,192,46351,128,0,46440:0:0:0:0:
448,192,46530,128,0,46708:0:0:0:0:
64,192,46530,128,0,46708:0:0:0:0:
192,192,46530,128,0,46798:0:0:0:0:
320,192,46530,128,0,46798:0:0:0:0:
448,192,46798,128,0,47333:0:0:0:0:
64,192,46798,128,0,47512:0:0:0:0:
192,192,46887,128,0,46976:0:0:0:0:
320,192,46887,128,0,46976:0:0:0:0:
192,192,47065,128,0,47155:0:0:0:0:
320,192,47065,128,0,47155:0:0:0:0:
192,192,47244,128,0,47601:0:0:0:0:
320,192,47244,128,0,47423:0:0:0:0:
448,192,47423,128,0,47780:0:0:0:0:
320,192,47512,128,0,47690:0:0:0:0:
64,192,47601,128,0,47869:0:0:0:0:
192,192,47690,128,0,47869:0:0:0:0:
320,192,47780,128,0,48226:0:0:0:0:
448,192,47869,128,0,48583:0:0:0:0:
192,192,47958,128,0,48940:0:0:0:0:
64,192,47958,128,0,49655:0:0:0:0:
320,192,48315,128,0,49298:0:0:0:0:
448,192,48673,128,0,50012:0:0:0:0:
192,192,49030,128,0,51262:0:0:0:0:
320,192,49387,128,0,50369:0:0:0:0:
64,192,49744,128,0,50726:0:0:0:0:
448,192,50101,128,0,51083:0:0:0:0:
320,192,50458,128,0,51619:0:0:0:0:
64,192,50815,128,0,51440:0:0:0:0:
448,192,51173,128,0,51798:0:0:0:0:
192,192,51351,128,0,51976:0:0:0:0:
64,192,51530,128,0,52155:0:0:0:0:
320,192,51708,128,0,52155:0:0:0:0:
448,192,51887,128,0,52155:0:0:0:0:
192,192,52065,128,0,52512:0:0:0:0:
320,192,52244,128,0,52512:0:0:0:0:
64,192,52244,128,0,52869:0:0:0:0:
448,192,52244,128,0,52512:0:0:0:0:
320,192,52601,128,0,52869:0:0:0:0:
448,192,52601,128,0,52869:0:0:0:0:
192,192,52601,128,0,53315:0:0:0:0:
448,192,52958,128,0,53226:0:0:0:0:
64,192,52958,128,0,53226:0:0:0:0:
320,192,52958,128,0,53315:0:0:0:0:
448,192,53315,128,0,53405:0:0:0:0:
64,192,53315,128,0,53405:0:0:0:0:
192,192,53405,128,0,53583:0:0:0:0:
320,192,53405,128,0,53583:0:0:0:0:
64,192,53494,128,0,53583:0:0:0:0:
448,192,53494,128,0,53583:0:0:0:0:
192,192,53673,128,0,53940:0:0:0:0:
320,192,53673,128,0,53762:0:0:0:0:
448,192,53673,128,0,53940:0:0:0:0:
64,192,53673,128,0,53762:0:0:0:0:
320,192,53851,128,0,54655:0:0:0:0:
64,192,53851,128,0,54298:0:0:0:0:
192,192,54030,128,0,54119:0:0:0:0:
448,192,54030,128,0,54119:0:0:0:0:
192,192,54208,128,0,54298:0:0:0:0:
448,192,54208,128,0,54655:0:0:0:0:
192,192,54387,128,0,54476:0:0:0:0:
64,192,54387,128,0,54476:0:0:0:0:
192,192,54565,128,0,55369:0:0:0:0:
64,192,54565,128,0,55012:0:0:0:0:
320,192,54744,128,0,54833:0:0:0:0:
448,192,54744,128,0,54833:0:0:0:0:
320,192,54923,128,0,55012:0:0:0:0:
448,192,54923,128,0,55369:0:0:0:0:
320,192,55101,128,0,55190:0:0:0:0:
64,192,55101,128,0,55190:0:0:0:0:
320,192,55280,128,0,55726:0:0:0:0:
64,192,55280,128,0,56083:0:0:0:0:
192,192,55458,128,0,55548:0:0:0:0:
448,192,55458,128,0,55548:0:0:0:0:
192,192,55637,128,0,55905:0:0:0:0:
448,192,55637,128,0,55726:0:0:0:0:
320,192,55815,128,0,55905:0:0:0:0:
448,192,55815,128,0,56083:0:0:0:0:
320,192,55994,128,0,56262:0:0:0:0:
192,192,55994,128,0,56083:0:0:0:0:
192,192,56173,128,0,56440:0:0:0:0:
64,192,56173,128,0,56440:0:0:0:0:
448,192,56173,128,0,56440:0:0:0:0:
320,192,56351,128,0,56440:0:0:0:0:
320,192,56530,128,0,57690:0:0:0:0:
64,192,56530,128,0,57690:0:0:0:0:
192,192,56530,128,0,56976:0:0:0:0:
448,192,56530,128,0,56619:0:0:0:0:
448,192,56708,128,0,57155:0:0:0:0:
192,192,57065,128,0,57512:0:0:0:0:
448,192,57244,128,0,57690:0:0:0:0:
192,192,57601,128,0,58226:0:0:0:0:
64,192,57780,128,0,58405:0:0:0:0:
448,192,57780,128,0,58048:0:0:0:0:
320,192,57780,128,0,58048:0:0:0:0:
448,192,58137,128,0,58583:0:0:0:0:
320,192,58137,128,0,58226:0:0:0:0:
192,192,58315,128,0,58405:0:0:0:0:
320,192,58315,128,0,58583:0:0:0:0:
192,192,58494,128,0,58583:0:0:0:0:
64,192,58494,128,0,58940:0:0:0:0:
192,192,58673,128,0,58940:0:0:0:0:
448,192,58673,128,0,59119:0:0:0:0:
320,192,58673,128,0,58940:0:0:0:0:
192,192,59030,128,0,59298:0:0:0:0:
64,192,59030,128,0,59298:0:0:0:0:
320,192,59030,128,0,59119:0:0:0:0:
448,192,59208,128,0,59655:0:0:0:0:
320,192,59208,128,0,59298:0:0:0:0:
192,192,59387,128,0,59655:0:0:0:0:
64,192,59387,128,0,59476:0:0:0:0:
320,192,59387,128,0,59833:0:0:0:0:
64,192,59565,128,0,59655:0:0:0:0:
64,192,59744,128,0,60012:0:0:0:0:
448,192,59744,128,0,59923:0:0:0:0:
192,192,59744,128,0,60190:0:0:0:0:
320,192,59923,128,0,60012:0:0:0:0:
448,192,60012,128,0,60369:0:0:0:0:
64,192,60101,128,0,60369:0:0:0:0:
320,192,60101,128,0,60369:0:0:0:0:
192,192,60280,128,0,60548:0:0:0:0:
320,192,60458,128,0,61083:0:0:0:0:
64,192,60458,128,0,60726:0:0:0:0:
448,192,60458,128,0,60726:0:0:0:0:
192,192,60637,128,0,61798:0:0:0:0:
448,192,60815,128,0,60905:0:0:0:0:
64,192,60815,128,0,61083:0:0:0:0:
448,192,60994,128,0,61083:0:0:0:0:
448,192,61173,128,0,61440:0:0:0:0:
64,192,61173,128,0,61262:0:0:0:0:
320,192,61173,128,0,61351:0:0:0:0:
64,192,61351,128,0,61440:0:0:0:0:
320,192,61440,128,0,61798:0:0:0:0:
448,192,61530,128,0,61619:0:0:0:0:
64,192,61530,128,0,61798:0:0:0:0:
448,192,61708,128,0,62155:0:0:0:0:
64,192,61887,128,0,61976:0:0:0:0:
192,192,61887,128,0,62155:0:0:0:0:
320,192,61887,128,0,61976:0:0:0:0:
320,192,62065,128,0,62333:0:0:0:0:
64,192,62065,128,0,62512:0:0:0:0:
192,192,62244,128,0,62512:0:0:0:0:
448,192,62244,128,0,62423:0:0:0:0:
320,192,62423,128,0,62512:0:0:0:0:
448,192,62512,128,0,62780:0:0:0:0:
64,192,62601,128,0,62690:0:0:0:0:
320,192,62601,128,0,62690:0:0:0:0:
192,192,62601,128,0,62780:0:0:0:0:
64,192,62780,128,0,62869:0:0:0:0:
320,192,62780,128,0,62869:0:0:0:0:
192,192,62869,128,0,63226:0:0:0:0:
448,192,62869,128,0,63137:0:0:0:0:
64,192,62958,128,0,63226:0:0:0:0:
320,192,62958,128,0,63048:0:0:0:0:
320,192,63137,128,0,63226:0:0:0:0:
448,192,63226,128,0,63405:0:0:0:0:
64,192,63315,128,0,63583:0:0:0:0:
192,192,63315,128,0,63405:0:0:0:0:
320,192,63315,128,0,63940:0:0:0:0:
448,192,63494,128,0,63583:0:0:0:0:
192,192,63494,128,0,63762:0:0:0:0:
64,192,63673,128,0,63762:0:0:0:0:
448,192,63673,128,0,63940:0:0:0:0:
64,192,63851,128,0,63940:0:0:0:0:
192,192,63851,128,0,64208:0:0:0:0:
64,192,64030,128,0,64119:0:0:0:0:
448,192,64030,128,0,64208:0:0:0:0:
320,192,64030,128,0,64119:0:0:0:0:
64,192,64208,128,0,64298:0:0:0:0:
320,192,64208,128,0,64298:0:0:0:0:
448,192,64298,128,0,64655:0:0:0:0:
192,192,64298,128,0,64655:0:0:0:0:
320,192,64387,128,0,64476:0:0:0:0:
64,192,64387,128,0,64833:0:0:0:0:
320,192,64565,128,0,64744:0:0:0:0:
448,192,64744,128,0,64833:0:0:0:0:
192,192,64744,128,0,64923:0:0:0:0:
320,192,64833,128,0,65012:0:0:0:0:
448,192,64923,128,0,65012:0:0:0:0:
64,192,64923,128,0,65012:0:0:0:0:
192,192,65012,128,0,65190:0:0:0:0:
448,192,65101,128,0,65369:0:0:0:0:
320,192,65101,128,0,65637:0:0:0:0:
64,192,65101,128,0,65369:0:0:0:0:
192,192,65280,128,0,65369:0:0:0:0:
192,192,65458,128,0,65548:0:0:0:0:
448,192,65458,128,0,65726:0:0:0:0:
64,192,65458,128,0,65726:0:0:0:0:
192,192,65637,128,0,66262:0:0:0:0:
320,192,65726,128,0,66083:0:0:0:0:
448,192,65815,128,0,65905:0:0:0:0:
64,192,65815,128,0,66083:0:0:0:0:
448,192,65994,128,0,66083:0:0:0:0:
448,192,66173,128,0,66440:0:0:0:0:
320,192,66173,128,0,66619:0:0:0:0:
64,192,66173,128,0,66440:0:0:0:0:
192,192,66351,128,0,66798:0:0:0:0:
64,192,66530,128,0,66798:0:0:0:0:
448,192,66530,128,0,66798:0:0:0:0:
320,192,66708,128,0,66976:0:0:0:0:
192,192,66887,128,0,67065:0:0:0:0:
448,192,66887,128,0,67155:0:0:0:0:
64,192,66887,128,0,67155:0:0:0:0:
320,192,67065,128,0,67512:0:0:0:0:
192,192,67155,128,0,67333:0:0:0:0:
64,192,67244,128,0,67512:0:0:0:0:
448,192,67244,128,0,67869:0:0:0:0:
192,192,67423,128,0,67512:0:0:0:0:
64,192,67601,128,0,67869:0:0:0:0:
320,192,67601,128,0,67690:0:0:0:0:
192,192,67601,128,0,68048:0:0:0:0:
320,192,67780,128,0,68226:0:0:0:0:
64,192,67958,128,0,68226:0:0:0:0:
448,192,67958,128,0,68137:0:0:0:0:
192,192,68137,128,0,68226:0:0:0:0:
448,192,68226,128,0,68494:0:0:0:0:
192,192,68315,128,0,68405:0:0:0:0:
64,192,68315,128,0,68405:0:0:0:0:
320,192,68315,128,0,68494:0:0:0:0:
64,192,68494,128,0,68583:0:0:0:0:
192,192,68494,128,0,68583:0:0:0:0:
448,192,68583,128,0,68851:0:0:0:0:
320,192,68583,128,0,68940:0:0:0:0:
64,192,68673,128,0,68940:0:0:0:0:
192,192,68673,128,0,68762:0:0:0:0:
192,192,68851,128,0,68940:0:0:0:0:
448,192,68940,128,0,69119:0:0:0:0:
64,192,69030,128,0,69298:0:0:0:0:
192,192,69030,128,0,69119:0:0:0:0:
320,192,69030,128,0,69298:0:0:0:0:
192,192,69208,128,0,69923:0:0:0:0:
448,192,69208,128,0,69655:0:0:0:0:
320,192,69387,128,0,69476:0:0:0:0:
64,192,69387,128,0,69476:0:0:0:0:
320,192,69565,128,0,69655:0:0:0:0:
64,192,69565,128,0,69923:0:0:0:0:
448,192,69744,128,0,69833:0:0:0:0:
320,192,69744,128,0,69833:0:0:0:0:
448,192,69923,128,0,70012:0:0:0:0:
320,192,69923,128,0,70012:0:0:0:0:
192,192,70012,128,0,70369:0:0:0:0:
448,192,70101,128,0,70458:0:0:0:0:
320,192,70101,128,0,70190:0:0:0:0:
64,192,70101,128,0,70369:0:0:0:0:
320,192,70280,128,0,70458:0:0:0:0:
192,192,70458,128,0,70548:0:0:0:0:
64,192,70458,128,0,70548:0:0:0:0:
448,192,70548,128,0,70637:0:0:0:0:
320,192,70548,128,0,70637:0:0:0:0:
64,192,70637,128,0,70726:0:0:0:0:
192,192,70637,128,0,70726:0:0:0:0:
320,192,70726,128,0,70994:0:0:0:0:
448,192,70815,128,0,71083:0:0:0:0:
64,192,70815,128,0,70905:0:0:0:0:
192,192,70815,128,0,71083:0:0:0:0:
64,192,70994,128,0,71083:0:0:0:0:
320,192,71083,128,0,71262:0:0:0:0:
448,192,71173,128,0,71440:0:0:0:0:
64,192,71173,128,0,71351:0:0:0:0:
192,192,71173,128,0,71619:0:0:0:0:
320,192,71351,128,0,71440:0:0:0:0:
64,192,71440,128,0,71708:0:0:0:0:
448,192,71530,128,0,71798:0:0:0:0:
320,192,71530,128,0,71798:0:0:0:0:
192,192,71708,128,0,71798:0:0:0:0:
64,192,71798,128,0,72155:0:0:0:0:
320,192,71887,128,0,71976:0:0:0:0:
192,192,71887,128,0,72065:0:0:0:0:
448,192,71887,128,0,72155:0:0:0:0:
320,192,72065,128,0,72423:0:0:0:0:
192,192,72155,128,0,72512:0:0:0:0:
448,192,72244,128,0,72333:0:0:0:0:
64,192,72244,128,0,72512:0:0:0:0:
448,192,72423,128,0,72512:0:0:0:0:
320,192,72512,128,0,72780:0:0:0:0:
192,192,72601,128,0,72780:0:0:0:0:
448,192,72601,128,0,72690:0:0:0:0:
64,192,72601,128,0,72690:0:0:0:0:
64,192,72780,128,0,72869:0:0:0:0:
448,192,72780,128,0,72869:0:0:0:0:
320,192,72869,128,0,73226:0:0:0:0:
192,192,72869,128,0,73226:0:0:0:0:
448,192,72958,128,0,73226:0:0:0:0:
64,192,72958,128,0,73048:0:0:0:0:
64,192,73137,128,0,73405:0:0:0:0:
320,192,73315,128,0,73405:0:0:0:0:
448,192,73315,128,0,73583:0:0:0:0:
192,192,73315,128,0,73583:0:0:0:0:
320,192,73494,128,0,73940:0:0:0:0:
64,192,73494,128,0,73762:0:0:0:0:
192,192,73673,128,0,73940:0:0:0:0:
448,192,73673,128,0,73851:0:0:0:0:
64,192,73851,128,0,73940:0:0:0:0:
448,192,73940,128,0,74208:0:0:0:0:
64,192,74030,128,0,74119:0:0:0:0:
192,192,74030,128,0,74208:0:0:0:0:
320,192,74030,128,0,74119:0:0:0:0:
320,192,74208,128,0,74298:0:0:0:0:
64,192,74208,128,0,74298:0:0:0:0:
448,192,74298,128,0,74565:0:0:0:0:
192,192,74298,128,0,74655:0:0:0:0:
320,192,74387,128,0,74655:0:0:0:0:
64,192,74387,128,0,74476:0:0:0:0:
64,192,74565,128,0,74655:0:0:0:0:
448,192,74655,128,0,74833:0:0:0:0:
192,192,74744,128,0,75190:0:0:0:0:
64,192,74744,128,0,75012:0:0:0:0:
320,192,74744,128,0,74833:0:0:0:0:
320,192,74923,128,0,75369:0:0:0:0:
448,192,74923,128,0,75012:0:0:0:0:
448,192,75101,128,0,75369:0:0:0:0:
64,192,75101,128,0,75190:0:0:0:0:
192,192,75280,128,0,75458:0:0:0:0:
64,192,75280,128,0,75369:0:0:0:0:
64,192,75458,128,0,75548:0:0:0:0:
448,192,75458,128,0,75637:0:0:0:0:
320,192,75458,128,0,75548:0:0:0:0:
192,192,75548,128,0,75637:0:0:0:0:
320,192,75637,128,0,75726:0:0:0:0:
64,192,75637,128,0,75726:0:0:0:0:
448,192,75726,128,0,75905:0:0:0:0:
192,192,75726,128,0,76083:0:0:0:0:
320,192,75815,128,0,76173:0:0:0:0:
64,192,75815,128,0,75905:0:0:0:0:
448,192,75994,128,0,76083:0:0:0:0:
64,192,75994,128,0,76173:0:0:0:0:
448,192,76173,128,0,76262:0:0:0:0:
192,192,76173,128,0,76262:0:0:0:0:
320,192,76262,128,0,76440:0:0:0:0:
64,192,76262,128,0,76351:0:0:0:0:
448,192,76351,128,0,76440:0:0:0:0:
192,192,76351,128,0,76440:0:0:0:0:
64,192,76440,128,0,76708:0:0:0:0:
448,192,76530,128,0,76798:0:0:0:0:
320,192,76530,128,0,76798:0:0:0:0:
192,192,76530,128,0,76619:0:0:0:0:
192,192,76708,128,0,76798:0:0:0:0:
64,192,76798,128,0,77155:0:0:0:0:
448,192,76887,128,0,77065:0:0:0:0:
320,192,76887,128,0,77155:0:0:0:0:
192,192,76887,128,0,76976:0:0:0:0:
192,192,77065,128,0,77333:0:0:0:0:
448,192,77155,128,0,77423:0:0:0:0:
64,192,77244,128,0,77512:0:0:0:0:
320,192,77244,128,0,77512:0:0:0:0:
192,192,77423,128,0,77512:0:0:0:0:
448,192,77512,128,0,77690:0:0:0:0:
192,192,77601,128,0,77869:0:0:0:0:
64,192,77601,128,0,77869:0:0:0:0:
320,192,77601,128,0,77780:0:0:0:0:
448,192,77780,128,0,78226:0:0:0:0:
320,192,77869,128,0,78137:0:0:0:0:
64,192,77958,128,0,78226:0:0:0:0:
192,192,77958,128,0,78048:0:0:0:0:
192,192,78137,128,0,78226:0:0:0:0:
320,192,78226,128,0,79119:0:0:0:0:
192,192,78315,128,0,78405:0:0:0:0:
448,192,78315,128,0,78405:0:0:0:0:
64,192,78315,128,0,78494:0:0:0:0:
448,192,78494,128,0,78583:0:0:0:0:
192,192,78494,128,0,78583:0:0:0:0:
64,192,78583,128,0,78940:0:0:0:0:
448,192,78673,128,0,78762:0:0:0:0:
192,192,78673,128,0,78762:0:0:0:0:
448,192,78851,128,0,78940:0:0:0:0:
192,192,78851,128,0,78940:0:0:0:0:
448,192,79030,128,0,79655:0:0:0:0:
64,192,79030,128,0,79119:0:0:0:0:
192,192,79030,128,0,79476:0:0:0:0:
64,192,79208,128,0,79298:0:0:0:0:
320,192,79208,128,0,79298:0:0:0:0:
64,192,79387,128,0,79476:0:0:0:0:
320,192,79387,128,0,79565:0:0:0:0:
64,192,79565,128,0,79655:0:0:0:0:
192,192,79565,128,0,79655:0:0:0:0:
320,192,79655,128,0,79833:0:0:0:0:
448,192,79744,128,0,79833:0:0:0:0:
64,192,79744,128,0,79923:0:0:0:0:
192,192,79744,128,0,79923:0:0:0:0:
448,192,79923,128,0,80012:0:0:0:0:
320,192,79923,128,0,80012:0:0:0:0:
192,192,80012,128,0,80369:0:0:0:0:
64,192,80012,128,0,80190:0:0:0:0:
320,192,80101,128,0,80369:0:0:0:0:
448,192,80101,128,0,80280:0:0:0:0:
64,192,80280,128,0,80369:0:0:0:0:
448,192,80369,128,0,80548:0:0:0:0:
192,192,80458,128,0,80548:0:0:0:0:
320,192,80458,128,0,80637:0:0:0:0:
64,192,80458,128,0,80726:0:0:0:0:
192,192,80637,128,0,80905:0:0:0:0:
448,192,80637,128,0,80726:0:0:0:0:
320,192,80726,128,0,81083:0:0:0:0:
448,192,80815,128,0,81083:0:0:0:0:
64,192,80815,128,0,80905:0:0:0:0:
192,192,80994,128,0,81083:0:0:0:0:
64,192,80994,128,0,81262:0:0:0:0:
320,192,81173,128,0,81351:0:0:0:0:
448,192,81173,128,0,81262:0:0:0:0:
192,192,81173,128,0,81262:0:0:0:0:
64,192,81351,128,0,81440:0:0:0:0:
448,192,81351,128,0,81440:0:0:0:0:
192,192,81351,128,0,81440:0:0:0:0:
320,192,81440,128,0,81798:0:0:0:0:
64,192,81530,128,0,81887:0:0:0:0:
448,192,81530,128,0,81798:0:0:0:0:
192,192,81530,128,0,81619:0:0:0:0:
192,192,81708,128,0,81887:0:0:0:0:
320,192,81887,128,0,81976:0:0:0:0:
448,192,81887,128,0,81976:0:0:0:0:
64,192,81976,128,0,82065:0:0:0:0:
192,192,81976,128,0,82065:0:0:0:0:
448,192,82065,128,0,82155:0:0:0:0:
320,192,82065,128,0,82155:0:0:0:0:
64,192,82155,128,0,82869:0:0:0:0:
192,192,82155,128,0,82333:0:0:0:0:
320,192,82244,128,0,82869:0:0:0:0:
448,192,82244,128,0,82333:0:0:0:0:
448,192,82423,128,0,82512:0:0:0:0:
192,192,82423,128,0,82512:0:0:0:0:
448,192,82601,128,0,82690:0:0:0:0:
192,192,82601,128,0,82690:0:0:0:0:
192,192,82780,128,0,82958:0:0:0:0:
448,192,82780,128,0,82958:0:0:0:0:
64,192,82958,128,0,83048:0:0:0:0:
320,192,82958,128,0,83048:0:0:0:0:
192,192,83048,128,0,83226:0:0:0:0:
448,192,83048,128,0,83405:0:0:0:0:
64,192,83137,128,0,83405:0:0:0:0:
320,192,83137,128,0,83583:0:0:0:0:
192,192,83315,128,0,83405:0:0:0:0:
192,192,83494,128,0,83762:0:0:0:0:
448,192,83494,128,0,83583:0:0:0:0:
64,192,83494,128,0,83583:0:0:0:0:
64,192,83673,128,0,84298:0:0:0:0:
448,192,83673,128,0,84387:0:0:0:0:
320,192,83673,128,0,83762:0:0:0:0:
320,192,83851,128,0,83940:0:0:0:0:
192,192,83851,128,0,83940:0:0:0:0:
192,192,84030,128,0,84119:0:0:0:0:
320,192,84030,128,0,84119:0:0:0:0:
192,192,84208,128,0,84298:0:0:0:0:
320,192,84208,128,0,84387:0:0:0:0:
64,192,84387,128,0,84476:0:0:0:0:
192,192,84387,128,0,84476:0:0:0:0:
448,192,84476,128,0,84833:0:0:0:0:
320,192,84476,128,0,84833:0:0:0:0:
64,192,84565,128,0,84833:0:0:0:0:
192,192,84565,128,0,84655:0:0:0:0:
192,192,84744,128,0,85726:0:0:0:0:
64,192,84923,128,0,85012:0:0:0:0:
448,192,84923,128,0,85012:0:0:0:0:
320,192,84923,128,0,85012:0:0:0:0:
320,192,85101,128,0,85815:0:0:0:0:
64,192,85101,128,0,85190:0:0:0:0:
448,192,85101,128,0,85190:0:0:0:0:
64,192,85280,128,0,85369:0:0:0:0:
448,192,85280,128,0,85369:0:0:0:0:
64,192,85458,128,0,85548:0:0:0:0:
448,192,85458,128,0,85548:0:0:0:0:
64,192,85637,128,0,85815:0:0:0:0:
448,192,85637,128,0,85726:0:0:0:0:
448,192,85815,128,0,85905:0:0:0:0:
192,192,85815,128,0,85905:0:0:0:0:
320,192,85905,128,0,86083:0:0:0:0:
64,192,85905,128,0,86262:0:0:0:0:
448,192,85994,128,0,86262:0:0:0:0:
192,192,85994,128,0,86262:0:0:0:0:
320,192,86173,128,0,86440:0:0:0:0:
192,192,86351,128,0,86440:0:0:0:0:
64,192,86351,128,0,86440:0:0:0:0:
448,192,86351,128,0,86440:0:0:0:0:
192,192,86530,128,0,86798:0:0:0:0:
320,192,86530,128,0,86798:0:0:0:0:
64,192,86530,128,0,86619:0:0:0:0:
448,192,86530,128,0,86619:0:0:0:0:
448,192,86708,128,0,86798:0:0:0:0:
64,192,86708,128,0,86798:0:0:0:0:
192,192,86887,128,0,87155:0:0:0:0:
320,192,86887,128,0,87155:0:0:0:0:
448,192,86887,128,0,86976:0:0:0:0:
64,192,86887,128,0,86976:0:0:0:0:
448,192,87065,128,0,87244:0:0:0:0:
64,192,87065,128,0,87155:0:0:0:0:
64,192,87244,128,0,87512:0:0:0:0:
192,192,87244,128,0,87423:0:0:0:0:
320,192,87244,128,0,87333:0:0:0:0:
448,192,87333,128,0,87512:0:0:0:0:
320,192,87423,128,0,87512:0:0:0:0:
192,192,87512,128,0,87601:0:0:0:0:
64,192,87601,128,0,87780:0:0:0:0:
320,192,87601,128,0,87869:0:0:0:0:
448,192,87601,128,0,87690:0:0:0:0:
192,192,87690,128,0,87869:0:0:0:0:
448,192,87780,128,0,87869:0:0:0:0:
64,192,87869,128,0,88226:0:0:0:0:
320,192,87958,128,0,88048:0:0:0:0:
448,192,87958,128,0,88048:0:0:0:0:
192,192,87958,128,0,88673:0:0:0:0:
448,192,88137,128,0,88405:0:0:0:0:
320,192,88137,128,0,88226:0:0:0:0:
64,192,88315,128,0,88583:0:0:0:0:
320,192,88315,128,0,88405:0:0:0:0:
448,192,88494,128,0,88673:0:0:0:0:
320,192,88494,128,0,88583:0:0:0:0:
64,192,88673,128,0,88762:0:0:0:0:
320,192,88673,128,0,88762:0:0:0:0:
448,192,88762,128,0,89119:0:0:0:0:
192,192,88762,128,0,88940:0:0:0:0:
64,192,88851,128,0,88940:0:0:0:0:
320,192,88851,128,0,89119:0:0:0:0:
64,192,89030,128,0,89119:0:0:0:0:
192,192,89030,128,0,89298:0:0:0:0:
320,192,89208,128,0,89476:0:0:0:0:
448,192,89208,128,0,89298:0:0:0:0:
64,192,89208,128,0,89298:0:0:0:0:
192,192,89387,128,0,89833:0:0:0:0:
448,192,89387,128,0,89476:0:0:0:0:
64,192,89387,128,0,89655:0:0:0:0:
320,192,89565,128,0,90101:0:0:0:0:
448,192,89565,128,0,89655:0:0:0:0:
64,192,89744,128,0,90012:0:0:0:0:
448,192,89744,128,0,89833:0:0:0:0:
448,192,89923,128,0,90012:0:0:0:0:
192,192,89923,128,0,90101:0:0:0:0:
448,192,90101,128,0,90190:0:0:0:0:
64,192,90101,128,0,90190:0:0:0:0:
192,192,90190,128,0,90369:0:0:0:0:
320,192,90190,128,0,90726:0:0:0:0:
64,192,90280,128,0,90369:0:0:0:0:
448,192,90280,128,0,90548:0:0:0:0:
64,192,90458,128,0,90548:0:0:0:0:
192,192,90458,128,0,90548:0:0:0:0:
448,192,90637,128,0,90726:0:0:0:0:
192,192,90637,128,0,90905:0:0:0:0:
64,192,90637,128,0,90726:0:0:0:0:
320,192,90815,128,0,90905:0:0:0:0:
64,192,90815,128,0,91083:0:0:0:0:
448,192,90815,128,0,90905:0:0:0:0:
192,192,90994,128,0,91530:0:0:0:0:
320,192,90994,128,0,91262:0:0:0:0:
448,192,90994,128,0,91083:0:0:0:0:
64,192,91173,128,0,91530:0:0:0:0:
448,192,91173,128,0,91262:0:0:0:0:
320,192,91351,128,0,91440:0:0:0:0:
448,192,91351,128,0,91440:0:0:0:0:
320,192,91530,128,0,91619:0:0:0:0:
448,192,91530,128,0,91619:0:0:0:0:
192,192,91619,128,0,91798:0:0:0:0:
64,192,91619,128,0,91798:0:0:0:0:
448,192,91708,128,0,91976:0:0:0:0:
320,192,91708,128,0,91976:0:0:0:0:
192,192,91887,128,0,92155:0:0:0:0:
64,192,91887,128,0,91976:0:0:0:0:
448,192,92065,128,0,92155:0:0:0:0:
64,192,92065,128,0,92155:0:0:0:0:
320,192,92065,128,0,92155:0:0:0:0:
448,192,92244,128,0,92333:0:0:0:0:
64,192,92244,128,0,92512:0:0:0:0:
192,192,92244,128,0,92512:0:0:0:0:
320,192,92244,128,0,92333:0:0:0:0:
320,192,92423,128,0,92512:0:0:0:0:
448,192,92423,128,0,92512:0:0:0:0:
64,192,92601,128,0,92869:0:0:0:0:
448,192,92601,128,0,92690:0:0:0:0:
192,192,92601,128,0,92869:0:0:0:0:
320,192,92601,128,0,92690:0:0:0:0:
448,192,92780,128,0,92958:0:0:0:0:
320,192,92780,128,0,92869:0:0:0:0:
192,192,92958,128,0,93048:0:0:0:0:
320,192,92958,128,0,93048:0:0:0:0:
64,192,92958,128,0,93137:0:0:0:0:
448,192,93048,128,0,93226:0:0:0:0:
320,192,93137,128,0,93226:0:0:0:0:
192,192,93137,128,0,93315:0:0:0:0:
64,192,93226,128,0,93405:0:0:0:0:
448,192,93315,128,0,93405:0:0:0:0:
320,192,93315,128,0,93494:0:0:0:0:
192,192,93405,128,0,93583:0:0:0:0:
448,192,93494,128,0,93583:0:0:0:0:
64,192,93494,128,0,93583:0:0:0:0:
320,192,93583,128,0,93673:0:0:0:0:
192,192,93673,128,0,93851:0:0:0:0:
448,192,93673,128,0,93762:0:0:0:0:
64,192,93673,128,0,93762:0:0:0:0:
320,192,93762,128,0,93940:0:0:0:0:
448,192,93851,128,0,93940:0:0:0:0:
64,192,93851,128,0,94030:0:0:0:0:
192,192,93940,128,0,94119:0:0:0:0:
448,192,94030,128,0,94208:0:0:0:0:
320,192,94030,128,0,94119:0:0:0:0:
64,192,94119,128,0,94298:0:0:0:0:
320,192,94208,128,0,94298:0:0:0:0:
192,192,94208,128,0,94298:0:0:0:0:
448,192,94298,128,0,94387:0:0:0:0:
64,192,94387,128,0,94565:0:0:0:0:
320,192,94387,128,0,94476:0:0:0:0:
192,192,94387,128,0,94476:0:0:0:0:
448,192,94476,128,0,94655:0:0:0:0:
320,192,94565,128,0,94655:0:0:0:0:
192,192,94565,128,0,94744:0:0:0:0:
64,192,94655,128,0,94833:0:0:0:0:
320,192,94744,128,0,94923:0:0:0:0:
448,192,94744,128,0,94833:0:0:0:0:
192,192,94833,128,0,95012:0:0:0:0:
64,192,94923,128,0,95012:0:0:0:0:
448,192,94923,128,0,95101:0:0:0:0:
320,192,95012,128,0,95101:0:0:0:0:
64,192,95101,128,0,95190:0:0:0:0:
192,192,95101,128,0,95190:0:0:0:0:
320,192,95190,128,0,95280:0:0:0:0:
448,192,95190,128,0,95280:0:0:0:0:
64,192,95280,128,0,95369:0:0:0:0:
192,192,95280,128,0,95369:0:0:0:0:
320,192,95369,128,0,95458:0:0:0:0:
448,192,95369,128,0,95458:0:0:0:0:
64,192,95458,128,0,95548:0:0:0:0:
192,192,95458,128,0,95548:0:0:0:0:
448,192,95548,128,0,95637:0:0:0:0:
320,192,95548,128,0,95637:0:0:0:0:
64,192,95637,128,0,95726:0:0:0:0:
192,192,95637,128,0,95726:0:0:0:0:
320,192,95726,128,0,95815:0:0:0:0:
448,192,95726,128,0,95815:0:0:0:0:
64,192,95815,128,0,95905:0:0:0:0:
192,192,95815,128,0,95905:0:0:0:0:
320,192,95905,128,0,95994:0:0:0:0:
448,192,95905,128,0,95994:0:0:0:0:
64,192,95994,128,0,96083:0:0:0:0:
192,192,95994,128,0,96083:0:0:0:0:
320,192,96083,128,0,96173:0:0:0:0:
448,192,96083,128,0,96173:0:0:0:0:
192,192,96173,128,0,96262:0:0:0:0:
64,192,96173,128,0,96262:0:0:0:0:
320,192,96262,128,0,96351:0:0:0:0:
448,192,96262,128,0,96351:0:0:0:0:
192,192,96351,128,0,96440:0:0:0:0:
64,192,96351,128,0,97869:0:0:0:0:
320,192,96440,128,0,97869:0:0:0:0:
448,192,96440,128,0,97869:0:0:0:0:
192,192,96530,128,0,96798:0:0:0:0:
192,192,96887,128,0,96976:0:0:0:0:
192,192,97065,128,0,97155:0:0:0:0:
192,192,97244,128,0,97512:0:0:0:0:
192,192,97601,128,0,97869:0:0:0:0:
192,192,97958,128,0,100726:0:0:0:0:
64,192,97958,128,0,99298:0:0:0:0:
448,192,97958,128,0,102155:0:0:0:0:
320,192,97958,128,0,105012:0:0:0:0:
64,192,99387,128,0,103583:0:0:0:0:
192,192,100815,128,0,109298:0:0:0:0:
448,192,102244,128,0,109298:0:0:0:0:
64,192,103673,128,0,106440:0:0:0:0:
320,192,105101,128,0,109298:0:0:0:0:
64,192,106530,128,0,106798:0:0:0:0:
64,192,106887,128,0,107155:0:0:0:0:
64,192,107244,128,0,109298:0:0:0:0:
192,192,109387,128,0,112155:0:0:0:0:
64,192,109387,128,0,110369:0:0:0:0:
320,192,109387,128,0,111798:0:0:0:0:
448,192,109387,128,0,110726:0:0:0:0:
64,192,110458,128,0,111083:0:0:0:0:
448,192,110815,128,0,111440:0:0:0:0:
64,192,111173,128,0,115012:0:0:0:0:
448,192,111530,128,0,113583:0:0:0:0:
320,192,111887,128,0,112869:0:0:0:0:
192,192,112244,128,0,114655:0:0:0:0:
320,192,112958,128,0,114298:0:0:0:0:
448,192,113673,128,0,116798:0:0:0:0:
320,192,114387,128,0,116976:0:0:0:0:
192,192,114744,128,0,116440:0:0:0:0:
64,192,115101,128,0,116083:0:0:0:0:
64,192,116173,128,0,117155:0:0:0:0:
192,192,116530,128,0,120548:0:0:0:0:
448,192,116887,128,0,117512:0:0:0:0:
320,192,117065,128,0,120548:0:0:0:0:
64,192,117244,128,0,117869:0:0:0:0:
448,192,117601,128,0,120369:0:0:0:0:
64,192,117958,128,0,120369:0:0:0:0:
64,192,120458,128,0,120726:0:0:0:0:
448,192,120458,128,0,120726:0:0:0:0:
192,192,120637,128,0,120726:0:0:0:0:
320,192,120637,128,0,120726:0:0:0:0:
64,192,120815,128,0,120905:0:0:0:0:
320,192,120815,128,0,121440:0:0:0:0:
192,192,120815,128,0,120994:0:0:0:0:
448,192,120815,128,0,120905:0:0:0:0:
448,192,120994,128,0,121083:0:0:0:0:
64,192,120994,128,0,121083:0:0:0:0:
192,192,121083,128,0,121440:0:0:0:0:
448,192,121173,128,0,121262:0:0:0:0:
64,192,121173,128,0,121262:0:0:0:0:
448,192,121351,128,0,121440:0:0:0:0:
64,192,121351,128,0,121440:0:0:0:0:
192,192,121530,128,0,121798:0:0:0:0:
64,192,121530,128,0,121619:0:0:0:0:
448,192,121530,128,0,121619:0:0:0:0:
320,192,121619,128,0,121798:0:0:0:0:
64,192,121708,128,0,121976:0:0:0:0:
448,192,121708,128,0,121976:0:0:0:0:
192,192,121887,128,0,121976:0:0:0:0:
320,192,121887,128,0,121976:0:0:0:0:
320,192,122065,128,0,122155:0:0:0:0:
192,192,122065,128,0,122155:0:0:0:0:
64,192,122065,128,0,122155:0:0:0:0:
448,192,122065,128,0,122155:0:0:0:0:
320,192,122244,128,0,122869:0:0:0:0:
448,192,122244,128,0,122333:0:0:0:0:
192,192,122244,128,0,122333:0:0:0:0:
64,192,122244,128,0,122423:0:0:0:0:
192,192,122423,128,0,122512:0:0:0:0:
448,192,122423,128,0,122512:0:0:0:0:
64,192,122512,128,0,122869:0:0:0:0:
192,192,122601,128,0,122690:0:0:0:0:
448,192,122601,128,0,122690:0:0:0:0:
192,192,122780,128,0,122869:0:0:0:0:
448,192,122780,128,0,122869:0:0:0:0:
320,192,122958,128,0,123048:0:0:0:0:
192,192,122958,128,0,123226:0:0:0:0:
64,192,122958,128,0,123048:0:0:0:0:
448,192,123048,128,0,123226:0:0:0:0:
64,192,123137,128,0,123226:0:0:0:0:
320,192,123137,128,0,123226:0:0:0:0:
320,192,123315,128,0,123583:0:0:0:0:
64,192,123315,128,0,123583:0:0:0:0:
192,192,123315,128,0,123405:0:0:0:0:
448,192,123315,128,0,123583:0:0:0:0:
192,192,123494,128,0,123583:0:0:0:0:
192,192,123673,128,0,123851:0:0:0:0:
64,192,123673,128,0,123762:0:0:0:0:
320,192,123673,128,0,123762:0:0:0:0:
448,192,123673,128,0,123851:0:0:0:0:
320,192,123851,128,0,123940:0:0:0:0:
64,192,123851,128,0,123940:0:0:0:0:
192,192,123940,128,0,124119:0:0:0:0:
448,192,123940,128,0,124119:0:0:0:0:
320,192,124030,128,0,124298:0:0:0:0:
64,192,124030,128,0,124298:0:0:0:0:
192,192,124208,128,0,124298:0:0:0:0:
448,192,124208,128,0,124298:0:0:0:0:
192,192,124387,128,0,124565:0:0:0:0:
320,192,124387,128,0,124476:0:0:0:0:
64,192,124387,128,0,124476:0:0:0:0:
448,192,124387,128,0,124565:0:0:0:0:
320,192,124565,128,0,124655:0:0:0:0:
64,192,124565,128,0,124655:0:0:0:0:
192,192,124655,128,0,124833:0:0:0:0:
448,192,124655,128,0,124833:0:0:0:0:
320,192,124744,128,0,125012:0:0:0:0:
64,192,124744,128,0,125012:0:0:0:0:
192,192,124923,128,0,125012:0:0:0:0:
448,192,124923,128,0,125012:0:0:0:0:
192,192,125101,128,0,125369:0:0:0:0:
320,192,125101,128,0,125190:0:0:0:0:
64,192,125101,128,0,125369:0:0:0:0:
448,192,125101,128,0,125369:0:0:0:0:
320,192,125280,128,0,125369:0:0:0:0:
320,192,125458,128,0,125726:0:0:0:0:
64,192,125458,128,0,125726:0:0:0:0:
448,192,125458,128,0,125726:0:0:0:0:
192,192,125458,128,0,125548:0:0:0:0:
192,192,125637,128,0,125726:0:0:0:0:
448,192,125815,128,0,126083:0:0:0:0:
320,192,125815,128,0,126083:0:0:0:0:
64,192,125815,128,0,126083:0:0:0:0:
192,192,125815,128,0,126083:0:0:0:0:
320,192,126173,128,0,126440:0:0:0:0:
64,192,126173,128,0,126440:0:0:0:0:
192,192,126173,128,0,126440:0:0:0:0:
448,192,126173,128,0,126440:0:0:0:0:
320,192,126530,128,0,126708:0:0:0:0:
448,192,126530,128,0,126619:0:0:0:0:
64,192,126530,128,0,126798:0:0:0:0:
192,192,126530,128,0,126798:0:0:0:0:
448,192,126708,128,0,126798:0:0:0:0:
320,192,126798,128,0,126887:0:0:0:0:
448,192,126887,128,0,127244:0:0:0:0:
64,192,126887,128,0,127155:0:0:0:0:
192,192,126887,128,0,126976:0:0:0:0:
320,192,126976,128,0,127333:0:0:0:0:
192,192,127065,128,0,127155:0:0:0:0:
192,192,127244,128,0,127512:0:0:0:0:
64,192,127244,128,0,127512:0:0:0:0:
448,192,127333,128,0,127601:0:0:0:0:
320,192,127423,128,0,127512:0:0:0:0:
192,192,127601,128,0,127690:0:0:0:0:
320,192,127601,128,0,127690:0:0:0:0:
64,192,127601,128,0,128048:0:0:0:0:
448,192,127690,128,0,128226:0:0:0:0:
320,192,127780,128,0,127869:0:0:0:0:
192,192,127780,128,0,127869:0:0:0:0:
320,192,127958,128,0,128137:0:0:0:0:
192,192,127958,128,0,128226:0:0:0:0:
64,192,128137,128,0,128226:0:0:0:0:
320,192,128226,128,0,128315:0:0:0:0:
64,192,128315,128,0,128405:0:0:0:0:
448,192,128315,128,0,128583:0:0:0:0:
192,192,128315,128,0,128940:0:0:0:0:
320,192,128405,128,0,128673:0:0:0:0:
64,192,128494,128,0,128583:0:0:0:0:
448,192,128673,128,0,128940:0:0:0:0:
64,192,128673,128,0,128762:0:0:0:0:
320,192,128762,128,0,129030:0:0:0:0:
64,192,128851,128,0,128940:0:0:0:0:
448,192,129030,128,0,129119:0:0:0:0:
64,192,129030,128,0,129298:0:0:0:0:
192,192,129030,128,0,129119:0:0:0:0:
320,192,129119,128,0,129565:0:0:0:0:
448,192,129208,128,0,129298:0:0:0:0:
192,192,129208,128,0,129298:0:0:0:0:
448,192,129387,128,0,129565:0:0:0:0:
64,192,129387,128,0,129476:0:0:0:0:
192,192,129387,128,0,129476:0:0:0:0:
192,192,129565,128,0,129655:0:0:0:0:
64,192,129565,128,0,129655:0:0:0:0:
448,192,129655,128,0,129833:0:0:0:0:
320,192,129655,128,0,129833:0:0:0:0:
64,192,129744,128,0,129923:0:0:0:0:
192,192,129744,128,0,129923:0:0:0:0:
320,192,129923,128,0,130012:0:0:0:0:
448,192,129923,128,0,130012:0:0:0:0:
192,192,130012,128,0,130190:0:0:0:0:
64,192,130012,128,0,130190:0:0:0:0:
320,192,130101,128,0,130280:0:0:0:0:
448,192,130101,128,0,130280:0:0:0:0:
192,192,130280,128,0,130369:0:0:0:0:
64,192,130280,128,0,130369:0:0:0:0:
448,192,130369,128,0,130548:0:0:0:0:
320,192,130369,128,0,130637:0:0:0:0:
192,192,130458,128,0,130637:0:0:0:0:
64,192,130458,128,0,130548:0:0:0:0:
448,192,130637,128,0,130726:0:0:0:0:
64,192,130637,128,0,130726:0:0:0:0:
192,192,130726,128,0,130905:0:0:0:0:
320,192,130726,128,0,131083:0:0:0:0:
448,192,130815,128,0,131262:0:0:0:0:
64,192,130815,128,0,130905:0:0:0:0:
64,192,130994,128,0,131262:0:0:0:0:
192,192,130994,128,0,131083:0:0:0:0:
320,192,131173,128,0,131440:0:0:0:0:
192,192,131173,128,0,131440:0:0:0:0:
64,192,131351,128,0,131619:0:0:0:0:
448,192,131351,128,0,131440:0:0:0:0:
448,192,131530,128,0,131619:0:0:0:0:
320,192,131530,128,0,131619:0:0:0:0:
192,192,131530,128,0,131797:0:0:0:0:
64,192,131708,128,0,131797:0:0:0:0:
320,192,131708,128,0,131797:0:0:0:0:
448,192,131708,128,0,132065:0:0:0:0:
64,192,131887,128,0,131976:0:0:0:0:
320,192,131887,128,0,132065:0:0:0:0:
192,192,131887,128,0,131976:0:0:0:0:
64,192,132065,128,0,132155:0:0:0:0:
192,192,132065,128,0,132155:0:0:0:0:
