osu file format v14

[General]
AudioFilename: BlackYooh vs. siromaru - BLACK or WHITE.mp3
AudioLeadIn: 0
PreviewTime: 52173
Countdown: 0
SampleSet: Normal
StackLeniency: 0.7
Mode: 3
LetterboxInBreaks: 0
EpilepsyWarning: 1
SpecialStyle: 0
WidescreenStoryboard: 1

[Editor]
Bookmarks: 98227
DistanceSpacing: 0.9
BeatDivisor: 4
GridSize: 8
TimelineZoom: 3.399999

[Metadata]
Title:[Full LN] training
TitleUnicode:[Full LN] training
Artist:Various Artist
ArtistUnicode:Various Artist
Creator:Allezard
Version:BlackYooh vs. siromaru - BLACK or WHITE? Lv. 5
Source:SOUND VOLTEX II -infinite infection-
Tags:Full LN Training Various Artist Collection 4k NOODLE BMS Deemo Cytus SOUND VOLTEX II -infinite infection- beatmania IIDX
BeatmapID:819077
BeatmapSetID:368373

[Difficulty]
HPDrainRate:8
CircleSize:4
OverallDifficulty:1
ApproachRate:5
SliderMultiplier:1.4
SliderTickRate:1

[Events]
//Background and Video events
0,0,"BlackYooh vs. siromaru - BLACK or WHITE.jpg",0,0
//Break Periods
//Storyboard Layer 0 (Background)
//Storyboard Layer 1 (Fail)
//Storyboard Layer 2 (Pass)
//Storyboard Layer 3 (Foreground)
//Storyboard Sound Samples

[TimingPoints]
606,324.324324324324,4,1,1,70,1,0
9524,-80,4,1,1,70,0,0
9849,-100,4,1,1,70,0,0
10660,-80,4,1,1,70,0,0
10903,-200,4,1,1,70,0,0
10984,-100,4,1,1,70,0,0
16173,-80,4,1,1,70,0,0
16416,-133.333333333333,4,1,1,70,0,0
16497,-100,4,1,1,70,0,0
31741,-125,4,2,1,70,0,0
41470,-111.111111111111,4,2,1,70,0,0
42119,-100,4,1,1,70,0,0
52497,-100,4,1,1,70,0,1
53795,-80,4,1,1,70,0,1
54038,-133.333333333333,4,1,1,70,0,1
54119,-80,4,1,1,70,0,1
54362,-133.333333333333,4,1,1,70,0,1
54443,-100,4,1,1,70,0,1
56389,-80,4,1,1,70,0,1
56633,-133.333333333333,4,1,1,70,0,1
56714,-80,4,1,1,70,0,1
56957,-133.333333333333,4,1,1,70,0,1
57038,-100,4,1,1,70,0,1
57362,-80,4,1,1,70,0,1
57605,-133.333333333333,4,1,1,70,0,1
57687,-100,4,1,1,70,0,1
58984,-80,4,1,1,70,0,1
59227,-133.333333333333,4,1,1,70,0,1
59308,-80,4,1,1,70,0,1
59551,-133.333333333333,4,1,1,70,0,1
59633,-80,4,1,1,70,0,1
59876,-133.333333333333,4,1,1,70,0,1
59957,-100,4,1,1,70,0,1
61578,-80,4,1,1,70,0,1
61822,-133.333333333333,4,1,1,70,0,1
61903,-80,4,1,1,70,0,1
62146,-133.333333333333,4,1,1,70,0,1
62227,-80,4,1,1,70,0,1
62470,-133.333333333333,4,1,1,70,0,1
62551,-100,4,1,1,70,0,1
73254,-125,4,2,1,70,0,0
82335,-111.111111111111,4,2,1,70,0,0
83633,-100,4,1,1,70,0,0
94335,-100,4,1,1,70,0,1
99200,-80,4,1,1,70,0,1
99443,-133.333333333333,4,1,1,70,0,1
99524,-100,4,1,1,70,0,1
114660,-80,4,1,1,70,0,1
114984,-133.333333333333,4,1,1,70,0,1
115092,-100,4,1,1,70,0,0

[HitObjects]
448,192,606,128,0,768:0:0:0:0:
64,192,606,128,0,930:0:0:0:0:
192,192,687,128,0,1011:0:0:0:0:
320,192,768,128,0,849:0:0:0:0:
448,192,849,128,0,1173:0:0:0:0:
320,192,930,128,0,1092:0:0:0:0:
64,192,1011,128,0,1497:0:0:0:0:
192,192,1092,128,0,1335:0:0:0:0:
320,192,1173,128,0,1254:0:0:0:0:
448,192,1254,128,0,1741:0:0:0:0:
320,192,1335,128,0,1416:0:0:0:0:
192,192,1416,128,0,1578:0:0:0:0:
320,192,1497,128,0,1660:0:0:0:0:
64,192,1578,128,0,1822:0:0:0:0:
192,192,1660,128,0,1903:0:0:0:0:
320,192,1741,128,0,1984:0:0:0:0:
448,192,1822,128,0,2065:0:0:0:0:
64,192,1903,128,0,2227:0:0:0:0:
192,192,1984,128,0,2308:0:0:0:0:
320,192,2065,128,0,2146:0:0:0:0:
448,192,2146,128,0,2470:0:0:0:0:
320,192,2227,128,0,2389:0:0:0:0:
64,192,2308,128,0,2876:0:0:0:0:
192,192,2389,128,0,2633:0:0:0:0:
320,192,2470,128,0,2551:0:0:0:0:
448,192,2551,128,0,2795:0:0:0:0:
320,192,2633,128,0,2714:0:0:0:0:
192,192,2714,128,0,2957:0:0:0:0:
320,192,2795,128,0,3038:0:0:0:0:
448,192,2876,128,0,3362:0:0:0:0:
64,192,2957,128,0,3119:0:0:0:0:
192,192,3038,128,0,3200:0:0:0:0:
320,192,3119,128,0,3281:0:0:0:0:
64,192,3200,128,0,3524:0:0:0:0:
192,192,3281,128,0,3605:0:0:0:0:
320,192,3362,128,0,3443:0:0:0:0:
448,192,3443,128,0,3768:0:0:0:0:
320,192,3524,128,0,3687:0:0:0:0:
64,192,3605,128,0,4092:0:0:0:0:
192,192,3687,128,0,3930:0:0:0:0:
320,192,3768,128,0,3849:0:0:0:0:
448,192,3849,128,0,4335:0:0:0:0:
320,192,3930,128,0,4011:0:0:0:0:
192,192,4011,128,0,4173:0:0:0:0:
320,192,4092,128,0,4254:0:0:0:0:
64,192,4173,128,0,4416:0:0:0:0:
192,192,4254,128,0,4497:0:0:0:0:
320,192,4335,128,0,4578:0:0:0:0:
448,192,4416,128,0,4660:0:0:0:0:
64,192,4497,128,0,4822:0:0:0:0:
192,192,4578,128,0,4903:0:0:0:0:
320,192,4660,128,0,4741:0:0:0:0:
448,192,4741,128,0,5065:0:0:0:0:
320,192,4822,128,0,4984:0:0:0:0:
64,192,4903,128,0,5470:0:0:0:0:
192,192,4984,128,0,5227:0:0:0:0:
320,192,5065,128,0,5146:0:0:0:0:
448,192,5146,128,0,5389:0:0:0:0:
320,192,5227,128,0,5308:0:0:0:0:
192,192,5308,128,0,5551:0:0:0:0:
320,192,5389,128,0,5633:0:0:0:0:
448,192,5470,128,0,5714:0:0:0:0:
62,192,5551,128,0,5795:0:0:0:0:
192,192,5633,128,0,5876:0:0:0:0:
320,192,5714,128,0,5957:0:0:0:0:
448,192,5795,128,0,6038:0:0:0:0:
192,192,5957,128,0,6362:0:0:0:0:
320,192,6038,128,0,6119:0:0:0:0:
448,192,6119,128,0,6200:0:0:0:0:
320,192,6200,128,0,6281:0:0:0:0:
448,192,6281,128,0,6443:0:0:0:0:
320,192,6362,128,0,6605:0:0:0:0:
192,192,6443,128,0,6524:0:0:0:0:
448,192,6524,128,0,6687:0:0:0:0:
192,192,6605,128,0,6849:0:0:0:0:
320,192,6687,128,0,6768:0:0:0:0:
448,192,6768,128,0,7011:0:0:0:0:
320,192,6849,128,0,6930:0:0:0:0:
192,192,6930,128,0,7173:0:0:0:0:
320,192,7011,128,0,7173:0:0:0:0:
64,192,7092,128,0,7335:0:0:0:0:
448,192,7092,128,0,7578:0:0:0:0:
192,192,7254,128,0,7416:0:0:0:0:
320,192,7254,128,0,7497:0:0:0:0:
62,192,7416,128,0,8065:0:0:0:0:
192,192,7497,128,0,7660:0:0:0:0:
320,192,7578,128,0,7741:0:0:0:0:
448,192,7660,128,0,7984:0:0:0:0:
192,192,7741,128,0,7822:0:0:0:0:
320,192,7822,128,0,7903:0:0:0:0:
192,192,7903,128,0,8065:0:0:0:0:
318,192,7984,128,0,8308:0:0:0:0:
446,192,8065,128,0,8308:0:0:0:0:
190,192,8389,128,0,8633:0:0:0:0:
446,192,8389,128,0,8957:0:0:0:0:
62,192,8389,128,0,8633:0:0:0:0:
318,192,8389,128,0,8470:0:0:0:0:
318,192,8551,128,0,8957:0:0:0:0:
190,192,8714,128,0,8795:0:0:0:0:
62,192,8714,128,0,9281:0:0:0:0:
190,192,8876,128,0,9281:0:0:0:0:
446,192,9038,128,0,9930:0:0:0:0:
318,192,9038,128,0,9119:0:0:0:0:
320,192,9200,128,0,10011:0:0:0:0:
64,192,9362,128,0,9930:0:0:0:0:
190,192,9362,128,0,9443:0:0:0:0:
190,192,9524,128,0,10903:0:0:0:0:
446,192,10011,128,0,10092:0:0:0:0:
64,192,10011,128,0,10092:0:0:0:0:
320,192,10092,128,0,10173:0:0:0:0:
64,192,10173,128,0,10254:0:0:0:0:
448,192,10173,128,0,10254:0:0:0:0:
320,192,10254,128,0,10335:0:0:0:0:
448,192,10335,128,0,10416:0:0:0:0:
64,192,10335,128,0,10416:0:0:0:0:
320,192,10416,128,0,10497:0:0:0:0:
62,192,10497,128,0,10660:0:0:0:0:
446,192,10497,128,0,10660:0:0:0:0:
318,192,10578,128,0,11065:0:0:0:0:
64,192,10984,128,0,11470:0:0:0:0:
446,192,10984,128,0,11227:0:0:0:0:
190,192,10984,128,0,11146:0:0:0:0:
318,192,11146,128,0,11227:0:0:0:0:
190,192,11227,128,0,11389:0:0:0:0:
320,192,11308,128,0,11551:0:0:0:0:
446,192,11308,128,0,11633:0:0:0:0:
190,192,11470,128,0,11551:0:0:0:0:
64,192,11551,128,0,11714:0:0:0:0:
318,192,11633,128,0,11876:0:0:0:0:
190,192,11633,128,0,11795:0:0:0:0:
62,192,11795,128,0,12200:0:0:0:0:
190,192,11876,128,0,12200:0:0:0:0:
446,192,11957,128,0,12038:0:0:0:0:
318,192,11957,128,0,12119:0:0:0:0:
446,192,12119,128,0,12524:0:0:0:0:
320,192,12200,128,0,12443:0:0:0:0:
62,192,12281,128,0,12605:0:0:0:0:
192,192,12281,128,0,12362:0:0:0:0:
192,192,12443,128,0,12524:0:0:0:0:
320,192,12524,128,0,12687:0:0:0:0:
192,192,12605,128,0,12768:0:0:0:0:
446,192,12605,128,0,13011:0:0:0:0:
320,192,12768,128,0,12849:0:0:0:0:
190,192,12849,128,0,13173:0:0:0:0:
62,192,12930,128,0,13254:0:0:0:0:
318,192,12930,128,0,13092:0:0:0:0:
446,192,13092,128,0,13335:0:0:0:0:
318,192,13173,128,0,13416:0:0:0:0:
190,192,13254,128,0,13497:0:0:0:0:
62,192,13335,128,0,13497:0:0:0:0:
446,192,13416,128,0,13822:0:0:0:0:
318,192,13497,128,0,13660:0:0:0:0:
64,192,13578,128,0,14065:0:0:0:0:
190,192,13578,128,0,13741:0:0:0:0:
318,192,13741,128,0,13822:0:0:0:0:
190,192,13822,128,0,13984:0:0:0:0:
448,192,13903,128,0,14470:0:0:0:0:
320,192,13903,128,0,14227:0:0:0:0:
192,192,14065,128,0,14146:0:0:0:0:
62,192,14146,128,0,14308:0:0:0:0:
192,192,14227,128,0,14389:0:0:0:0:
62,192,14389,128,0,14795:0:0:0:0:
192,192,14470,128,0,14714:0:0:0:0:
446,192,14551,128,0,15200:0:0:0:0:
320,192,14551,128,0,14633:0:0:0:0:
320,192,14714,128,0,14795:0:0:0:0:
192,192,14795,128,0,14957:0:0:0:0:
320,192,14876,128,0,15038:0:0:0:0:
64,192,14876,128,0,15200:0:0:0:0:
190,192,15038,128,0,15524:0:0:0:0:
320,192,15119,128,0,15443:0:0:0:0:
446,192,15524,128,0,16011:0:0:0:0:
62,192,15524,128,0,15605:0:0:0:0:
318,192,15524,128,0,15849:0:0:0:0:
190,192,15605,128,0,15687:0:0:0:0:
62,192,15687,128,0,15768:0:0:0:0:
190,192,15768,128,0,15930:0:0:0:0:
62,192,15849,128,0,16416:0:0:0:0:
318,192,15930,128,0,16092:0:0:0:0:
190,192,16011,128,0,16173:0:0:0:0:
446,192,16092,128,0,16416:0:0:0:0:
320,192,16173,128,0,16578:0:0:0:0:
190,192,16497,128,0,16984:0:0:0:0:
446,192,16497,128,0,17065:0:0:0:0:
62,192,16497,128,0,16822:0:0:0:0:
318,192,16660,128,0,16903:0:0:0:0:
64,192,16984,128,0,17308:0:0:0:0:
318,192,16984,128,0,17065:0:0:0:0:
190,192,17065,128,0,17227:0:0:0:0:
448,192,17146,128,0,17389:0:0:0:0:
320,192,17146,128,0,17551:0:0:0:0:
190,192,17308,128,0,17389:0:0:0:0:
62,192,17389,128,0,17876:0:0:0:0:
446,192,17470,128,0,17795:0:0:0:0:
190,192,17470,128,0,17633:0:0:0:0:
318,192,17633,128,0,17795:0:0:0:0:
190,192,17714,128,0,17957:0:0:0:0:
62,192,17957,128,0,18687:0:0:0:0:
446,192,17957,128,0,18281:0:0:0:0:
318,192,17957,128,0,18038:0:0:0:0:
192,192,18038,128,0,18119:0:0:0:0:
318,192,18119,128,0,18200:0:0:0:0:
190,192,18200,128,0,18443:0:0:0:0:
318,192,18281,128,0,18362:0:0:0:0:
446,192,18362,128,0,18687:0:0:0:0:
318,192,18443,128,0,19011:0:0:0:0:
62,192,18768,128,0,18930:0:0:0:0:
446,192,18768,128,0,19173:0:0:0:0:
190,192,18768,128,0,18849:0:0:0:0:
190,192,18930,128,0,19092:0:0:0:0:
62,192,19011,128,0,19335:0:0:0:0:
318,192,19092,128,0,19173:0:0:0:0:
190,192,19173,128,0,19254:0:0:0:0:
318,192,19254,128,0,19497:0:0:0:0:
446,192,19254,128,0,19416:0:0:0:0:
192,192,19335,128,0,19660:0:0:0:0:
64,192,19416,128,0,19578:0:0:0:0:
318,192,19578,128,0,19822:0:0:0:0:
448,192,19578,128,0,19903:0:0:0:0:
64,192,19660,128,0,19741:0:0:0:0:
192,192,19741,128,0,20065:0:0:0:0:
64,192,19822,128,0,19984:0:0:0:0:
318,192,19903,128,0,19984:0:0:0:0:
448,192,19984,128,0,20308:0:0:0:0:
320,192,20065,128,0,20146:0:0:0:0:
64,192,20065,128,0,20308:0:0:0:0:
192,192,20146,128,0,20470:0:0:0:0:
320,192,20227,128,0,20308:0:0:0:0:
448,192,20389,128,0,20633:0:0:0:0:
64,192,20389,128,0,20633:0:0:0:0:
320,192,20470,128,0,20795:0:0:0:0:
192,192,20551,128,0,20714:0:0:0:0:
448,192,20714,128,0,20957:0:0:0:0:
64,192,20714,128,0,21038:0:0:0:0:
190,192,20876,128,0,21362:0:0:0:0:
320,192,20957,128,0,21200:0:0:0:0:
448,192,21038,128,0,21362:0:0:0:0:
62,192,21200,128,0,21687:0:0:0:0:
318,192,21362,128,0,22335:0:0:0:0:
446,192,21687,128,0,22011:0:0:0:0:
190,192,21687,128,0,22011:0:0:0:0:
62,192,22011,128,0,22984:0:0:0:0:
448,192,22335,128,0,22660:0:0:0:0:
190,192,22335,128,0,22660:0:0:0:0:
318,192,22660,128,0,23308:0:0:0:0:
190,192,22984,128,0,24281:0:0:0:0:
446,192,22984,128,0,23633:0:0:0:0:
318,192,23633,128,0,23957:0:0:0:0:
62,192,23633,128,0,23957:0:0:0:0:
446,192,23957,128,0,24930:0:0:0:0:
62,192,24281,128,0,24605:0:0:0:0:
318,192,24281,128,0,24605:0:0:0:0:
190,192,24605,128,0,25254:0:0:0:0:
320,192,24930,128,0,25173:0:0:0:0:
62,192,24930,128,0,25173:0:0:0:0:
448,192,25254,128,0,25416:0:0:0:0:
320,192,25254,128,0,25335:0:0:0:0:
64,192,25254,128,0,25578:0:0:0:0:
192,192,25335,128,0,25578:0:0:0:0:
318,192,25416,128,0,25497:0:0:0:0:
448,192,25497,128,0,25822:0:0:0:0:
320,192,25578,128,0,25984:0:0:0:0:
64,192,25660,128,0,25822:0:0:0:0:
192,192,25741,128,0,25903:0:0:0:0:
64,192,25903,128,0,26146:0:0:0:0:
448,192,25903,128,0,26308:0:0:0:0:
192,192,25984,128,0,26146:0:0:0:0:
320,192,26065,128,0,26146:0:0:0:0:
62,192,26227,128,0,26470:0:0:0:0:
190,192,26227,128,0,26551:0:0:0:0:
318,192,26308,128,0,26389:0:0:0:0:
446,192,26389,128,0,26795:0:0:0:0:
318,192,26551,128,0,27200:0:0:0:0:
62,192,26551,128,0,26876:0:0:0:0:
190,192,26876,128,0,27200:0:0:0:0:
446,192,27200,128,0,27524:0:0:0:0:
62,192,27200,128,0,27443:0:0:0:0:
192,192,27524,128,0,27605:0:0:0:0:
62,192,27524,128,0,28416:0:0:0:0:
318,192,27524,128,0,27768:0:0:0:0:
190,192,27687,128,0,28092:0:0:0:0:
446,192,27849,128,0,28092:0:0:0:0:
318,192,27849,128,0,27930:0:0:0:0:
318,192,28011,128,0,28416:0:0:0:0:
446,192,28173,128,0,28741:0:0:0:0:
190,192,28173,128,0,28254:0:0:0:0:
190,192,28335,128,0,28741:0:0:0:0:
318,192,28497,128,0,29389:0:0:0:0:
62,192,28497,128,0,28578:0:0:0:0:
62,192,28660,128,0,29065:0:0:0:0:
448,192,28822,128,0,29065:0:0:0:0:
190,192,28822,128,0,28903:0:0:0:0:
190,192,28984,128,0,29714:0:0:0:0:
446,192,29146,128,0,29227:0:0:0:0:
62,192,29146,128,0,29389:0:0:0:0:
446,192,29308,128,0,29714:0:0:0:0:
318,192,29470,128,0,29551:0:0:0:0:
62,192,29470,128,0,30038:0:0:0:0:
320,192,29633,128,0,30443:0:0:0:0:
446,192,29795,128,0,30038:0:0:0:0:
190,192,29795,128,0,29876:0:0:0:0:
192,192,29957,128,0,30524:0:0:0:0:
446,192,30119,128,0,30362:0:0:0:0:
62,192,30119,128,0,30200:0:0:0:0:
64,192,30281,128,0,30605:0:0:0:0:
448,192,30443,128,0,30768:0:0:0:0:
320,192,30524,128,0,30849:0:0:0:0:
192,192,30605,128,0,30687:0:0:0:0:
64,192,30687,128,0,31011:0:0:0:0:
190,192,30768,128,0,30930:0:0:0:0:
448,192,30849,128,0,31254:0:0:0:0:
318,192,30930,128,0,31173:0:0:0:0:
192,192,31011,128,0,31092:0:0:0:0:
62,192,31092,128,0,31416:0:0:0:0:
190,192,31173,128,0,31497:0:0:0:0:
318,192,31254,128,0,31335:0:0:0:0:
446,192,31335,128,0,31741:0:0:0:0:
318,192,31416,128,0,31578:0:0:0:0:
64,192,31497,128,0,31660:0:0:0:0:
192,192,31578,128,0,31822:0:0:0:0:
320,192,31660,128,0,31984:0:0:0:0:
64,192,31741,128,0,32146:0:0:0:0:
192,192,31903,128,0,32470:0:0:0:0:
318,192,32065,128,0,32308:0:0:0:0:
62,192,32227,128,0,32633:0:0:0:0:
318,192,32389,128,0,32957:0:0:0:0:
190,192,32551,128,0,32795:0:0:0:0:
64,192,32714,128,0,33119:0:0:0:0:
192,192,32876,128,0,33281:0:0:0:0:
320,192,33038,128,0,33443:0:0:0:0:
62,192,33200,128,0,34011:0:0:0:0:
190,192,33362,128,0,33687:0:0:0:0:
318,192,33524,128,0,34254:0:0:0:0:
190,192,34011,128,0,34578:0:0:0:0:
64,192,34335,128,0,34416:0:0:0:0:
320,192,34335,128,0,34741:0:0:0:0:
62,192,34497,128,0,34903:0:0:0:0:
190,192,34660,128,0,35389:0:0:0:0:
320,192,34822,128,0,35065:0:0:0:0:
62,192,34984,128,0,35227:0:0:0:0:
318,192,35146,128,0,35551:0:0:0:0:
64,192,35308,128,0,35714:0:0:0:0:
192,192,35470,128,0,36038:0:0:0:0:
446,192,35633,128,0,35876:0:0:0:0:
318,192,35633,128,0,35876:0:0:0:0:
62,192,35795,128,0,36524:0:0:0:0:
448,192,35957,128,0,36200:0:0:0:0:
320,192,35957,128,0,36281:0:0:0:0:
190,192,36119,128,0,36524:0:0:0:0:
448,192,36281,128,0,36362:0:0:0:0:
320,192,36362,128,0,36443:0:0:0:0:
446,192,36443,128,0,36687:0:0:0:0:
318,192,36524,128,0,36687:0:0:0:0:
62,192,36605,128,0,36849:0:0:0:0:
190,192,36605,128,0,37011:0:0:0:0:
446,192,36768,128,0,37335:0:0:0:0:
318,192,36768,128,0,37173:0:0:0:0:
62,192,36930,128,0,37497:0:0:0:0:
192,192,37092,128,0,37660:0:0:0:0:
318,192,37254,128,0,37497:0:0:0:0:
446,192,37416,128,0,38146:0:0:0:0:
62,192,37578,128,0,37822:0:0:0:0:
320,192,37578,128,0,37984:0:0:0:0:
190,192,37741,128,0,38470:0:0:0:0:
62,192,37903,128,0,38308:0:0:0:0:
318,192,38065,128,0,38633:0:0:0:0:
446,192,38227,128,0,38795:0:0:0:0:
62,192,38389,128,0,38876:0:0:0:0:
190,192,38551,128,0,39605:0:0:0:0:
318,192,38714,128,0,39768:0:0:0:0:
446,192,38876,128,0,39200:0:0:0:0:
62,192,39200,128,0,39443:0:0:0:0:
446,192,39524,128,0,39930:0:0:0:0:
62,192,39524,128,0,40092:0:0:0:0:
192,192,39687,128,0,40254:0:0:0:0:
318,192,39849,128,0,40092:0:0:0:0:
446,192,40011,128,0,40741:0:0:0:0:
62,192,40173,128,0,40416:0:0:0:0:
320,192,40173,128,0,40741:0:0:0:0:
190,192,40335,128,0,40578:0:0:0:0:
62,192,40497,128,0,40903:0:0:0:0:
190,192,40660,128,0,41065:0:0:0:0:
446,192,40822,128,0,41389:0:0:0:0:
318,192,40822,128,0,41227:0:0:0:0:
64,192,40984,128,0,42038:0:0:0:0:
190,192,41146,128,0,41470:0:0:0:0:
318,192,41308,128,0,41795:0:0:0:0:
448,192,41470,128,0,42281:0:0:0:0:
192,192,41795,128,0,42119:0:0:0:0:
320,192,42119,128,0,42200:0:0:0:0:
64,192,42119,128,0,42524:0:0:0:0:
192,192,42200,128,0,42443:0:0:0:0:
320,192,42281,128,0,42362:0:0:0:0:
448,192,42362,128,0,42687:0:0:0:0:
320,192,42443,128,0,42605:0:0:0:0:
192,192,42524,128,0,42849:0:0:0:0:
64,192,42605,128,0,42930:0:0:0:0:
320,192,42687,128,0,42768:0:0:0:0:
446,192,42768,128,0,43173:0:0:0:0:
320,192,42849,128,0,43092:0:0:0:0:
192,192,42930,128,0,43011:0:0:0:0:
62,192,43011,128,0,43660:0:0:0:0:
190,192,43092,128,0,43335:0:0:0:0:
318,192,43173,128,0,43254:0:0:0:0:
446,192,43254,128,0,43416:0:0:0:0:
318,192,43335,128,0,43497:0:0:0:0:
190,192,43416,128,0,43578:0:0:0:0:
446,192,43497,128,0,43903:0:0:0:0:
318,192,43578,128,0,43822:0:0:0:0:
190,192,43660,128,0,43741:0:0:0:0:
62,192,43741,128,0,44146:0:0:0:0:
190,192,43822,128,0,44065:0:0:0:0:
318,192,43903,128,0,43984:0:0:0:0:
446,192,43984,128,0,44389:0:0:0:0:
318,192,44065,128,0,44308:0:0:0:0:
190,192,44146,128,0,44227:0:0:0:0:
62,192,44227,128,0,44633:0:0:0:0:
190,192,44308,128,0,44551:0:0:0:0:
318,192,44389,128,0,44470:0:0:0:0:
446,192,44470,128,0,44795:0:0:0:0:
320,192,44551,128,0,44714:0:0:0:0:
190,192,44633,128,0,44957:0:0:0:0:
62,192,44714,128,0,45038:0:0:0:0:
318,192,44795,128,0,44876:0:0:0:0:
446,192,44876,128,0,45524:0:0:0:0:
318,192,44957,128,0,45119:0:0:0:0:
190,192,45038,128,0,45200:0:0:0:0:
62,192,45119,128,0,45281:0:0:0:0:
318,192,45200,128,0,45443:0:0:0:0:
190,192,45281,128,0,45362:0:0:0:0:
62,192,45362,128,0,45605:0:0:0:0:
190,192,45443,128,0,45687:0:0:0:0:
318,192,45524,128,0,45768:0:0:0:0:
446,192,45605,128,0,46011:0:0:0:0:
62,192,45687,128,0,45930:0:0:0:0:
190,192,45768,128,0,45849:0:0:0:0:
318,192,45849,128,0,46092:0:0:0:0:
190,192,45930,128,0,46173:0:0:0:0:
62,192,46011,128,0,46497:0:0:0:0:
446,192,46092,128,0,46254:0:0:0:0:
318,192,46173,128,0,46335:0:0:0:0:
190,192,46254,128,0,46416:0:0:0:0:
446,192,46335,128,0,46741:0:0:0:0:
318,192,46416,128,0,46660:0:0:0:0:
190,192,46497,128,0,46578:0:0:0:0:
62,192,46578,128,0,46984:0:0:0:0:
190,192,46660,128,0,46903:0:0:0:0:
318,192,46741,128,0,46822:0:0:0:0:
446,192,46822,128,0,47308:0:0:0:0:
318,192,46903,128,0,47146:0:0:0:0:
190,192,46984,128,0,47065:0:0:0:0:
62,192,47065,128,0,47551:0:0:0:0:
190,192,47146,128,0,47633:0:0:0:0:
318,192,47227,128,0,47714:0:0:0:0:
62,192,47633,128,0,47957:0:0:0:0:
446,192,47633,128,0,47795:0:0:0:0:
190,192,47714,128,0,47957:0:0:0:0:
318,192,47795,128,0,48281:0:0:0:0:
446,192,47876,128,0,48200:0:0:0:0:
446,192,48281,128,0,48524:0:0:0:0:
190,192,48281,128,0,48362:0:0:0:0:
62,192,48281,128,0,48443:0:0:0:0:
318,192,48362,128,0,48605:0:0:0:0:
190,192,48443,128,0,48687:0:0:0:0:
62,192,48524,128,0,48768:0:0:0:0:
446,192,48605,128,0,49011:0:0:0:0:
318,192,48687,128,0,48930:0:0:0:0:
190,192,48768,128,0,48849:0:0:0:0:
62,192,48849,128,0,49254:0:0:0:0:
190,192,48930,128,0,49173:0:0:0:0:
318,192,49011,128,0,49092:0:0:0:0:
446,192,49092,128,0,49497:0:0:0:0:
318,192,49173,128,0,49416:0:0:0:0:
190,192,49254,128,0,49335:0:0:0:0:
62,192,49335,128,0,49741:0:0:0:0:
190,192,49416,128,0,49660:0:0:0:0:
318,192,49497,128,0,49578:0:0:0:0:
446,192,49578,128,0,49822:0:0:0:0:
318,192,49660,128,0,49903:0:0:0:0:
190,192,49741,128,0,49984:0:0:0:0:
62,192,49822,128,0,50065:0:0:0:0:
446,192,49903,128,0,50146:0:0:0:0:
318,192,49984,128,0,50227:0:0:0:0:
190,192,50065,128,0,50308:0:0:0:0:
62,192,50146,128,0,50389:0:0:0:0:
446,192,50227,128,0,50633:0:0:0:0:
318,192,50308,128,0,50551:0:0:0:0:
190,192,50389,128,0,50470:0:0:0:0:
62,192,50470,128,0,50876:0:0:0:0:
190,192,50551,128,0,50795:0:0:0:0:
318,192,50633,128,0,50714:0:0:0:0:
446,192,50714,128,0,51119:0:0:0:0:
318,192,50795,128,0,51038:0:0:0:0:
190,192,50876,128,0,50957:0:0:0:0:
62,192,50957,128,0,51200:0:0:0:0:
192,192,51038,128,0,51687:0:0:0:0:
320,192,51119,128,0,51768:0:0:0:0:
448,192,51200,128,0,51524:0:0:0:0:
64,192,51524,128,0,51605:0:0:0:0:
64,192,51687,128,0,51930:0:0:0:0:
192,192,51768,128,0,52011:0:0:0:0:
448,192,51849,128,0,52416:0:0:0:0:
320,192,51849,128,0,52173:0:0:0:0:
64,192,52011,128,0,52416:0:0:0:0:
192,192,52092,128,0,52335:0:0:0:0:
62,192,52497,128,0,52741:0:0:0:0:
446,192,52497,128,0,53065:0:0:0:0:
190,192,52497,128,0,52578:0:0:0:0:
318,192,52497,128,0,52660:0:0:0:0:
190,192,52660,128,0,52903:0:0:0:0:
318,192,52741,128,0,52984:0:0:0:0:
62,192,52822,128,0,53227:0:0:0:0:
192,192,52984,128,0,53389:0:0:0:0:
318,192,53065,128,0,53389:0:0:0:0:
448,192,53146,128,0,53551:0:0:0:0:
62,192,53308,128,0,53714:0:0:0:0:
318,192,53470,128,0,53795:0:0:0:0:
190,192,53470,128,0,53714:0:0:0:0:
446,192,53633,128,0,54119:0:0:0:0:
190,192,53795,128,0,54038:0:0:0:0:
62,192,53795,128,0,54038:0:0:0:0:
318,192,54119,128,0,54362:0:0:0:0:
192,192,54119,128,0,54362:0:0:0:0:
62,192,54119,128,0,54443:0:0:0:0:
318,192,54443,128,0,54524:0:0:0:0:
190,192,54443,128,0,54687:0:0:0:0:
446,192,54443,128,0,54687:0:0:0:0:
318,192,54605,128,0,55011:0:0:0:0:
62,192,54768,128,0,54849:0:0:0:0:
190,192,54768,128,0,54930:0:0:0:0:
446,192,54768,128,0,55011:0:0:0:0:
62,192,54930,128,0,55335:0:0:0:0:
190,192,55011,128,0,55173:0:0:0:0:
318,192,55092,128,0,55254:0:0:0:0:
446,192,55092,128,0,55497:0:0:0:0:
190,192,55254,128,0,55660:0:0:0:0:
318,192,55335,128,0,55578:0:0:0:0:
62,192,55416,128,0,55822:0:0:0:0:
448,192,55578,128,0,55984:0:0:0:0:
318,192,55660,128,0,55984:0:0:0:0:
192,192,55741,128,0,56146:0:0:0:0:
62,192,55903,128,0,56389:0:0:0:0:
320,192,56065,128,0,56308:0:0:0:0:
448,192,56065,128,0,56308:0:0:0:0:
190,192,56227,128,0,56714:0:0:0:0:
318,192,56389,128,0,56633:0:0:0:0:
446,192,56389,128,0,56633:0:0:0:0:
62,192,56714,128,0,56957:0:0:0:0:
320,192,56714,128,0,57038:0:0:0:0:
446,192,56714,128,0,57038:0:0:0:0:
64,192,57038,128,0,57119:0:0:0:0:
190,192,57038,128,0,57362:0:0:0:0:
318,192,57119,128,0,57200:0:0:0:0:
62,192,57200,128,0,57524:0:0:0:0:
446,192,57362,128,0,57605:0:0:0:0:
318,192,57362,128,0,57768:0:0:0:0:
446,192,57687,128,0,57930:0:0:0:0:
190,192,57687,128,0,57849:0:0:0:0:
62,192,57687,128,0,58092:0:0:0:0:
320,192,57849,128,0,58254:0:0:0:0:
190,192,57930,128,0,58173:0:0:0:0:
448,192,58011,128,0,58741:0:0:0:0:
64,192,58173,128,0,58416:0:0:0:0:
192,192,58254,128,0,58578:0:0:0:0:
320,192,58335,128,0,58578:0:0:0:0:
64,192,58497,128,0,58903:0:0:0:0:
192,192,58660,128,0,58903:0:0:0:0:
318,192,58660,128,0,58984:0:0:0:0:
446,192,58822,128,0,59308:0:0:0:0:
190,192,58984,128,0,59227:0:0:0:0:
62,192,58984,128,0,59227:0:0:0:0:
190,192,59308,128,0,59551:0:0:0:0:
62,192,59308,128,0,59633:0:0:0:0:
318,192,59308,128,0,59551:0:0:0:0:
190,192,59633,128,0,59957:0:0:0:0:
446,192,59633,128,0,59876:0:0:0:0:
318,192,59633,128,0,59876:0:0:0:0:
446,192,59957,128,0,60200:0:0:0:0:
62,192,59957,128,0,60200:0:0:0:0:
318,192,59957,128,0,60362:0:0:0:0:
62,192,60281,128,0,60687:0:0:0:0:
446,192,60281,128,0,60524:0:0:0:0:
190,192,60281,128,0,60443:0:0:0:0:
320,192,60443,128,0,60849:0:0:0:0:
190,192,60524,128,0,60768:0:0:0:0:
446,192,60605,128,0,61173:0:0:0:0:
62,192,60768,128,0,61497:0:0:0:0:
190,192,60849,128,0,61011:0:0:0:0:
318,192,60930,128,0,61173:0:0:0:0:
190,192,61092,128,0,61335:0:0:0:0:
446,192,61254,128,0,61578:0:0:0:0:
318,192,61254,128,0,61578:0:0:0:0:
190,192,61416,128,0,61903:0:0:0:0:
62,192,61578,128,0,61903:0:0:0:0:
446,192,61903,128,0,62227:0:0:0:0:
318,192,61903,128,0,62146:0:0:0:0:
318,192,62227,128,0,62551:0:0:0:0:
190,192,62227,128,0,62551:0:0:0:0:
62,192,62227,128,0,62470:0:0:0:0:
62,192,62551,128,0,62795:0:0:0:0:
446,192,62551,128,0,62795:0:0:0:0:
318,192,62876,128,0,62957:0:0:0:0:
64,192,62876,128,0,63443:0:0:0:0:
190,192,62876,128,0,63038:0:0:0:0:
446,192,62876,128,0,63119:0:0:0:0:
320,192,63038,128,0,63281:0:0:0:0:
192,192,63119,128,0,63362:0:0:0:0:
446,192,63200,128,0,63768:0:0:0:0:
318,192,63362,128,0,63768:0:0:0:0:
190,192,63443,128,0,63605:0:0:0:0:
64,192,63524,128,0,64092:0:0:0:0:
190,192,63687,128,0,63930:0:0:0:0:
446,192,63849,128,0,64092:0:0:0:0:
320,192,63849,128,0,64335:0:0:0:0:
192,192,64011,128,0,64254:0:0:0:0:
448,192,64173,128,0,64578:0:0:0:0:
62,192,64173,128,0,64416:0:0:0:0:
190,192,64335,128,0,64416:0:0:0:0:
318,192,64416,128,0,64741:0:0:0:0:
190,192,64497,128,0,64741:0:0:0:0:
64,192,64497,128,0,64660:0:0:0:0:
448,192,64660,128,0,64903:0:0:0:0:
64,192,64741,128,0,65065:0:0:0:0:
192,192,64822,128,0,65065:0:0:0:0:
320,192,64822,128,0,64984:0:0:0:0:
446,192,64984,128,0,65714:0:0:0:0:
320,192,65065,128,0,65227:0:0:0:0:
192,192,65146,128,0,65308:0:0:0:0:
62,192,65146,128,0,65470:0:0:0:0:
318,192,65308,128,0,65714:0:0:0:0:
190,192,65389,128,0,66038:0:0:0:0:
62,192,65795,128,0,66038:0:0:0:0:
446,192,65795,128,0,66362:0:0:0:0:
318,192,65795,128,0,65876:0:0:0:0:
318,192,65957,128,0,66443:0:0:0:0:
62,192,66119,128,0,66605:0:0:0:0:
190,192,66119,128,0,66200:0:0:0:0:
190,192,66281,128,0,66524:0:0:0:0:
446,192,66443,128,0,66687:0:0:0:0:
318,192,66524,128,0,66849:0:0:0:0:
190,192,66605,128,0,66687:0:0:0:0:
62,192,66687,128,0,66930:0:0:0:0:
446,192,66768,128,0,67416:0:0:0:0:
190,192,66768,128,0,66930:0:0:0:0:
318,192,66930,128,0,67173:0:0:0:0:
64,192,67011,128,0,67173:0:0:0:0:
190,192,67011,128,0,67092:0:0:0:0:
190,192,67173,128,0,67335:0:0:0:0:
62,192,67254,128,0,67741:0:0:0:0:
318,192,67254,128,0,67416:0:0:0:0:
190,192,67416,128,0,67660:0:0:0:0:
446,192,67497,128,0,67984:0:0:0:0:
318,192,67497,128,0,67660:0:0:0:0:
190,192,67741,128,0,67822:0:0:0:0:
318,192,67741,128,0,67903:0:0:0:0:
62,192,67822,128,0,67984:0:0:0:0:
190,192,67903,128,0,68470:0:0:0:0:
318,192,67984,128,0,68389:0:0:0:0:
62,192,68065,128,0,68551:0:0:0:0:
446,192,68065,128,0,68308:0:0:0:0:
446,192,68389,128,0,68633:0:0:0:0:
318,192,68470,128,0,68633:0:0:0:0:
190,192,68551,128,0,68633:0:0:0:0:
62,192,68633,128,0,68957:0:0:0:0:
190,192,68714,128,0,69038:0:0:0:0:
446,192,68714,128,0,69200:0:0:0:0:
318,192,68714,128,0,69119:0:0:0:0:
62,192,69038,128,0,69281:0:0:0:0:
190,192,69119,128,0,69281:0:0:0:0:
318,192,69200,128,0,69281:0:0:0:0:
446,192,69281,128,0,69930:0:0:0:0:
190,192,69362,128,0,69687:0:0:0:0:
62,192,69362,128,0,69768:0:0:0:0:
318,192,69362,128,0,69605:0:0:0:0:
318,192,69687,128,0,69930:0:0:0:0:
190,192,69768,128,0,69849:0:0:0:0:
62,192,69849,128,0,69930:0:0:0:0:
190,192,69930,128,0,70254:0:0:0:0:
318,192,70011,128,0,70335:0:0:0:0:
446,192,70011,128,0,70416:0:0:0:0:
62,192,70011,128,0,70578:0:0:0:0:
190,192,70335,128,0,70578:0:0:0:0:
318,192,70416,128,0,70497:0:0:0:0:
446,192,70497,128,0,70578:0:0:0:0:
318,192,70578,128,0,71146:0:0:0:0:
62,192,70660,128,0,70903:0:0:0:0:
190,192,70660,128,0,70903:0:0:0:0:
446,192,70660,128,0,71065:0:0:0:0:
190,192,70984,128,0,71227:0:0:0:0:
62,192,70984,128,0,71227:0:0:0:0:
446,192,71146,128,0,71470:0:0:0:0:
320,192,71227,128,0,71551:0:0:0:0:
62,192,71308,128,0,71633:0:0:0:0:
190,192,71308,128,0,71389:0:0:0:0:
190,192,71470,128,0,71714:0:0:0:0:
446,192,71551,128,0,71876:0:0:0:0:
318,192,71633,128,0,71795:0:0:0:0:
62,192,71714,128,0,71957:0:0:0:0:
190,192,71795,128,0,71957:0:0:0:0:
318,192,71876,128,0,72524:0:0:0:0:
446,192,71957,128,0,72281:0:0:0:0:
62,192,72281,128,0,72687:0:0:0:0:
190,192,72281,128,0,72605:0:0:0:0:
318,192,72605,128,0,72768:0:0:0:0:
446,192,72605,128,0,72930:0:0:0:0:
190,192,72687,128,0,72849:0:0:0:0:
62,192,72768,128,0,73173:0:0:0:0:
318,192,72849,128,0,73011:0:0:0:0:
190,192,72930,128,0,73092:0:0:0:0:
444,192,73011,128,0,73173:0:0:0:0:
318,192,73092,128,0,73497:0:0:0:0:
190,192,73173,128,0,73335:0:0:0:0:
446,192,73254,128,0,73660:0:0:0:0:
64,192,73254,128,0,73984:0:0:0:0:
192,192,73416,128,0,73822:0:0:0:0:
320,192,73578,128,0,74308:0:0:0:0:
448,192,73741,128,0,74470:0:0:0:0:
192,192,73903,128,0,74146:0:0:0:0:
64,192,74065,128,0,74470:0:0:0:0:
192,192,74227,128,0,74795:0:0:0:0:
320,192,74389,128,0,74633:0:0:0:0:
446,192,74551,128,0,75281:0:0:0:0:
64,192,74551,128,0,74957:0:0:0:0:
320,192,74714,128,0,75119:0:0:0:0:
190,192,74876,128,0,75605:0:0:0:0:
62,192,75038,128,0,75768:0:0:0:0:
318,192,75200,128,0,75443:0:0:0:0:
446,192,75362,128,0,75768:0:0:0:0:
318,192,75524,128,0,76092:0:0:0:0:
190,192,75687,128,0,75930:0:0:0:0:
446,192,75849,128,0,76254:0:0:0:0:
64,192,75849,128,0,76578:0:0:0:0:
192,192,76011,128,0,76416:0:0:0:0:
320,192,76173,128,0,76903:0:0:0:0:
448,192,76335,128,0,77065:0:0:0:0:
192,192,76497,128,0,76741:0:0:0:0:
64,192,76660,128,0,77065:0:0:0:0:
192,192,76822,128,0,77389:0:0:0:0:
320,192,76984,128,0,77227:0:0:0:0:
448,192,77146,128,0,77876:0:0:0:0:
64,192,77146,128,0,77551:0:0:0:0:
320,192,77308,128,0,77714:0:0:0:0:
192,192,77470,128,0,78200:0:0:0:0:
64,192,77633,128,0,78362:0:0:0:0:
320,192,77795,128,0,78038:0:0:0:0:
448,192,77957,128,0,78362:0:0:0:0:
320,192,78119,128,0,78687:0:0:0:0:
192,192,78281,128,0,78524:0:0:0:0:
64,192,78443,128,0,79173:0:0:0:0:
448,192,78443,128,0,78849:0:0:0:0:
192,192,78605,128,0,79011:0:0:0:0:
320,192,78768,128,0,79497:0:0:0:0:
448,192,78930,128,0,79660:0:0:0:0:
192,192,79092,128,0,79335:0:0:0:0:
64,192,79254,128,0,79660:0:0:0:0:
192,192,79416,128,0,79984:0:0:0:0:
320,192,79578,128,0,79822:0:0:0:0:
64,192,79741,128,0,80146:0:0:0:0:
448,192,79741,128,0,80470:0:0:0:0:
320,192,79903,128,0,80308:0:0:0:0:
192,192,80065,128,0,80795:0:0:0:0:
64,192,80227,128,0,80957:0:0:0:0:
320,192,80389,128,0,80633:0:0:0:0:
448,192,80551,128,0,80957:0:0:0:0:
320,192,80714,128,0,81281:0:0:0:0:
192,192,80876,128,0,81119:0:0:0:0:
64,192,81038,128,0,81768:0:0:0:0:
448,192,81038,128,0,81443:0:0:0:0:
192,192,81200,128,0,81605:0:0:0:0:
320,192,81362,128,0,82092:0:0:0:0:
448,192,81524,128,0,82254:0:0:0:0:
192,192,81687,128,0,81930:0:0:0:0:
64,192,81849,128,0,82254:0:0:0:0:
192,192,82011,128,0,82578:0:0:0:0:
320,192,82173,128,0,82416:0:0:0:0:
64,192,82335,128,0,82741:0:0:0:0:
448,192,82335,128,0,83065:0:0:0:0:
320,192,82497,128,0,82903:0:0:0:0:
192,192,82660,128,0,83389:0:0:0:0:
64,192,82822,128,0,83551:0:0:0:0:
320,192,82984,128,0,83227:0:0:0:0:
448,192,83146,128,0,83551:0:0:0:0:
320,192,83308,128,0,83714:0:0:0:0:
192,192,83470,128,0,84362:0:0:0:0:
64,192,83633,128,0,83714:0:0:0:0:
448,192,83633,128,0,83714:0:0:0:0:
64,192,83795,128,0,83876:0:0:0:0:
320,192,83795,128,0,83957:0:0:0:0:
448,192,83795,128,0,83876:0:0:0:0:
64,192,83957,128,0,84200:0:0:0:0:
448,192,83957,128,0,84200:0:0:0:0:
64,192,84281,128,0,84362:0:0:0:0:
320,192,84281,128,0,84930:0:0:0:0:
448,192,84281,128,0,84362:0:0:0:0:
64,192,84443,128,0,84524:0:0:0:0:
192,192,84443,128,0,84605:0:0:0:0:
448,192,84443,128,0,84605:0:0:0:0:
64,192,84605,128,0,84849:0:0:0:0:
64,192,84930,128,0,85254:0:0:0:0:
192,192,84930,128,0,85173:0:0:0:0:
448,192,84930,128,0,85254:0:0:0:0:
192,192,85254,128,0,85578:0:0:0:0:
320,192,85254,128,0,85497:0:0:0:0:
64,192,85578,128,0,85903:0:0:0:0:
320,192,85578,128,0,85822:0:0:0:0:
448,192,85578,128,0,85903:0:0:0:0:
320,192,85903,128,0,86308:0:0:0:0:
192,192,85903,128,0,86146:0:0:0:0:
192,192,86227,128,0,86633:0:0:0:0:
64,192,86227,128,0,86551:0:0:0:0:
448,192,86227,128,0,86470:0:0:0:0:
320,192,86389,128,0,86551:0:0:0:0:
448,192,86551,128,0,86876:0:0:0:0:
320,192,86633,128,0,86714:0:0:0:0:
192,192,86714,128,0,86795:0:0:0:0:
320,192,86795,128,0,86957:0:0:0:0:
64,192,86876,128,0,87119:0:0:0:0:
192,192,86876,128,0,87038:0:0:0:0:
448,192,86957,128,0,87200:0:0:0:0:
320,192,87038,128,0,87281:0:0:0:0:
192,192,87119,128,0,87362:0:0:0:0:
64,192,87200,128,0,87443:0:0:0:0:
448,192,87281,128,0,87443:0:0:0:0:
320,192,87362,128,0,87524:0:0:0:0:
192,192,87443,128,0,87605:0:0:0:0:
448,192,87524,128,0,87768:0:0:0:0:
64,192,87524,128,0,87768:0:0:0:0:
320,192,87605,128,0,87687:0:0:0:0:
192,192,87687,128,0,87849:0:0:0:0:
320,192,87768,128,0,87930:0:0:0:0:
448,192,87849,128,0,88011:0:0:0:0:
64,192,87849,128,0,88092:0:0:0:0:
192,192,87930,128,0,88092:0:0:0:0:
320,192,88011,128,0,88173:0:0:0:0:
448,192,88092,128,0,88173:0:0:0:0:
64,192,88173,128,0,88254:0:0:0:0:
192,192,88173,128,0,88254:0:0:0:0:
448,192,88254,128,0,88335:0:0:0:0:
320,192,88254,128,0,88335:0:0:0:0:
191,192,88335,128,0,88416:0:0:0:0:
64,192,88335,128,0,88416:0:0:0:0:
448,192,88497,128,0,88578:0:0:0:0:
320,192,88497,128,0,88578:0:0:0:0:
192,192,88578,128,0,88660:0:0:0:0:
64,192,88578,128,0,88741:0:0:0:0:
448,192,88660,128,0,89146:0:0:0:0:
320,192,88660,128,0,89065:0:0:0:0:
192,192,88822,128,0,89065:0:0:0:0:
64,192,89146,128,0,89389:0:0:0:0:
192,192,89146,128,0,89470:0:0:0:0:
320,192,89146,128,0,89714:0:0:0:0:
64,192,89470,128,0,89795:0:0:0:0:
448,192,89470,128,0,89714:0:0:0:0:
448,192,89795,128,0,90119:0:0:0:0:
192,192,89795,128,0,90119:0:0:0:0:
320,192,89795,128,0,90443:0:0:0:0:
64,192,90119,128,0,90362:0:0:0:0:
448,192,90443,128,0,90687:0:0:0:0:
64,192,90443,128,0,90768:0:0:0:0:
192,192,90443,128,0,91092:0:0:0:0:
320,192,90768,128,0,91011:0:0:0:0:
448,192,90768,128,0,91335:0:0:0:0:
64,192,91092,128,0,91660:0:0:0:0:
320,192,91092,128,0,91416:0:0:0:0:
448,192,91416,128,0,92065:0:0:0:0:
192,192,91416,128,0,91660:0:0:0:0:
192,192,91741,128,0,91822:0:0:0:0:
64,192,91741,128,0,91903:0:0:0:0:
320,192,91822,128,0,92308:0:0:0:0:
192,192,91903,128,0,91984:0:0:0:0:
64,192,91984,128,0,92308:0:0:0:0:
192,192,92065,128,0,92389:0:0:0:0:
320,192,92389,128,0,92633:0:0:0:0:
64,192,92389,128,0,92470:0:0:0:0:
448,192,92389,128,0,92633:0:0:0:0:
192,192,92470,128,0,92795:0:0:0:0:
64,192,92551,128,0,92795:0:0:0:0:
320,192,92714,128,0,92957:0:0:0:0:
448,192,92714,128,0,92957:0:0:0:0:
192,192,92876,128,0,93119:0:0:0:0:
64,192,92876,128,0,93119:0:0:0:0:
320,192,93038,128,0,93443:0:0:0:0:
448,192,93038,128,0,93281:0:0:0:0:
64,192,93200,128,0,93524:0:0:0:0:
192,192,93200,128,0,93362:0:0:0:0:
448,192,93362,128,0,93605:0:0:0:0:
192,192,93443,128,0,93768:0:0:0:0:
320,192,93524,128,0,93687:0:0:0:0:
64,192,93605,128,0,93849:0:0:0:0:
448,192,93687,128,0,94011:0:0:0:0:
320,192,93768,128,0,94254:0:0:0:0:
192,192,93849,128,0,94011:0:0:0:0:
64,192,93930,128,0,94254:0:0:0:0:
320,192,94335,128,0,94578:0:0:0:0:
64,192,94335,128,0,94578:0:0:0:0:
448,192,94335,128,0,94497:0:0:0:0:
192,192,94335,128,0,94416:0:0:0:0:
192,192,94497,128,0,94741:0:0:0:0:
448,192,94578,128,0,94903:0:0:0:0:
64,192,94660,128,0,95065:0:0:0:0:
320,192,94660,128,0,94822:0:0:0:0:
192,192,94822,128,0,94903:0:0:0:0:
320,192,94903,128,0,95227:0:0:0:0:
192,192,94984,128,0,95146:0:0:0:0:
448,192,94984,128,0,95227:0:0:0:0:
64,192,95146,128,0,95551:0:0:0:0:
192,192,95227,128,0,95389:0:0:0:0:
320,192,95308,128,0,95470:0:0:0:0:
448,192,95308,128,0,95876:0:0:0:0:
192,192,95470,128,0,95551:0:0:0:0:
320,192,95551,128,0,95714:0:0:0:0:
192,192,95633,128,0,95876:0:0:0:0:
64,192,95633,128,0,95795:0:0:0:0:
320,192,95795,128,0,96038:0:0:0:0:
64,192,95876,128,0,96200:0:0:0:0:
192,192,95957,128,0,96443:0:0:0:0:
448,192,95957,128,0,96119:0:0:0:0:
320,192,96119,128,0,96200:0:0:0:0:
448,192,96200,128,0,96524:0:0:0:0:
64,192,96281,128,0,96768:0:0:0:0:
320,192,96281,128,0,96605:0:0:0:0:
192,192,96605,128,0,96687:0:0:0:0:
448,192,96605,128,0,97011:0:0:0:0:
320,192,96687,128,0,96930:0:0:0:0:
192,192,96768,128,0,96849:0:0:0:0:
64,192,96849,128,0,97092:0:0:0:0:
192,192,96930,128,0,97173:0:0:0:0:
320,192,97011,128,0,97254:0:0:0:0:
448,192,97092,128,0,97335:0:0:0:0:
64,192,97173,128,0,97578:0:0:0:0:
192,192,97254,128,0,97497:0:0:0:0:
320,192,97335,128,0,97416:0:0:0:0:
448,192,97416,128,0,97660:0:0:0:0:
320,192,97497,128,0,97741:0:0:0:0:
192,192,97578,128,0,97822:0:0:0:0:
64,192,97660,128,0,98227:0:0:0:0:
448,192,97741,128,0,97903:0:0:0:0:
320,192,97822,128,0,98308:0:0:0:0:
192,192,97903,128,0,97984:0:0:0:0:
448,192,97984,128,0,98146:0:0:0:0:
192,192,98065,128,0,98389:0:0:0:0:
448,192,98227,128,0,98551:0:0:0:0:
64,192,98308,128,0,98389:0:0:0:0:
320,192,98389,128,0,98470:0:0:0:0:
192,192,98551,128,0,98633:0:0:0:0:
64,192,98551,128,0,98633:0:0:0:0:
448,192,98633,128,0,98795:0:0:0:0:
320,192,98633,128,0,98795:0:0:0:0:
192,192,98714,128,0,98876:0:0:0:0:
64,192,98714,128,0,98876:0:0:0:0:
448,192,98876,128,0,98957:0:0:0:0:
320,192,98876,128,0,98957:0:0:0:0:
64,192,98957,128,0,99119:0:0:0:0:
192,192,98957,128,0,99119:0:0:0:0:
448,192,99038,128,0,99362:0:0:0:0:
320,192,99038,128,0,99362:0:0:0:0:
64,192,99524,128,0,100092:0:0:0:0:
448,192,99524,128,0,99849:0:0:0:0:
320,192,99524,128,0,99930:0:0:0:0:
192,192,99524,128,0,99605:0:0:0:0:
192,192,99687,128,0,100011:0:0:0:0:
448,192,100011,128,0,100173:0:0:0:0:
320,192,100011,128,0,100497:0:0:0:0:
192,192,100092,128,0,100254:0:0:0:0:
64,192,100173,128,0,100416:0:0:0:0:
448,192,100254,128,0,100335:0:0:0:0:
192,192,100335,128,0,100578:0:0:0:0:
448,192,100416,128,0,100822:0:0:0:0:
64,192,100497,128,0,100822:0:0:0:0:
320,192,100578,128,0,100660:0:0:0:0:
192,192,100660,128,0,100741:0:0:0:0:
320,192,100741,128,0,100984:0:0:0:0:
192,192,100822,128,0,100903:0:0:0:0:
64,192,100903,128,0,101146:0:0:0:0:
192,192,100984,128,0,101065:0:0:0:0:
320,192,101065,128,0,101308:0:0:0:0:
192,192,101146,128,0,101227:0:0:0:0:
448,192,101146,128,0,101633:0:0:0:0:
64,192,101227,128,0,101389:0:0:0:0:
192,192,101308,128,0,101470:0:0:0:0:
320,192,101389,128,0,101551:0:0:0:0:
64,192,101470,128,0,101795:0:0:0:0:
192,192,101551,128,0,101957:0:0:0:0:
320,192,101633,128,0,101714:0:0:0:0:
448,192,101714,128,0,102038:0:0:0:0:
320,192,101795,128,0,101876:0:0:0:0:
64,192,101957,128,0,102038:0:0:0:0:
320,192,101957,128,0,102200:0:0:0:0:
192,192,102038,128,0,102200:0:0:0:0:
64,192,102119,128,0,102687:0:0:0:0:
448,192,102119,128,0,102443:0:0:0:0:
192,192,102281,128,0,102524:0:0:0:0:
320,192,102281,128,0,102605:0:0:0:0:
448,192,102605,128,0,102687:0:0:0:0:
192,192,102605,128,0,102849:0:0:0:0:
320,192,102687,128,0,102849:0:0:0:0:
448,192,102768,128,0,103173:0:0:0:0:
64,192,102768,128,0,103011:0:0:0:0:
320,192,102930,128,0,103578:0:0:0:0:
192,192,102930,128,0,103741:0:0:0:0:
64,192,103092,128,0,103335:0:0:0:0:
448,192,103254,128,0,103497:0:0:0:0:
64,192,103416,128,0,103741:0:0:0:0:
448,192,103578,128,0,103984:0:0:0:0:
320,192,103660,128,0,104146:0:0:0:0:
448,192,104065,128,0,104470:0:0:0:0:
192,192,104065,128,0,104308:0:0:0:0:
64,192,104065,128,0,104308:0:0:0:0:
320,192,104227,128,0,104551:0:0:0:0:
64,192,104389,128,0,104633:0:0:0:0:
192,192,104389,128,0,104633:0:0:0:0:
448,192,104551,128,0,104957:0:0:0:0:
320,192,104633,128,0,104957:0:0:0:0:
64,192,104714,128,0,104795:0:0:0:0:
192,192,104714,128,0,104876:0:0:0:0:
64,192,104876,128,0,105119:0:0:0:0:
192,192,104957,128,0,105119:0:0:0:0:
448,192,105038,128,0,105524:0:0:0:0:
320,192,105038,128,0,105281:0:0:0:0:
64,192,105200,128,0,105524:0:0:0:0:
192,192,105200,128,0,105281:0:0:0:0:
192,192,105362,128,0,105605:0:0:0:0:
320,192,105362,128,0,105768:0:0:0:0:
192,192,105687,128,0,105849:0:0:0:0:
448,192,105687,128,0,105930:0:0:0:0:
64,192,105687,128,0,106092:0:0:0:0:
320,192,105849,128,0,105930:0:0:0:0:
192,192,105930,128,0,106173:0:0:0:0:
448,192,106011,128,0,106254:0:0:0:0:
320,192,106011,128,0,106254:0:0:0:0:
64,192,106173,128,0,106741:0:0:0:0:
192,192,106254,128,0,106416:0:0:0:0:
320,192,106335,128,0,106416:0:0:0:0:
448,192,106335,128,0,106578:0:0:0:0:
192,192,106497,128,0,106741:0:0:0:0:
320,192,106497,128,0,106578:0:0:0:0:
320,192,106660,128,0,107065:0:0:0:0:
448,192,106660,128,0,106903:0:0:0:0:
192,192,106822,128,0,107146:0:0:0:0:
64,192,106822,128,0,106984:0:0:0:0:
448,192,106984,128,0,107227:0:0:0:0:
64,192,107065,128,0,107308:0:0:0:0:
320,192,107146,128,0,107389:0:0:0:0:
192,192,107227,128,0,107470:0:0:0:0:
448,192,107308,128,0,107551:0:0:0:0:
64,192,107389,128,0,107633:0:0:0:0:
320,192,107470,128,0,107714:0:0:0:0:
192,192,107551,128,0,107795:0:0:0:0:
448,192,107633,128,0,107876:0:0:0:0:
64,192,107714,128,0,107957:0:0:0:0:
320,192,107795,128,0,108038:0:0:0:0:
192,192,107876,128,0,108119:0:0:0:0:
448,192,107957,128,0,108200:0:0:0:0:
64,192,108038,128,0,108200:0:0:0:0:
320,192,108119,128,0,108362:0:0:0:0:
192,192,108200,128,0,108687:0:0:0:0:
64,192,108281,128,0,108524:0:0:0:0:
448,192,108281,128,0,108524:0:0:0:0:
320,192,108443,128,0,109254:0:0:0:0:
64,192,108605,128,0,108930:0:0:0:0:
448,192,108605,128,0,108849:0:0:0:0:
192,192,108768,128,0,109173:0:0:0:0:
448,192,108930,128,0,109822:0:0:0:0:
64,192,109254,128,0,109578:0:0:0:0:
192,192,109254,128,0,109578:0:0:0:0:
320,192,109578,128,0,110146:0:0:0:0:
64,192,109903,128,0,110470:0:0:0:0:
192,192,109903,128,0,109984:0:0:0:0:
448,192,109903,128,0,110146:0:0:0:0:
192,192,110065,128,0,111038:0:0:0:0:
320,192,110227,128,0,110308:0:0:0:0:
448,192,110227,128,0,110308:0:0:0:0:
320,192,110389,128,0,110633:0:0:0:0:
448,192,110389,128,0,110551:0:0:0:0:
64,192,110551,128,0,110795:0:0:0:0:
448,192,110633,128,0,110714:0:0:0:0:
320,192,110714,128,0,111362:0:0:0:0:
448,192,110795,128,0,111119:0:0:0:0:
64,192,110876,128,0,111443:0:0:0:0:
192,192,111200,128,0,111605:0:0:0:0:
448,192,111200,128,0,111768:0:0:0:0:
64,192,111524,128,0,111930:0:0:0:0:
320,192,111524,128,0,111768:0:0:0:0:
192,192,111687,128,0,112254:0:0:0:0:
448,192,111849,128,0,112092:0:0:0:0:
320,192,111849,128,0,112173:0:0:0:0:
64,192,112011,128,0,112335:0:0:0:0:
448,192,112173,128,0,112578:0:0:0:0:
320,192,112254,128,0,112497:0:0:0:0:
192,192,112335,128,0,112416:0:0:0:0:
64,192,112416,128,0,112660:0:0:0:0:
192,192,112497,128,0,112741:0:0:0:0:
320,192,112578,128,0,112822:0:0:0:0:
448,192,112660,128,0,112903:0:0:0:0:
64,192,112741,128,0,113146:0:0:0:0:
192,192,112822,128,0,113065:0:0:0:0:
320,192,112903,128,0,112984:0:0:0:0:
448,192,112984,128,0,113389:0:0:0:0:
320,192,113065,128,0,113308:0:0:0:0:
192,192,113146,128,0,113227:0:0:0:0:
64,192,113227,128,0,113714:0:0:0:0:
192,192,113308,128,0,114362:0:0:0:0:
320,192,113389,128,0,114038:0:0:0:0:
448,192,113470,128,0,113551:0:0:0:0:
448,192,113633,128,0,114038:0:0:0:0:
64,192,113795,128,0,113876:0:0:0:0:
64,192,113957,128,0,114119:0:0:0:0:
448,192,114119,128,0,114443:0:0:0:0:
320,192,114119,128,0,114200:0:0:0:0:
64,192,114200,128,0,114281:0:0:0:0:
320,192,114281,128,0,114930:0:0:0:0:
192,192,114443,128,0,114524:0:0:0:0:
64,192,114443,128,0,115092:0:0:0:0:
448,192,114524,128,0,115011:0:0:0:0:
192,192,114605,128,0,115011:0:0:0:0:
