osu file format v14

[General]
AudioFilename: BlackYooh vs. siromaru - BLACK or WHITE.mp3
AudioLeadIn: 0
PreviewTime: 52173
Countdown: 0
SampleSet: Normal
StackLeniency: 0.7
Mode: 3
LetterboxInBreaks: 0
EpilepsyWarning: 1
SpecialStyle: 0
WidescreenStoryboard: 1

[Editor]
DistanceSpacing: 0.9
BeatDivisor: 4
GridSize: 8
TimelineZoom: 2.499999

[Metadata]
Title:[Full LN] training
TitleUnicode:[Full LN] training
Artist:Various Artist
ArtistUnicode:Various Artist
Creator:Allezard
Version:BlackYooh vs. siromaru - BLACK or WHITE? Lv. 3.5
Source:SOUND VOLTEX II -infinite infection-
Tags:Full LN Training Various Artist Collection 4k NOODLE BMS Deemo Cytus SOUND VOLTEX II -infinite infection- beatmania IIDX
BeatmapID:819075
BeatmapSetID:368373

[Difficulty]
HPDrainRate:6
CircleSize:4
OverallDifficulty:1
ApproachRate:5
SliderMultiplier:1.4
SliderTickRate:1

[Events]
//Background and Video events
0,0,"BlackYooh vs. siromaru - BLACK or WHITE.jpg",0,0
//Break Periods
//Storyboard Layer 0 (Background)
//Storyboard Layer 1 (Fail)
//Storyboard Layer 2 (Pass)
//Storyboard Layer 3 (Foreground)
//Storyboard Sound Samples

[TimingPoints]
606,324.324324324324,4,1,1,70,1,0
31741,-100,4,2,1,70,0,0
42119,-100,4,1,1,70,0,0
52497,-100,4,1,1,70,0,1
73254,-100,4,2,1,70,0,0
83633,-100,4,1,1,70,0,0
94335,-100,4,1,1,70,0,1
115092,-100,4,1,1,70,0,0

[HitObjects]
64,192,606,128,0,1984:0:0:0:0:
448,192,606,128,0,1497:0:0:0:0:
192,192,768,128,0,1011:0:0:0:0:
320,192,930,128,0,1173:0:0:0:0:
192,192,1092,128,0,1335:0:0:0:0:
320,192,1254,128,0,1660:0:0:0:0:
192,192,1416,128,0,1822:0:0:0:0:
448,192,1578,128,0,2795:0:0:0:0:
320,192,1741,128,0,2308:0:0:0:0:
192,192,1903,128,0,2146:0:0:0:0:
64,192,2065,128,0,3119:0:0:0:0:
192,192,2227,128,0,2470:0:0:0:0:
320,192,2389,128,0,2633:0:0:0:0:
192,192,2551,128,0,2957:0:0:0:0:
320,192,2714,128,0,3443:0:0:0:0:
448,192,2876,128,0,4092:0:0:0:0:
192,192,3038,128,0,3281:0:0:0:0:
64,192,3200,128,0,3605:0:0:0:0:
192,192,3362,128,0,3930:0:0:0:0:
320,192,3524,128,0,3768:0:0:0:0:
64,192,3687,128,0,4578:0:0:0:0:
320,192,3849,128,0,4254:0:0:0:0:
192,192,4011,128,0,4416:0:0:0:0:
448,192,4173,128,0,4903:0:0:0:0:
320,192,4335,128,0,5389:0:0:0:0:
192,192,4497,128,0,4741:0:0:0:0:
64,192,4660,128,0,5065:0:0:0:0:
192,192,4822,128,0,5551:0:0:0:0:
448,192,4984,128,0,5227:0:0:0:0:
64,192,5146,128,0,5714:0:0:0:0:
448,192,5308,128,0,5795:0:0:0:0:
320,192,5470,128,0,6038:0:0:0:0:
192,192,5633,128,0,5876:0:0:0:0:
64,192,5795,128,0,6362:0:0:0:0:
192,192,5957,128,0,6200:0:0:0:0:
320,192,6119,128,0,6687:0:0:0:0:
192,192,6281,128,0,6524:0:0:0:0:
64,192,6443,128,0,7011:0:0:0:0:
192,192,6605,128,0,6849:0:0:0:0:
320,192,6768,128,0,7497:0:0:0:0:
192,192,6930,128,0,7741:0:0:0:0:
64,192,7092,128,0,7173:0:0:0:0:
448,192,7092,128,0,7335:0:0:0:0:
64,192,7254,128,0,7741:0:0:0:0:
448,192,7416,128,0,7984:0:0:0:0:
320,192,7578,128,0,8633:0:0:0:0:
64,192,8065,128,0,8146:0:0:0:0:
192,192,8065,128,0,9281:0:0:0:0:
448,192,8065,128,0,8308:0:0:0:0:
64,192,8227,128,0,8957:0:0:0:0:
448,192,8389,128,0,8470:0:0:0:0:
448,192,8551,128,0,10011:0:0:0:0:
320,192,8714,128,0,8795:0:0:0:0:
320,192,8876,128,0,11551:0:0:0:0:
64,192,9038,128,0,9119:0:0:0:0:
64,192,9200,128,0,10011:0:0:0:0:
192,192,9362,128,0,9443:0:0:0:0:
192,192,9524,128,0,10660:0:0:0:0:
448,192,10660,128,0,10903:0:0:0:0:
64,192,10660,128,0,11227:0:0:0:0:
192,192,10984,128,0,11227:0:0:0:0:
448,192,10984,128,0,11389:0:0:0:0:
192,192,11308,128,0,11551:0:0:0:0:
64,192,11308,128,0,12038:0:0:0:0:
448,192,11470,128,0,11876:0:0:0:0:
320,192,11633,128,0,11876:0:0:0:0:
192,192,11633,128,0,12200:0:0:0:0:
320,192,11957,128,0,12200:0:0:0:0:
448,192,11957,128,0,12687:0:0:0:0:
64,192,12119,128,0,12524:0:0:0:0:
192,192,12281,128,0,12524:0:0:0:0:
320,192,12281,128,0,12849:0:0:0:0:
192,192,12605,128,0,12849:0:0:0:0:
64,192,12605,128,0,13254:0:0:0:0:
448,192,12768,128,0,13497:0:0:0:0:
192,192,12930,128,0,13822:0:0:0:0:
320,192,12930,128,0,14146:0:0:0:0:
64,192,13578,128,0,13984:0:0:0:0:
448,192,13578,128,0,13822:0:0:0:0:
192,192,13903,128,0,14795:0:0:0:0:
448,192,13903,128,0,14227:0:0:0:0:
64,192,14065,128,0,14470:0:0:0:0:
320,192,14227,128,0,14795:0:0:0:0:
64,192,14551,128,0,15200:0:0:0:0:
448,192,14551,128,0,14633:0:0:0:0:
448,192,14714,128,0,15443:0:0:0:0:
320,192,14876,128,0,17389:0:0:0:0:
192,192,14876,128,0,15200:0:0:0:0:
64,192,15524,128,0,15768:0:0:0:0:
192,192,15524,128,0,16173:0:0:0:0:
448,192,15524,128,0,15605:0:0:0:0:
448,192,15687,128,0,16011:0:0:0:0:
64,192,15849,128,0,16416:0:0:0:0:
448,192,16497,128,0,16822:0:0:0:0:
64,192,16497,128,0,17065:0:0:0:0:
192,192,16497,128,0,17065:0:0:0:0:
448,192,16984,128,0,17227:0:0:0:0:
64,192,17146,128,0,17876:0:0:0:0:
192,192,17146,128,0,17389:0:0:0:0:
448,192,17308,128,0,17714:0:0:0:0:
320,192,17470,128,0,17714:0:0:0:0:
192,192,17470,128,0,18119:0:0:0:0:
320,192,17795,128,0,18119:0:0:0:0:
448,192,17795,128,0,19173:0:0:0:0:
64,192,17957,128,0,18443:0:0:0:0:
192,192,18443,128,0,19335:0:0:0:0:
320,192,18443,128,0,18687:0:0:0:0:
320,192,18768,128,0,19011:0:0:0:0:
64,192,18768,128,0,19011:0:0:0:0:
64,192,19092,128,0,19660:0:0:0:0:
320,192,19092,128,0,19335:0:0:0:0:
448,192,19254,128,0,19984:0:0:0:0:
192,192,19416,128,0,19822:0:0:0:0:
320,192,19416,128,0,19660:0:0:0:0:
64,192,19741,128,0,20065:0:0:0:0:
320,192,19741,128,0,20227:0:0:0:0:
192,192,19903,128,0,20551:0:0:0:0:
448,192,20065,128,0,20389:0:0:0:0:
64,192,20146,128,0,20308:0:0:0:0:
320,192,20308,128,0,21281:0:0:0:0:
64,192,20389,128,0,21038:0:0:0:0:
448,192,20470,128,0,20714:0:0:0:0:
192,192,20633,128,0,21687:0:0:0:0:
320,192,21362,128,0,22335:0:0:0:0:
64,192,21362,128,0,21930:0:0:0:0:
448,192,21362,128,0,21930:0:0:0:0:
64,192,22011,128,0,22578:0:0:0:0:
448,192,22011,128,0,22578:0:0:0:0:
192,192,22011,128,0,23308:0:0:0:0:
320,192,22660,128,0,23308:0:0:0:0:
448,192,22660,128,0,22984:0:0:0:0:
64,192,22660,128,0,23633:0:0:0:0:
448,192,23308,128,0,23876:0:0:0:0:
192,192,23633,128,0,23876:0:0:0:0:
320,192,23633,128,0,24281:0:0:0:0:
64,192,23957,128,0,24524:0:0:0:0:
192,192,23957,128,0,24930:0:0:0:0:
448,192,23957,128,0,24524:0:0:0:0:
448,192,24605,128,0,25173:0:0:0:0:
320,192,24605,128,0,25335:0:0:0:0:
64,192,24605,128,0,25173:0:0:0:0:
64,192,25254,128,0,25578:0:0:0:0:
448,192,25254,128,0,25903:0:0:0:0:
192,192,25254,128,0,25497:0:0:0:0:
320,192,25416,128,0,25741:0:0:0:0:
192,192,25578,128,0,25822:0:0:0:0:
64,192,25660,128,0,26227:0:0:0:0:
320,192,25822,128,0,26065:0:0:0:0:
192,192,25903,128,0,26146:0:0:0:0:
448,192,25984,128,0,26308:0:0:0:0:
320,192,26146,128,0,26551:0:0:0:0:
192,192,26227,128,0,27200:0:0:0:0:
64,192,26308,128,0,27200:0:0:0:0:
448,192,26470,128,0,26876:0:0:0:0:
320,192,26876,128,0,27524:0:0:0:0:
448,192,27200,128,0,27768:0:0:0:0:
64,192,27524,128,0,27768:0:0:0:0:
192,192,27524,128,0,28741:0:0:0:0:
64,192,27849,128,0,28092:0:0:0:0:
320,192,27849,128,0,28092:0:0:0:0:
448,192,27849,128,0,28416:0:0:0:0:
64,192,28173,128,0,28416:0:0:0:0:
320,192,28173,128,0,29389:0:0:0:0:
64,192,28497,128,0,29065:0:0:0:0:
448,192,28497,128,0,28741:0:0:0:0:
192,192,28822,128,0,30038:0:0:0:0:
448,192,28822,128,0,29065:0:0:0:0:
64,192,29146,128,0,29389:0:0:0:0:
448,192,29146,128,0,29714:0:0:0:0:
320,192,29470,128,0,30524:0:0:0:0:
64,192,29470,128,0,29714:0:0:0:0:
64,192,29795,128,0,30362:0:0:0:0:
448,192,29795,128,0,30038:0:0:0:0:
448,192,30119,128,0,30362:0:0:0:0:
192,192,30119,128,0,30687:0:0:0:0:
64,192,30443,128,0,30849:0:0:0:0:
448,192,30443,128,0,31173:0:0:0:0:
320,192,30605,128,0,31011:0:0:0:0:
192,192,30768,128,0,31497:0:0:0:0:
64,192,30930,128,0,31741:0:0:0:0:
320,192,31092,128,0,31335:0:0:0:0:
448,192,31254,128,0,31741:0:0:0:0:
320,192,31416,128,0,33687:0:0:0:0:
192,192,31578,128,0,34011:0:0:0:0:
320,192,34011,128,0,34903:0:0:0:0:
448,192,34011,128,0,34254:0:0:0:0:
64,192,34335,128,0,34578:0:0:0:0:
192,192,34335,128,0,36281:0:0:0:0:
448,192,34335,128,0,35227:0:0:0:0:
64,192,34660,128,0,35551:0:0:0:0:
320,192,34984,128,0,35551:0:0:0:0:
448,192,35308,128,0,36524:0:0:0:0:
320,192,35633,128,0,37173:0:0:0:0:
64,192,35633,128,0,35876:0:0:0:0:
64,192,35957,128,0,36849:0:0:0:0:
192,192,36605,128,0,36849:0:0:0:0:
448,192,36605,128,0,36687:0:0:0:0:
448,192,36768,128,0,37497:0:0:0:0:
192,192,36930,128,0,37822:0:0:0:0:
64,192,36930,128,0,38470:0:0:0:0:
320,192,37254,128,0,38146:0:0:0:0:
448,192,37578,128,0,38146:0:0:0:0:
192,192,37903,128,0,38795:0:0:0:0:
448,192,38227,128,0,40741:0:0:0:0:
320,192,38227,128,0,39119:0:0:0:0:
64,192,38551,128,0,39443:0:0:0:0:
192,192,38876,128,0,39443:0:0:0:0:
320,192,39200,128,0,39768:0:0:0:0:
64,192,39524,128,0,40416:0:0:0:0:
192,192,39524,128,0,41389:0:0:0:0:
320,192,39849,128,0,40092:0:0:0:0:
320,192,40173,128,0,40741:0:0:0:0:
64,192,40497,128,0,41065:0:0:0:0:
448,192,40822,128,0,42038:0:0:0:0:
320,192,40822,128,0,41714:0:0:0:0:
64,192,41146,128,0,42038:0:0:0:0:
192,192,41470,128,0,42362:0:0:0:0:
320,192,41795,128,0,42200:0:0:0:0:
448,192,42119,128,0,42849:0:0:0:0:
64,192,42119,128,0,42524:0:0:0:0:
320,192,42281,128,0,42687:0:0:0:0:
192,192,42443,128,0,43011:0:0:0:0:
64,192,42605,128,0,43173:0:0:0:0:
320,192,42768,128,0,43984:0:0:0:0:
448,192,42930,128,0,43335:0:0:0:0:
192,192,43092,128,0,43497:0:0:0:0:
64,192,43254,128,0,44146:0:0:0:0:
448,192,43416,128,0,43660:0:0:0:0:
192,192,43578,128,0,43822:0:0:0:0:
448,192,43741,128,0,44633:0:0:0:0:
192,192,43903,128,0,44957:0:0:0:0:
320,192,44065,128,0,44308:0:0:0:0:
64,192,44227,128,0,44470:0:0:0:0:
320,192,44389,128,0,44795:0:0:0:0:
64,192,44551,128,0,45119:0:0:0:0:
448,192,44714,128,0,45443:0:0:0:0:
320,192,44876,128,0,45281:0:0:0:0:
192,192,45038,128,0,45605:0:0:0:0:
64,192,45200,128,0,45768:0:0:0:0:
320,192,45362,128,0,45930:0:0:0:0:
448,192,45524,128,0,46578:0:0:0:0:
192,192,45687,128,0,46092:0:0:0:0:
64,192,45849,128,0,46741:0:0:0:0:
320,192,46011,128,0,46254:0:0:0:0:
192,192,46173,128,0,46416:0:0:0:0:
320,192,46335,128,0,48200:0:0:0:0:
192,192,46497,128,0,47551:0:0:0:0:
448,192,46660,128,0,46903:0:0:0:0:
64,192,46822,128,0,47065:0:0:0:0:
448,192,46984,128,0,47308:0:0:0:0:
64,192,47146,128,0,47957:0:0:0:0:
192,192,47633,128,0,48849:0:0:0:0:
448,192,47633,128,0,48524:0:0:0:0:
64,192,48281,128,0,49011:0:0:0:0:
320,192,48281,128,0,48687:0:0:0:0:
448,192,48605,128,0,49173:0:0:0:0:
320,192,48768,128,0,49497:0:0:0:0:
192,192,48930,128,0,49335:0:0:0:0:
64,192,49092,128,0,49660:0:0:0:0:
448,192,49254,128,0,49822:0:0:0:0:
192,192,49416,128,0,49984:0:0:0:0:
320,192,49578,128,0,50470:0:0:0:0:
64,192,49741,128,0,50633:0:0:0:0:
448,192,49903,128,0,50146:0:0:0:0:
192,192,50065,128,0,50308:0:0:0:0:
448,192,50227,128,0,51687:0:0:0:0:
192,192,50389,128,0,51119:0:0:0:0:
320,192,50551,128,0,50795:0:0:0:0:
64,192,50714,128,0,50957:0:0:0:0:
320,192,50876,128,0,51200:0:0:0:0:
64,192,51038,128,0,51524:0:0:0:0:
192,192,51200,128,0,51768:0:0:0:0:
320,192,51524,128,0,52011:0:0:0:0:
64,192,51849,128,0,52416:0:0:0:0:
448,192,51849,128,0,52416:0:0:0:0:
192,192,51849,128,0,52173:0:0:0:0:
320,192,52173,128,0,52741:0:0:0:0:
192,192,52497,128,0,53227:0:0:0:0:
64,192,52497,128,0,52741:0:0:0:0:
448,192,52497,128,0,53065:0:0:0:0:
320,192,52822,128,0,54038:0:0:0:0:
64,192,52822,128,0,53551:0:0:0:0:
448,192,53146,128,0,53389:0:0:0:0:
192,192,53308,128,0,53714:0:0:0:0:
448,192,53470,128,0,53714:0:0:0:0:
64,192,53633,128,0,54038:0:0:0:0:
448,192,53795,128,0,54443:0:0:0:0:
192,192,53795,128,0,54524:0:0:0:0:
320,192,54119,128,0,55335:0:0:0:0:
64,192,54119,128,0,54362:0:0:0:0:
64,192,54443,128,0,54687:0:0:0:0:
192,192,54605,128,0,55335:0:0:0:0:
448,192,54768,128,0,55011:0:0:0:0:
64,192,54768,128,0,55011:0:0:0:0:
64,192,55092,128,0,55660:0:0:0:0:
448,192,55092,128,0,56146:0:0:0:0:
192,192,55416,128,0,55984:0:0:0:0:
320,192,55416,128,0,55822:0:0:0:0:
64,192,55741,128,0,56308:0:0:0:0:
320,192,55903,128,0,56308:0:0:0:0:
192,192,56065,128,0,56633:0:0:0:0:
448,192,56227,128,0,56633:0:0:0:0:
320,192,56389,128,0,57200:0:0:0:0:
64,192,56389,128,0,56957:0:0:0:0:
448,192,56714,128,0,57362:0:0:0:0:
192,192,56714,128,0,57038:0:0:0:0:
64,192,57038,128,0,57605:0:0:0:0:
192,192,57119,128,0,57605:0:0:0:0:
320,192,57281,128,0,57930:0:0:0:0:
64,192,57687,128,0,58254:0:0:0:0:
448,192,57687,128,0,58741:0:0:0:0:
192,192,57687,128,0,57930:0:0:0:0:
192,192,58011,128,0,58578:0:0:0:0:
320,192,58011,128,0,58416:0:0:0:0:
64,192,58335,128,0,58903:0:0:0:0:
320,192,58497,128,0,58903:0:0:0:0:
192,192,58660,128,0,59227:0:0:0:0:
448,192,58822,128,0,59227:0:0:0:0:
64,192,58984,128,0,59551:0:0:0:0:
320,192,58984,128,0,59876:0:0:0:0:
448,192,59308,128,0,59876:0:0:0:0:
192,192,59308,128,0,59551:0:0:0:0:
64,192,59633,128,0,60200:0:0:0:0:
192,192,59633,128,0,60524:0:0:0:0:
448,192,59957,128,0,60200:0:0:0:0:
320,192,59957,128,0,60524:0:0:0:0:
448,192,60281,128,0,60849:0:0:0:0:
64,192,60281,128,0,61335:0:0:0:0:
320,192,60605,128,0,61173:0:0:0:0:
192,192,60605,128,0,61011:0:0:0:0:
448,192,60930,128,0,61578:0:0:0:0:
192,192,61092,128,0,61497:0:0:0:0:
320,192,61254,128,0,61822:0:0:0:0:
64,192,61416,128,0,61903:0:0:0:0:
192,192,61578,128,0,62470:0:0:0:0:
320,192,61903,128,0,62227:0:0:0:0:
448,192,61903,128,0,62146:0:0:0:0:
448,192,62227,128,0,62795:0:0:0:0:
64,192,62227,128,0,62551:0:0:0:0:
320,192,62551,128,0,62795:0:0:0:0:
192,192,62551,128,0,63119:0:0:0:0:
320,192,62876,128,0,63119:0:0:0:0:
448,192,62876,128,0,63930:0:0:0:0:
64,192,62876,128,0,63443:0:0:0:0:
320,192,63200,128,0,63605:0:0:0:0:
192,192,63200,128,0,64092:0:0:0:0:
64,192,63524,128,0,63768:0:0:0:0:
320,192,63687,128,0,64416:0:0:0:0:
64,192,63849,128,0,65065:0:0:0:0:
448,192,64011,128,0,64741:0:0:0:0:
192,192,64173,128,0,65470:0:0:0:0:
320,192,64497,128,0,66930:0:0:0:0:
448,192,64822,128,0,65714:0:0:0:0:
64,192,65146,128,0,66038:0:0:0:0:
192,192,65795,128,0,66443:0:0:0:0:
448,192,65795,128,0,65876:0:0:0:0:
448,192,65957,128,0,66687:0:0:0:0:
64,192,66119,128,0,66200:0:0:0:0:
64,192,66281,128,0,66687:0:0:0:0:
192,192,66768,128,0,67173:0:0:0:0:
448,192,66768,128,0,67173:0:0:0:0:
64,192,66768,128,0,66930:0:0:0:0:
320,192,67011,128,0,67416:0:0:0:0:
64,192,67011,128,0,67416:0:0:0:0:
192,192,67254,128,0,67741:0:0:0:0:
448,192,67254,128,0,67660:0:0:0:0:
320,192,67497,128,0,68146:0:0:0:0:
64,192,67497,128,0,67984:0:0:0:0:
448,192,67741,128,0,67984:0:0:0:0:
192,192,68065,128,0,68551:0:0:0:0:
64,192,68065,128,0,68470:0:0:0:0:
448,192,68065,128,0,68633:0:0:0:0:
320,192,68227,128,0,68308:0:0:0:0:
320,192,68389,128,0,68633:0:0:0:0:
64,192,68551,128,0,69443:0:0:0:0:
192,192,68633,128,0,68795:0:0:0:0:
320,192,68714,128,0,69119:0:0:0:0:
448,192,68714,128,0,69200:0:0:0:0:
192,192,68876,128,0,68957:0:0:0:0:
192,192,69038,128,0,69281:0:0:0:0:
320,192,69200,128,0,69281:0:0:0:0:
448,192,69281,128,0,69768:0:0:0:0:
320,192,69362,128,0,69849:0:0:0:0:
192,192,69362,128,0,69930:0:0:0:0:
64,192,69524,128,0,69605:0:0:0:0:
64,192,69687,128,0,69930:0:0:0:0:
448,192,69849,128,0,70903:0:0:0:0:
320,192,69930,128,0,70092:0:0:0:0:
64,192,70011,128,0,70497:0:0:0:0:
192,192,70011,128,0,70416:0:0:0:0:
320,192,70173,128,0,70254:0:0:0:0:
320,192,70335,128,0,70578:0:0:0:0:
192,192,70497,128,0,70578:0:0:0:0:
64,192,70578,128,0,71389:0:0:0:0:
320,192,70660,128,0,71227:0:0:0:0:
192,192,70660,128,0,71065:0:0:0:0:
448,192,70984,128,0,71633:0:0:0:0:
192,192,71146,128,0,71795:0:0:0:0:
320,192,71308,128,0,71551:0:0:0:0:
64,192,71470,128,0,71876:0:0:0:0:
320,192,71633,128,0,71714:0:0:0:0:
448,192,71714,128,0,72200:0:0:0:0:
320,192,71795,128,0,72605:0:0:0:0:
192,192,71876,128,0,73335:0:0:0:0:
64,192,71957,128,0,72281:0:0:0:0:
448,192,72281,128,0,73173:0:0:0:0:
320,192,73254,128,0,74146:0:0:0:0:
448,192,73254,128,0,73497:0:0:0:0:
64,192,73254,128,0,73660:0:0:0:0:
192,192,73416,128,0,73822:0:0:0:0:
448,192,73578,128,0,73984:0:0:0:0:
64,192,73741,128,0,74957:0:0:0:0:
192,192,73903,128,0,74308:0:0:0:0:
448,192,74065,128,0,74470:0:0:0:0:
320,192,74227,128,0,75119:0:0:0:0:
192,192,74389,128,0,74633:0:0:0:0:
448,192,74551,128,0,74795:0:0:0:0:
192,192,74714,128,0,75605:0:0:0:0:
448,192,74876,128,0,75281:0:0:0:0:
64,192,75038,128,0,76254:0:0:0:0:
320,192,75200,128,0,75443:0:0:0:0:
448,192,75362,128,0,75768:0:0:0:0:
320,192,75524,128,0,76416:0:0:0:0:
192,192,75687,128,0,75930:0:0:0:0:
448,192,75849,128,0,76092:0:0:0:0:
192,192,76011,128,0,76741:0:0:0:0:
448,192,76173,128,0,77551:0:0:0:0:
64,192,76335,128,0,76578:0:0:0:0:
320,192,76497,128,0,76903:0:0:0:0:
64,192,76660,128,0,77065:0:0:0:0:
192,192,76822,128,0,77714:0:0:0:0:
320,192,76984,128,0,77227:0:0:0:0:
64,192,77146,128,0,77389:0:0:0:0:
320,192,77308,128,0,78200:0:0:0:0:
64,192,77470,128,0,77876:0:0:0:0:
448,192,77633,128,0,78849:0:0:0:0:
192,192,77795,128,0,78038:0:0:0:0:
64,192,77957,128,0,78362:0:0:0:0:
192,192,78119,128,0,79011:0:0:0:0:
320,192,78281,128,0,78524:0:0:0:0:
64,192,78443,128,0,78687:0:0:0:0:
320,192,78605,128,0,79335:0:0:0:0:
64,192,78768,128,0,80146:0:0:0:0:
448,192,78930,128,0,79173:0:0:0:0:
192,192,79092,128,0,79497:0:0:0:0:
448,192,79254,128,0,79660:0:0:0:0:
320,192,79416,128,0,80308:0:0:0:0:
192,192,79578,128,0,79822:0:0:0:0:
448,192,79741,128,0,79984:0:0:0:0:
192,192,79903,128,0,80633:0:0:0:0:
448,192,80065,128,0,80470:0:0:0:0:
64,192,80227,128,0,80795:0:0:0:0:
320,192,80389,128,0,81119:0:0:0:0:
448,192,80551,128,0,80957:0:0:0:0:
192,192,80714,128,0,81443:0:0:0:0:
64,192,80876,128,0,82092:0:0:0:0:
448,192,81038,128,0,81281:0:0:0:0:
320,192,81200,128,0,81605:0:0:0:0:
448,192,81362,128,0,81768:0:0:0:0:
192,192,81524,128,0,82335:0:0:0:0:
320,192,81687,128,0,81930:0:0:0:0:
448,192,81849,128,0,83551:0:0:0:0:
320,192,82011,128,0,83714:0:0:0:0:
64,192,82173,128,0,83957:0:0:0:0:
448,192,83633,128,0,84200:0:0:0:0:
192,192,83633,128,0,84605:0:0:0:0:
320,192,83795,128,0,84362:0:0:0:0:
448,192,84281,128,0,84849:0:0:0:0:
64,192,84281,128,0,84849:0:0:0:0:
320,192,84443,128,0,85173:0:0:0:0:
192,192,84930,128,0,85173:0:0:0:0:
448,192,84930,128,0,85822:0:0:0:0:
64,192,84930,128,0,85497:0:0:0:0:
320,192,85254,128,0,85822:0:0:0:0:
192,192,85254,128,0,85497:0:0:0:0:
192,192,85578,128,0,86146:0:0:0:0:
64,192,85578,128,0,86146:0:0:0:0:
320,192,85903,128,0,86551:0:0:0:0:
448,192,85903,128,0,86795:0:0:0:0:
192,192,86227,128,0,87200:0:0:0:0:
64,192,86227,128,0,86795:0:0:0:0:
448,192,86876,128,0,87443:0:0:0:0:
320,192,86876,128,0,87768:0:0:0:0:
64,192,86876,128,0,87443:0:0:0:0:
192,192,87524,128,0,88335:0:0:0:0:
448,192,87524,128,0,88092:0:0:0:0:
64,192,87524,128,0,87768:0:0:0:0:
64,192,87849,128,0,88416:0:0:0:0:
320,192,87849,128,0,88173:0:0:0:0:
448,192,88173,128,0,88741:0:0:0:0:
320,192,88254,128,0,88578:0:0:0:0:
192,192,88416,128,0,88497:0:0:0:0:
64,192,88497,128,0,89065:0:0:0:0:
192,192,88578,128,0,89470:0:0:0:0:
320,192,88741,128,0,89065:0:0:0:0:
448,192,88822,128,0,89065:0:0:0:0:
64,192,89146,128,0,89714:0:0:0:0:
448,192,89146,128,0,89714:0:0:0:0:
320,192,89146,128,0,90768:0:0:0:0:
192,192,89795,128,0,90119:0:0:0:0:
64,192,89795,128,0,90443:0:0:0:0:
448,192,89795,128,0,90119:0:0:0:0:
448,192,90443,128,0,91092:0:0:0:0:
192,192,90443,128,0,91660:0:0:0:0:
64,192,90768,128,0,91335:0:0:0:0:
320,192,91092,128,0,91335:0:0:0:0:
64,192,91416,128,0,92065:0:0:0:0:
448,192,91416,128,0,91660:0:0:0:0:
320,192,91416,128,0,92308:0:0:0:0:
448,192,91741,128,0,94011:0:0:0:0:
192,192,91741,128,0,92714:0:0:0:0:
64,192,92389,128,0,94254:0:0:0:0:
320,192,92389,128,0,94254:0:0:0:0:
192,192,94011,128,0,95065:0:0:0:0:
64,192,94335,128,0,94903:0:0:0:0:
448,192,94335,128,0,94578:0:0:0:0:
320,192,94335,128,0,94741:0:0:0:0:
448,192,94660,128,0,95227:0:0:0:0:
320,192,94822,128,0,95389:0:0:0:0:
64,192,94984,128,0,95551:0:0:0:0:
192,192,95146,128,0,95714:0:0:0:0:
448,192,95308,128,0,95876:0:0:0:0:
320,192,95470,128,0,96038:0:0:0:0:
64,192,95633,128,0,96200:0:0:0:0:
192,192,95795,128,0,96443:0:0:0:0:
448,192,95957,128,0,96524:0:0:0:0:
320,192,96119,128,0,96687:0:0:0:0:
64,192,96281,128,0,97011:0:0:0:0:
192,192,96605,128,0,96849:0:0:0:0:
448,192,96605,128,0,97173:0:0:0:0:
320,192,96768,128,0,97335:0:0:0:0:
192,192,96930,128,0,97497:0:0:0:0:
64,192,97092,128,0,97660:0:0:0:0:
448,192,97254,128,0,97822:0:0:0:0:
320,192,97416,128,0,98065:0:0:0:0:
192,192,97578,128,0,97903:0:0:0:0:
64,192,97741,128,0,98146:0:0:0:0:
448,192,97903,128,0,98227:0:0:0:0:
192,192,97984,128,0,98308:0:0:0:0:
320,192,98146,128,0,98551:0:0:0:0:
64,192,98227,128,0,99443:0:0:0:0:
448,192,98308,128,0,99200:0:0:0:0:
192,192,98470,128,0,99605:0:0:0:0:
320,192,99200,128,0,99768:0:0:0:0:
64,192,99524,128,0,100173:0:0:0:0:
448,192,99524,128,0,100822:0:0:0:0:
192,192,99687,128,0,100578:0:0:0:0:
320,192,99849,128,0,100416:0:0:0:0:
64,192,100497,128,0,101065:0:0:0:0:
320,192,100497,128,0,101389:0:0:0:0:
192,192,100660,128,0,101227:0:0:0:0:
64,192,101146,128,0,101795:0:0:0:0:
448,192,101146,128,0,101551:0:0:0:0:
192,192,101308,128,0,102443:0:0:0:0:
320,192,101470,128,0,102200:0:0:0:0:
448,192,101633,128,0,102038:0:0:0:0:
64,192,101957,128,0,103011:0:0:0:0:
448,192,102119,128,0,102687:0:0:0:0:
320,192,102281,128,0,102849:0:0:0:0:
192,192,102605,128,0,103335:0:0:0:0:
448,192,102768,128,0,103497:0:0:0:0:
320,192,102930,128,0,103173:0:0:0:0:
64,192,103092,128,0,103741:0:0:0:0:
320,192,103254,128,0,104146:0:0:0:0:
192,192,103416,128,0,104389:0:0:0:0:
448,192,103578,128,0,103984:0:0:0:0:
448,192,104065,128,0,105281:0:0:0:0:
64,192,104065,128,0,105687:0:0:0:0:
320,192,104227,128,0,104714:0:0:0:0:
192,192,104714,128,0,105038:0:0:0:0:
320,192,105038,128,0,107227:0:0:0:0:
192,192,105362,128,0,106903:0:0:0:0:
448,192,105362,128,0,106011:0:0:0:0:
64,192,106011,128,0,106335:0:0:0:0:
448,192,106335,128,0,106578:0:0:0:0:
448,192,106660,128,0,106984:0:0:0:0:
64,192,106660,128,0,107308:0:0:0:0:
192,192,106984,128,0,107633:0:0:0:0:
320,192,107308,128,0,107876:0:0:0:0:
448,192,107308,128,0,107551:0:0:0:0:
448,192,107633,128,0,107957:0:0:0:0:
64,192,107633,128,0,108281:0:0:0:0:
192,192,107957,128,0,108200:0:0:0:0:
320,192,107957,128,0,108605:0:0:0:0:
448,192,108281,128,0,108524:0:0:0:0:
192,192,108281,128,0,108930:0:0:0:0:
64,192,108605,128,0,108849:0:0:0:0:
448,192,108605,128,0,109173:0:0:0:0:
64,192,108930,128,0,109254:0:0:0:0:
320,192,108930,128,0,109578:0:0:0:0:
448,192,109254,128,0,109578:0:0:0:0:
192,192,109254,128,0,109984:0:0:0:0:
64,192,109578,128,0,109822:0:0:0:0:
320,192,109903,128,0,110146:0:0:0:0:
64,192,109903,128,0,110795:0:0:0:0:
448,192,109903,128,0,110551:0:0:0:0:
192,192,110065,128,0,111038:0:0:0:0:
320,192,110227,128,0,110308:0:0:0:0:
320,192,110389,128,0,111119:0:0:0:0:
64,192,110876,128,0,111443:0:0:0:0:
448,192,110876,128,0,111362:0:0:0:0:
192,192,111200,128,0,111605:0:0:0:0:
320,192,111200,128,0,112254:0:0:0:0:
64,192,111524,128,0,111930:0:0:0:0:
448,192,111524,128,0,111768:0:0:0:0:
192,192,111687,128,0,112416:0:0:0:0:
448,192,111849,128,0,112092:0:0:0:0:
64,192,112011,128,0,112578:0:0:0:0:
448,192,112173,128,0,113065:0:0:0:0:
320,192,112335,128,0,112741:0:0:0:0:
192,192,112497,128,0,112903:0:0:0:0:
64,192,112660,128,0,114038:0:0:0:0:
320,192,112822,128,0,113227:0:0:0:0:
192,192,112984,128,0,113389:0:0:0:0:
448,192,113146,128,0,114605:0:0:0:0:
320,192,113308,128,0,113714:0:0:0:0:
192,192,113470,128,0,113551:0:0:0:0:
192,192,113633,128,0,114119:0:0:0:0:
320,192,113795,128,0,113876:0:0:0:0:
320,192,113957,128,0,114281:0:0:0:0:
64,192,114119,128,0,115092:0:0:0:0:
192,192,114200,128,0,114362:0:0:0:0:
320,192,114362,128,0,114605:0:0:0:0:
192,192,114443,128,0,115092:0:0:0:0:
448,192,114687,128,0,115092:0:0:0:0:
