osu file format v14

[General]
AudioFilename: BlackYooh vs. siromaru - BLACK or WHITE.mp3
AudioLeadIn: 0
PreviewTime: 52173
Countdown: 0
SampleSet: Normal
StackLeniency: 0.7
Mode: 3
LetterboxInBreaks: 0
EpilepsyWarning: 1
SpecialStyle: 0
WidescreenStoryboard: 1

[Editor]
DistanceSpacing: 0.9
BeatDivisor: 4
GridSize: 8
TimelineZoom: 3.099998

[Metadata]
Title:[Full LN] training
TitleUnicode:[Full LN] training
Artist:Various Artist
ArtistUnicode:Various Artist
Creator:Allezard
Version:BlackYooh vs. siromaru - BLACK or WHITE? Lv. 2.5
Source:SOUND VOLTEX II -infinite infection-
Tags:Full LN Training Various Artist Collection 4k NOODLE BMS Deemo Cytus SOUND VOLTEX II -infinite infection- beatmania IIDX
BeatmapID:819074
BeatmapSetID:368373

[Difficulty]
HPDrainRate:5
CircleSize:4
OverallDifficulty:1
ApproachRate:5
SliderMultiplier:1.4
SliderTickRate:1

[Events]
//Background and Video events
0,0,"BlackYooh vs. siromaru - BLACK or WHITE.jpg",0,0
//Break Periods
//Storyboard Layer 0 (Background)
//Storyboard Layer 1 (Fail)
//Storyboard Layer 2 (Pass)
//Storyboard Layer 3 (Foreground)
//Storyboard Sound Samples

[TimingPoints]
606,324.324324324324,4,1,1,70,1,0
31741,-100,4,2,1,70,0,0
42119,-100,4,1,1,70,0,0
52497,-100,4,1,1,70,0,1
73254,-100,4,2,1,70,0,0
83633,-100,4,1,1,70,0,0
94335,-100,4,1,1,70,0,1
115092,-100,4,1,1,70,0,0

[HitObjects]
320,192,606,128,0,1173:0:0:0:0:
448,192,606,128,0,1497:0:0:0:0:
192,192,930,128,0,2146:0:0:0:0:
320,192,1254,128,0,1822:0:0:0:0:
448,192,1578,128,0,2795:0:0:0:0:
320,192,1903,128,0,2470:0:0:0:0:
192,192,2227,128,0,3119:0:0:0:0:
320,192,2551,128,0,4092:0:0:0:0:
448,192,2876,128,0,5795:0:0:0:0:
192,192,3200,128,0,3768:0:0:0:0:
64,192,3524,128,0,4741:0:0:0:0:
192,192,3849,128,0,4416:0:0:0:0:
320,192,4173,128,0,5389:0:0:0:0:
192,192,4497,128,0,5065:0:0:0:0:
64,192,4822,128,0,6038:0:0:0:0:
192,192,5146,128,0,6362:0:0:0:0:
320,192,5470,128,0,6687:0:0:0:0:
64,192,6119,128,0,7011:0:0:0:0:
192,192,6443,128,0,7416:0:0:0:0:
320,192,6768,128,0,8065:0:0:0:0:
64,192,7092,128,0,7660:0:0:0:0:
448,192,7092,128,0,8308:0:0:0:0:
64,192,7741,128,0,9119:0:0:0:0:
192,192,7741,128,0,8470:0:0:0:0:
320,192,8389,128,0,8957:0:0:0:0:
448,192,8389,128,0,8633:0:0:0:0:
192,192,8551,128,0,8795:0:0:0:0:
448,192,8714,128,0,10011:0:0:0:0:
192,192,8876,128,0,10903:0:0:0:0:
320,192,9038,128,0,9281:0:0:0:0:
64,192,9200,128,0,9443:0:0:0:0:
320,192,9362,128,0,10011:0:0:0:0:
64,192,9524,128,0,11227:0:0:0:0:
320,192,10660,128,0,11633:0:0:0:0:
448,192,10660,128,0,10903:0:0:0:0:
192,192,10984,128,0,14227:0:0:0:0:
448,192,10984,128,0,12200:0:0:0:0:
64,192,11308,128,0,11876:0:0:0:0:
320,192,11957,128,0,16416:0:0:0:0:
64,192,11957,128,0,12605:0:0:0:0:
448,192,12281,128,0,12849:0:0:0:0:
448,192,12930,128,0,13822:0:0:0:0:
64,192,12930,128,0,13497:0:0:0:0:
64,192,13578,128,0,15524:0:0:0:0:
448,192,13903,128,0,14470:0:0:0:0:
448,192,14551,128,0,15200:0:0:0:0:
192,192,14551,128,0,14795:0:0:0:0:
192,192,14876,128,0,16173:0:0:0:0:
448,192,15524,128,0,16741:0:0:0:0:
320,192,16497,128,0,17389:0:0:0:0:
192,192,16497,128,0,17065:0:0:0:0:
64,192,16497,128,0,18119:0:0:0:0:
448,192,16822,128,0,18687:0:0:0:0:
192,192,17146,128,0,17714:0:0:0:0:
320,192,17470,128,0,20065:0:0:0:0:
192,192,17795,128,0,19011:0:0:0:0:
64,192,18443,128,0,19660:0:0:0:0:
448,192,18768,128,0,19335:0:0:0:0:
192,192,19092,128,0,21281:0:0:0:0:
448,192,19416,128,0,21038:0:0:0:0:
64,192,19741,128,0,20714:0:0:0:0:
320,192,20714,128,0,21281:0:0:0:0:
64,192,21038,128,0,21930:0:0:0:0:
320,192,21362,128,0,21930:0:0:0:0:
192,192,21362,128,0,22578:0:0:0:0:
448,192,21362,128,0,22578:0:0:0:0:
64,192,22011,128,0,23876:0:0:0:0:
320,192,22011,128,0,25173:0:0:0:0:
192,192,22660,128,0,23633:0:0:0:0:
448,192,22660,128,0,23308:0:0:0:0:
448,192,23633,128,0,23876:0:0:0:0:
448,192,23957,128,0,25173:0:0:0:0:
192,192,23957,128,0,24524:0:0:0:0:
64,192,23957,128,0,24524:0:0:0:0:
64,192,24605,128,0,25903:0:0:0:0:
192,192,24605,128,0,26227:0:0:0:0:
448,192,25254,128,0,27200:0:0:0:0:
320,192,25254,128,0,26470:0:0:0:0:
64,192,26227,128,0,27524:0:0:0:0:
320,192,26551,128,0,26876:0:0:0:0:
192,192,26551,128,0,28092:0:0:0:0:
448,192,27524,128,0,27768:0:0:0:0:
320,192,27524,128,0,29389:0:0:0:0:
448,192,27849,128,0,28416:0:0:0:0:
64,192,27849,128,0,29065:0:0:0:0:
192,192,28173,128,0,28741:0:0:0:0:
448,192,28497,128,0,30443:0:0:0:0:
192,192,28822,128,0,32633:0:0:0:0:
64,192,29146,128,0,29714:0:0:0:0:
320,192,29470,128,0,30038:0:0:0:0:
64,192,29795,128,0,30768:0:0:0:0:
320,192,30119,128,0,31660:0:0:0:0:
448,192,30768,128,0,31092:0:0:0:0:
64,192,31092,128,0,31416:0:0:0:0:
448,192,31416,128,0,34011:0:0:0:0:
320,192,31741,128,0,32957:0:0:0:0:
64,192,31741,128,0,32308:0:0:0:0:
64,192,32389,128,0,34254:0:0:0:0:
192,192,32714,128,0,33281:0:0:0:0:
320,192,33038,128,0,33605:0:0:0:0:
192,192,33362,128,0,34903:0:0:0:0:
320,192,33687,128,0,35227:0:0:0:0:
64,192,34335,128,0,35876:0:0:0:0:
448,192,34335,128,0,35551:0:0:0:0:
192,192,34984,128,0,36524:0:0:0:0:
320,192,35308,128,0,36281:0:0:0:0:
448,192,35633,128,0,36687:0:0:0:0:
64,192,35957,128,0,36849:0:0:0:0:
192,192,36605,128,0,37822:0:0:0:0:
320,192,36605,128,0,37497:0:0:0:0:
448,192,36768,128,0,37173:0:0:0:0:
64,192,36930,128,0,38470:0:0:0:0:
448,192,37254,128,0,39119:0:0:0:0:
320,192,37578,128,0,38146:0:0:0:0:
192,192,37903,128,0,38795:0:0:0:0:
320,192,38227,128,0,41795:0:0:0:0:
64,192,38551,128,0,39524:0:0:0:0:
192,192,38876,128,0,40822:0:0:0:0:
448,192,39200,128,0,42038:0:0:0:0:
64,192,40822,128,0,42362:0:0:0:0:
192,192,42119,128,0,43660:0:0:0:0:
448,192,42119,128,0,42687:0:0:0:0:
320,192,42119,128,0,43335:0:0:0:0:
64,192,42443,128,0,43011:0:0:0:0:
448,192,42768,128,0,44633:0:0:0:0:
64,192,43092,128,0,44308:0:0:0:0:
320,192,43416,128,0,43984:0:0:0:0:
192,192,43741,128,0,46578:0:0:0:0:
320,192,44065,128,0,45930:0:0:0:0:
64,192,44389,128,0,44957:0:0:0:0:
448,192,44714,128,0,45281:0:0:0:0:
64,192,45038,128,0,45605:0:0:0:0:
448,192,45362,128,0,46254:0:0:0:0:
64,192,45687,128,0,46903:0:0:0:0:
320,192,46011,128,0,47308:0:0:0:0:
448,192,46335,128,0,47957:0:0:0:0:
192,192,46660,128,0,47551:0:0:0:0:
64,192,46984,128,0,48200:0:0:0:0:
320,192,47633,128,0,48849:0:0:0:0:
192,192,47633,128,0,49173:0:0:0:0:
448,192,48281,128,0,48524:0:0:0:0:
64,192,48281,128,0,49497:0:0:0:0:
448,192,48605,128,0,52173:0:0:0:0:
320,192,48930,128,0,51119:0:0:0:0:
192,192,49254,128,0,49903:0:0:0:0:
64,192,49578,128,0,52416:0:0:0:0:
320,192,51200,128,0,51443:0:0:0:0:
192,192,51200,128,0,52416:0:0:0:0:
320,192,51524,128,0,51768:0:0:0:0:
320,192,51849,128,0,53065:0:0:0:0:
448,192,52497,128,0,53551:0:0:0:0:
64,192,52497,128,0,53227:0:0:0:0:
192,192,52497,128,0,54038:0:0:0:0:
320,192,53146,128,0,53389:0:0:0:0:
64,192,53308,128,0,54362:0:0:0:0:
320,192,53470,128,0,53714:0:0:0:0:
448,192,53633,128,0,55984:0:0:0:0:
320,192,53795,128,0,54524:0:0:0:0:
192,192,54119,128,0,55011:0:0:0:0:
64,192,54443,128,0,54687:0:0:0:0:
320,192,54605,128,0,55011:0:0:0:0:
64,192,54768,128,0,55822:0:0:0:0:
192,192,55092,128,0,56146:0:0:0:0:
320,192,55092,128,0,55660:0:0:0:0:
320,192,55741,128,0,56308:0:0:0:0:
64,192,55903,128,0,56633:0:0:0:0:
448,192,56065,128,0,57038:0:0:0:0:
192,192,56227,128,0,57605:0:0:0:0:
320,192,56389,128,0,57605:0:0:0:0:
64,192,56714,128,0,57281:0:0:0:0:
448,192,57362,128,0,58741:0:0:0:0:
64,192,57362,128,0,58416:0:0:0:0:
320,192,57687,128,0,58254:0:0:0:0:
192,192,57687,128,0,58578:0:0:0:0:
320,192,58335,128,0,59876:0:0:0:0:
64,192,58497,128,0,58903:0:0:0:0:
192,192,58660,128,0,59227:0:0:0:0:
448,192,58822,128,0,59551:0:0:0:0:
64,192,58984,128,0,60200:0:0:0:0:
192,192,59308,128,0,60849:0:0:0:0:
448,192,59633,128,0,60200:0:0:0:0:
320,192,59957,128,0,61173:0:0:0:0:
448,192,60281,128,0,61335:0:0:0:0:
64,192,60281,128,0,61011:0:0:0:0:
192,192,60930,128,0,61578:0:0:0:0:
64,192,61092,128,0,62551:0:0:0:0:
319,192,61254,128,0,61903:0:0:0:0:
448,192,61416,128,0,62227:0:0:0:0:
192,192,61903,128,0,64416:0:0:0:0:
320,192,62227,128,0,62795:0:0:0:0:
448,192,62551,128,0,62795:0:0:0:0:
448,192,62876,128,0,63930:0:0:0:0:
320,192,62876,128,0,63443:0:0:0:0:
64,192,62876,128,0,63605:0:0:0:0:
320,192,63524,128,0,63768:0:0:0:0:
64,192,63687,128,0,64741:0:0:0:0:
320,192,63849,128,0,64092:0:0:0:0:
448,192,64011,128,0,65714:0:0:0:0:
320,192,64173,128,0,65876:0:0:0:0:
192,192,64497,128,0,65065:0:0:0:0:
64,192,64822,128,0,66038:0:0:0:0:
192,192,65146,128,0,66200:0:0:0:0:
448,192,65795,128,0,66687:0:0:0:0:
320,192,65957,128,0,66443:0:0:0:0:
64,192,66119,128,0,66930:0:0:0:0:
192,192,66281,128,0,67173:0:0:0:0:
320,192,66768,128,0,67416:0:0:0:0:
448,192,66768,128,0,67741:0:0:0:0:
64,192,67011,128,0,67984:0:0:0:0:
192,192,67254,128,0,67984:0:0:0:0:
320,192,67497,128,0,68633:0:0:0:0:
192,192,68065,128,0,69930:0:0:0:0:
448,192,68065,128,0,69281:0:0:0:0:
64,192,68065,128,0,68633:0:0:0:0:
64,192,68714,128,0,69281:0:0:0:0:
320,192,68714,128,0,70578:0:0:0:0:
64,192,69362,128,0,70903:0:0:0:0:
448,192,69362,128,0,69930:0:0:0:0:
192,192,70011,128,0,71065:0:0:0:0:
448,192,70011,128,0,70578:0:0:0:0:
320,192,70660,128,0,71551:0:0:0:0:
448,192,70660,128,0,71227:0:0:0:0:
64,192,70984,128,0,71389:0:0:0:0:
192,192,71146,128,0,71714:0:0:0:0:
448,192,71308,128,0,71957:0:0:0:0:
64,192,71470,128,0,72281:0:0:0:0:
320,192,71633,128,0,72687:0:0:0:0:
192,192,71795,128,0,72849:0:0:0:0:
448,192,72281,128,0,72524:0:0:0:0:
448,192,72605,128,0,73173:0:0:0:0:
64,192,72605,128,0,73011:0:0:0:0:
320,192,72768,128,0,73254:0:0:0:0:
192,192,72930,128,0,75849:0:0:0:0:
64,192,73092,128,0,78443:0:0:0:0:
448,192,73254,128,0,82335:0:0:0:0:
320,192,75849,128,0,81038:0:0:0:0:
192,192,78443,128,0,79741:0:0:0:0:
64,192,79741,128,0,84200:0:0:0:0:
192,192,81038,128,0,83551:0:0:0:0:
320,192,82335,128,0,83551:0:0:0:0:
192,192,83633,128,0,85173:0:0:0:0:
320,192,83633,128,0,85822:0:0:0:0:
448,192,83633,128,0,84200:0:0:0:0:
64,192,84281,128,0,84930:0:0:0:0:
448,192,84281,128,0,84849:0:0:0:0:
448,192,84930,128,0,85578:0:0:0:0:
192,192,85254,128,0,86146:0:0:0:0:
64,192,85254,128,0,85497:0:0:0:0:
64,192,85578,128,0,86146:0:0:0:0:
320,192,85903,128,0,86795:0:0:0:0:
448,192,85903,128,0,87443:0:0:0:0:
192,192,86227,128,0,86795:0:0:0:0:
64,192,86227,128,0,87768:0:0:0:0:
192,192,86876,128,0,87768:0:0:0:0:
320,192,86876,128,0,87443:0:0:0:0:
448,192,87524,128,0,88173:0:0:0:0:
320,192,87524,128,0,89714:0:0:0:0:
64,192,87849,128,0,88497:0:0:0:0:
192,192,87849,128,0,88741:0:0:0:0:
192,192,88822,128,0,90119:0:0:0:0:
448,192,88822,128,0,89065:0:0:0:0:
64,192,88822,128,0,89065:0:0:0:0:
448,192,89146,128,0,89470:0:0:0:0:
64,192,89146,128,0,89714:0:0:0:0:
320,192,89795,128,0,90768:0:0:0:0:
448,192,89795,128,0,90362:0:0:0:0:
64,192,89795,128,0,90362:0:0:0:0:
192,192,90443,128,0,91092:0:0:0:0:
64,192,90443,128,0,91335:0:0:0:0:
448,192,90443,128,0,91335:0:0:0:0:
320,192,91092,128,0,91660:0:0:0:0:
192,192,91416,128,0,91984:0:0:0:0:
64,192,91416,128,0,92308:0:0:0:0:
448,192,91416,128,0,92714:0:0:0:0:
320,192,91741,128,0,95227:0:0:0:0:
192,192,92065,128,0,93930:0:0:0:0:
64,192,92389,128,0,93687:0:0:0:0:
64,192,94011,128,0,94254:0:0:0:0:
192,192,94011,128,0,94578:0:0:0:0:
448,192,94011,128,0,94254:0:0:0:0:
64,192,94335,128,0,94903:0:0:0:0:
448,192,94335,128,0,94903:0:0:0:0:
192,192,94660,128,0,96605:0:0:0:0:
64,192,94984,128,0,95551:0:0:0:0:
448,192,94984,128,0,95551:0:0:0:0:
320,192,95308,128,0,95876:0:0:0:0:
448,192,95633,128,0,96200:0:0:0:0:
64,192,95633,128,0,96200:0:0:0:0:
320,192,95957,128,0,96362:0:0:0:0:
64,192,96281,128,0,97822:0:0:0:0:
448,192,96281,128,0,96849:0:0:0:0:
320,192,96443,128,0,97173:0:0:0:0:
448,192,96930,128,0,97497:0:0:0:0:
320,192,97254,128,0,98470:0:0:0:0:
448,192,97578,128,0,98470:0:0:0:0:
192,192,97903,128,0,100822:0:0:0:0:
64,192,97903,128,0,98146:0:0:0:0:
64,192,98227,128,0,99443:0:0:0:0:
320,192,98551,128,0,98795:0:0:0:0:
448,192,98551,128,0,98795:0:0:0:0:
448,192,98876,128,0,99443:0:0:0:0:
320,192,98876,128,0,99768:0:0:0:0:
448,192,99524,128,0,100416:0:0:0:0:
64,192,99524,128,0,100173:0:0:0:0:
320,192,99849,128,0,101714:0:0:0:0:
64,192,100497,128,0,101470:0:0:0:0:
448,192,100497,128,0,101146:0:0:0:0:
192,192,101146,128,0,102038:0:0:0:0:
448,192,101470,128,0,102362:0:0:0:0:
320,192,101795,128,0,103173:0:0:0:0:
64,192,101795,128,0,102200:0:0:0:0:
192,192,102119,128,0,102687:0:0:0:0:
64,192,102281,128,0,102849:0:0:0:0:
448,192,102443,128,0,103011:0:0:0:0:
192,192,102768,128,0,103497:0:0:0:0:
64,192,102930,128,0,103335:0:0:0:0:
448,192,103092,128,0,103741:0:0:0:0:
320,192,103254,128,0,105119:0:0:0:0:
64,192,103416,128,0,104146:0:0:0:0:
192,192,103578,128,0,103984:0:0:0:0:
192,192,104065,128,0,105281:0:0:0:0:
448,192,104065,128,0,104308:0:0:0:0:
64,192,104227,128,0,104633:0:0:0:0:
448,192,104389,128,0,104957:0:0:0:0:
64,192,104714,128,0,105930:0:0:0:0:
448,192,105038,128,0,105605:0:0:0:0:
320,192,105200,128,0,105443:0:0:0:0:
192,192,105362,128,0,106416:0:0:0:0:
320,192,105524,128,0,106578:0:0:0:0:
448,192,105687,128,0,107308:0:0:0:0:
64,192,106011,128,0,106254:0:0:0:0:
64,192,106335,128,0,106984:0:0:0:0:
192,192,106497,128,0,106741:0:0:0:0:
320,192,106660,128,0,108281:0:0:0:0:
192,192,106822,128,0,108605:0:0:0:0:
64,192,107146,128,0,107633:0:0:0:0:
448,192,107470,128,0,107957:0:0:0:0:
64,192,107795,128,0,108930:0:0:0:0:
448,192,108119,128,0,109578:0:0:0:0:
320,192,108443,128,0,110308:0:0:0:0:
192,192,108768,128,0,109254:0:0:0:0:
64,192,109092,128,0,109822:0:0:0:0:
192,192,109416,128,0,109984:0:0:0:0:
448,192,109903,128,0,110146:0:0:0:0:
64,192,109903,128,0,110470:0:0:0:0:
192,192,110065,128,0,110633:0:0:0:0:
448,192,110227,128,0,110795:0:0:0:0:
320,192,110389,128,0,111038:0:0:0:0:
64,192,110551,128,0,111119:0:0:0:0:
192,192,110714,128,0,111362:0:0:0:0:
448,192,110876,128,0,111443:0:0:0:0:
64,192,111200,128,0,111768:0:0:0:0:
320,192,111200,128,0,111605:0:0:0:0:
192,192,111524,128,0,111930:0:0:0:0:
448,192,111524,128,0,112092:0:0:0:0:
320,192,111687,128,0,112416:0:0:0:0:
64,192,111849,128,0,112741:0:0:0:0:
192,192,112011,128,0,112254:0:0:0:0:
448,192,112173,128,0,113227:0:0:0:0:
192,192,112335,128,0,112578:0:0:0:0:
320,192,112497,128,0,113065:0:0:0:0:
192,192,112660,128,0,112903:0:0:0:0:
64,192,112822,128,0,114119:0:0:0:0:
192,192,112984,128,0,113551:0:0:0:0:
320,192,113146,128,0,113389:0:0:0:0:
448,192,113308,128,0,114443:0:0:0:0:
320,192,113470,128,0,113714:0:0:0:0:
192,192,113633,128,0,113876:0:0:0:0:
320,192,113795,128,0,115011:0:0:0:0:
192,192,113957,128,0,115011:0:0:0:0:
448,192,114768,128,0,115011:0:0:0:0:
64,192,114768,128,0,115092:0:0:0:0:
448,192,115092,128,0,117362:0:0:0:0:
320,192,115092,128,0,117362:0:0:0:0:
