osu file format v14

[General]
AudioFilename: 11. Graces of Heaven.ogg
AudioLeadIn: 2
PreviewTime: 110349
Countdown: 0
SampleSet: None
StackLeniency: 0.7
Mode: 3
LetterboxInBreaks: 0
SpecialStyle: 0
WidescreenStoryboard: 0

[Editor]
DistanceSpacing: 0.8
BeatDivisor: 1
GridSize: 8
TimelineZoom: 1

[Metadata]
Title:Yolomania Vol. 3B
TitleUnicode:Yolomania Vol. 3B
Artist:Various
ArtistUnicode:Various
Creator:Wafles
Version:(Marathon) aran - Graces of Heaven [17]
Source:
Tags:Stepmania yolo3b volume
BeatmapID:662214
BeatmapSetID:275645

[Difficulty]
HPDrainRate:8
CircleSize:4
OverallDifficulty:5.5
ApproachRate:10
SliderMultiplier:1.4
SliderTickRate:1

[Events]
//Background and Video events
0,0,"graces of heaven.png",0,0
//Break Periods
//Storyboard Layer 0 (Background)
//Storyboard Layer 1 (Fail)
//Storyboard Layer 2 (Pass)
//Storyboard Layer 3 (Foreground)
//Storyboard Sound Samples

[TimingPoints]
4.9887,344.8276,4,1,0,15,1,0

[HitObjects]
64,192,4,5,0,0:0:0:0:
192,192,4,1,0,0:0:0:0:
448,192,4,1,0,0:0:0:0:
320,192,177,1,0,0:0:0:0:
64,192,349,1,0,0:0:0:0:
192,192,349,1,0,0:0:0:0:
320,192,349,1,0,0:0:0:0:
64,192,522,1,0,0:0:0:0:
192,192,522,1,0,0:0:0:0:
64,192,694,1,0,0:0:0:0:
320,192,694,1,0,0:0:0:0:
448,192,694,1,0,0:0:0:0:
192,192,867,1,0,0:0:0:0:
64,192,1039,1,0,0:0:0:0:
192,192,1039,1,0,0:0:0:0:
320,192,1039,1,0,0:0:0:0:
448,192,1039,1,0,0:0:0:0:
192,192,1384,1,0,0:0:0:0:
320,192,1384,1,0,0:0:0:0:
448,192,1384,1,0,0:0:0:0:
64,192,1556,1,0,0:0:0:0:
64,192,1729,1,0,0:0:0:0:
320,192,1729,1,0,0:0:0:0:
448,192,1729,1,0,0:0:0:0:
64,192,1901,1,0,0:0:0:0:
192,192,1901,1,0,0:0:0:0:
64,192,2073,1,0,0:0:0:0:
192,192,2073,1,0,0:0:0:0:
448,192,2073,1,0,0:0:0:0:
320,192,2246,1,0,0:0:0:0:
64,192,2418,1,0,0:0:0:0:
192,192,2418,1,0,0:0:0:0:
320,192,2418,1,0,0:0:0:0:
448,192,2418,1,0,0:0:0:0:
192,192,2763,1,0,0:0:0:0:
320,192,2763,1,0,0:0:0:0:
448,192,2763,1,0,0:0:0:0:
64,192,2936,1,0,0:0:0:0:
64,192,3108,1,0,0:0:0:0:
320,192,3108,1,0,0:0:0:0:
448,192,3108,1,0,0:0:0:0:
64,192,3280,1,0,0:0:0:0:
192,192,3280,1,0,0:0:0:0:
64,192,3453,1,0,0:0:0:0:
192,192,3453,1,0,0:0:0:0:
448,192,3453,1,0,0:0:0:0:
320,192,3625,1,0,0:0:0:0:
64,192,3798,1,0,0:0:0:0:
192,192,3798,1,0,0:0:0:0:
320,192,3798,1,0,0:0:0:0:
448,192,3798,1,0,0:0:0:0:
64,192,4142,1,0,0:0:0:0:
192,192,4142,1,0,0:0:0:0:
448,192,4142,1,0,0:0:0:0:
320,192,4315,1,0,0:0:0:0:
64,192,4487,1,0,0:0:0:0:
192,192,4487,1,0,0:0:0:0:
320,192,4487,1,0,0:0:0:0:
64,192,4660,1,0,0:0:0:0:
320,192,4660,1,0,0:0:0:0:
192,192,4746,1,0,0:0:0:0:
64,192,4832,1,0,0:0:0:0:
320,192,4832,1,0,0:0:0:0:
448,192,4832,1,0,0:0:0:0:
320,192,5004,1,0,0:0:0:0:
448,192,5004,1,0,0:0:0:0:
64,192,5177,1,0,0:0:0:0:
192,192,5177,1,0,0:0:0:0:
320,192,5177,1,0,0:0:0:0:
448,192,5177,1,0,0:0:0:0:
320,192,5349,1,0,0:0:0:0:
448,192,5349,1,0,0:0:0:0:
64,192,5522,1,0,0:0:0:0:
192,192,5522,1,0,0:0:0:0:
448,192,5522,1,0,0:0:0:0:
320,192,5694,1,0,0:0:0:0:
192,192,5867,1,0,0:0:0:0:
320,192,5867,1,0,0:0:0:0:
448,192,5867,1,0,0:0:0:0:
64,192,6039,1,0,0:0:0:0:
192,192,6039,1,0,0:0:0:0:
64,192,6211,1,0,0:0:0:0:
320,192,6211,1,0,0:0:0:0:
448,192,6211,1,0,0:0:0:0:
192,192,6384,1,0,0:0:0:0:
64,192,6556,1,0,0:0:0:0:
192,192,6556,1,0,0:0:0:0:
320,192,6556,1,0,0:0:0:0:
448,192,6556,1,0,0:0:0:0:
64,192,6901,1,0,0:0:0:0:
192,192,6901,1,0,0:0:0:0:
448,192,6901,1,0,0:0:0:0:
320,192,7073,1,0,0:0:0:0:
192,192,7246,1,0,0:0:0:0:
320,192,7246,1,0,0:0:0:0:
448,192,7246,1,0,0:0:0:0:
64,192,7418,1,0,0:0:0:0:
192,192,7418,1,0,0:0:0:0:
64,192,7591,1,0,0:0:0:0:
320,192,7591,1,0,0:0:0:0:
448,192,7591,1,0,0:0:0:0:
192,192,7763,1,0,0:0:0:0:
64,192,7936,1,0,0:0:0:0:
192,192,7936,1,0,0:0:0:0:
320,192,7936,1,0,0:0:0:0:
448,192,7936,1,0,0:0:0:0:
64,192,8280,1,0,0:0:0:0:
192,192,8280,1,0,0:0:0:0:
320,192,8280,1,0,0:0:0:0:
448,192,8453,1,0,0:0:0:0:
64,192,8625,1,0,0:0:0:0:
320,192,8625,1,0,0:0:0:0:
448,192,8625,1,0,0:0:0:0:
64,192,8798,1,0,0:0:0:0:
192,192,8798,1,0,0:0:0:0:
64,192,8970,1,0,0:0:0:0:
192,192,8970,1,0,0:0:0:0:
448,192,8970,1,0,0:0:0:0:
320,192,9142,1,0,0:0:0:0:
64,192,9315,1,0,0:0:0:0:
192,192,9315,1,0,0:0:0:0:
320,192,9315,1,0,0:0:0:0:
448,192,9315,1,0,0:0:0:0:
64,192,9660,1,0,0:0:0:0:
192,192,9660,1,0,0:0:0:0:
448,192,9660,1,0,0:0:0:0:
320,192,9832,1,0,0:0:0:0:
192,192,10004,1,0,0:0:0:0:
320,192,10004,1,0,0:0:0:0:
448,192,10004,1,0,0:0:0:0:
64,192,10177,1,0,0:0:0:0:
320,192,10177,1,0,0:0:0:0:
192,192,10263,1,0,0:0:0:0:
64,192,10349,1,0,0:0:0:0:
320,192,10349,1,0,0:0:0:0:
448,192,10349,1,0,0:0:0:0:
320,192,10522,1,0,0:0:0:0:
448,192,10522,1,0,0:0:0:0:
64,192,10694,1,0,0:0:0:0:
192,192,10694,1,0,0:0:0:0:
320,192,10694,1,0,0:0:0:0:
448,192,10694,1,0,0:0:0:0:
320,192,10867,1,0,0:0:0:0:
448,192,10867,1,0,0:0:0:0:
64,192,11039,1,0,0:0:0:0:
192,192,11039,1,0,0:0:0:0:
448,192,11039,1,0,0:0:0:0:
320,192,11211,1,0,0:0:0:0:
192,192,11384,1,0,0:0:0:0:
320,192,11384,1,0,0:0:0:0:
448,192,11384,1,0,0:0:0:0:
64,192,11556,1,0,0:0:0:0:
192,192,11556,1,0,0:0:0:0:
64,192,11729,1,0,0:0:0:0:
320,192,11729,1,0,0:0:0:0:
448,192,11729,1,0,0:0:0:0:
192,192,11901,1,0,0:0:0:0:
64,192,12073,1,0,0:0:0:0:
192,192,12073,1,0,0:0:0:0:
320,192,12073,1,0,0:0:0:0:
448,192,12073,1,0,0:0:0:0:
64,192,12418,1,0,0:0:0:0:
192,192,12418,1,0,0:0:0:0:
448,192,12418,1,0,0:0:0:0:
320,192,12591,1,0,0:0:0:0:
192,192,12763,1,0,0:0:0:0:
320,192,12763,1,0,0:0:0:0:
448,192,12763,1,0,0:0:0:0:
64,192,12936,1,0,0:0:0:0:
192,192,12936,1,0,0:0:0:0:
64,192,13108,1,0,0:0:0:0:
320,192,13108,1,0,0:0:0:0:
448,192,13108,1,0,0:0:0:0:
192,192,13280,1,0,0:0:0:0:
64,192,13453,1,0,0:0:0:0:
192,192,13453,1,0,0:0:0:0:
320,192,13453,1,0,0:0:0:0:
448,192,13453,1,0,0:0:0:0:
64,192,13798,1,0,0:0:0:0:
192,192,13798,1,0,0:0:0:0:
320,192,13798,1,0,0:0:0:0:
448,192,13970,1,0,0:0:0:0:
64,192,14142,1,0,0:0:0:0:
320,192,14142,1,0,0:0:0:0:
448,192,14142,1,0,0:0:0:0:
64,192,14315,1,0,0:0:0:0:
192,192,14315,1,0,0:0:0:0:
64,192,14487,1,0,0:0:0:0:
192,192,14487,1,0,0:0:0:0:
448,192,14487,1,0,0:0:0:0:
320,192,14660,1,0,0:0:0:0:
64,192,14832,1,0,0:0:0:0:
192,192,14832,1,0,0:0:0:0:
320,192,14832,1,0,0:0:0:0:
448,192,14832,1,0,0:0:0:0:
64,192,15177,1,0,0:0:0:0:
192,192,15177,1,0,0:0:0:0:
448,192,15177,1,0,0:0:0:0:
320,192,15349,1,0,0:0:0:0:
64,192,15522,1,0,0:0:0:0:
192,192,15522,1,0,0:0:0:0:
320,192,15522,1,0,0:0:0:0:
192,192,15694,1,0,0:0:0:0:
320,192,15694,1,0,0:0:0:0:
64,192,15780,1,0,0:0:0:0:
192,192,15867,1,0,0:0:0:0:
320,192,15867,1,0,0:0:0:0:
448,192,15867,1,0,0:0:0:0:
320,192,16039,1,0,0:0:0:0:
448,192,16039,1,0,0:0:0:0:
64,192,16211,1,0,0:0:0:0:
192,192,16211,1,0,0:0:0:0:
320,192,16211,1,0,0:0:0:0:
448,192,16211,1,0,0:0:0:0:
320,192,16384,1,0,0:0:0:0:
448,192,16384,1,0,0:0:0:0:
64,192,16556,1,0,0:0:0:0:
192,192,16556,1,0,0:0:0:0:
320,192,16556,1,0,0:0:0:0:
448,192,16729,1,0,0:0:0:0:
64,192,16901,1,0,0:0:0:0:
320,192,16901,1,0,0:0:0:0:
448,192,16901,1,0,0:0:0:0:
64,192,17073,1,0,0:0:0:0:
192,192,17073,1,0,0:0:0:0:
64,192,17246,1,0,0:0:0:0:
192,192,17246,1,0,0:0:0:0:
448,192,17246,1,0,0:0:0:0:
320,192,17418,1,0,0:0:0:0:
64,192,17591,1,0,0:0:0:0:
192,192,17591,1,0,0:0:0:0:
320,192,17591,1,0,0:0:0:0:
448,192,17591,1,0,0:0:0:0:
64,192,17936,1,0,0:0:0:0:
192,192,17936,1,0,0:0:0:0:
448,192,17936,1,0,0:0:0:0:
320,192,18108,1,0,0:0:0:0:
192,192,18280,1,0,0:0:0:0:
320,192,18280,1,0,0:0:0:0:
448,192,18280,1,0,0:0:0:0:
64,192,18453,1,0,0:0:0:0:
192,192,18453,1,0,0:0:0:0:
64,192,18625,1,0,0:0:0:0:
320,192,18625,1,0,0:0:0:0:
448,192,18625,1,0,0:0:0:0:
192,192,18798,1,0,0:0:0:0:
64,192,18970,1,0,0:0:0:0:
192,192,18970,1,0,0:0:0:0:
320,192,18970,1,0,0:0:0:0:
448,192,18970,1,0,0:0:0:0:
192,192,19315,1,0,0:0:0:0:
320,192,19315,1,0,0:0:0:0:
448,192,19315,1,0,0:0:0:0:
64,192,19487,1,0,0:0:0:0:
64,192,19660,1,0,0:0:0:0:
320,192,19660,1,0,0:0:0:0:
448,192,19660,1,0,0:0:0:0:
64,192,19832,1,0,0:0:0:0:
192,192,19832,1,0,0:0:0:0:
64,192,20005,1,0,0:0:0:0:
192,192,20005,1,0,0:0:0:0:
320,192,20005,1,0,0:0:0:0:
448,192,20177,1,0,0:0:0:0:
64,192,20349,1,0,0:0:0:0:
192,192,20349,1,0,0:0:0:0:
320,192,20349,1,0,0:0:0:0:
448,192,20349,1,0,0:0:0:0:
64,192,20694,1,0,0:0:0:0:
192,192,20694,1,0,0:0:0:0:
448,192,20694,1,0,0:0:0:0:
320,192,20867,1,0,0:0:0:0:
64,192,21039,1,0,0:0:0:0:
192,192,21039,1,0,0:0:0:0:
320,192,21039,1,0,0:0:0:0:
192,192,21211,1,0,0:0:0:0:
320,192,21211,1,0,0:0:0:0:
64,192,21298,1,0,0:0:0:0:
192,192,21384,1,0,0:0:0:0:
320,192,21384,1,0,0:0:0:0:
448,192,21384,1,0,0:0:0:0:
320,192,21556,1,0,0:0:0:0:
448,192,21556,1,0,0:0:0:0:
64,192,21729,1,0,0:0:0:0:
192,192,21729,1,0,0:0:0:0:
320,192,21729,1,0,0:0:0:0:
448,192,21729,1,0,0:0:0:0:
320,192,21901,1,0,0:0:0:0:
448,192,21901,1,0,0:0:0:0:
64,192,22073,1,0,0:0:0:0:
192,192,22073,1,0,0:0:0:0:
448,192,22073,1,0,0:0:0:0:
64,192,22246,1,0,0:0:0:0:
320,192,22246,1,0,0:0:0:0:
192,192,22418,1,0,0:0:0:0:
320,192,22418,1,0,0:0:0:0:
448,192,22418,1,0,0:0:0:0:
192,192,22591,1,0,0:0:0:0:
448,192,22591,1,0,0:0:0:0:
64,192,22763,1,0,0:0:0:0:
320,192,22763,1,0,0:0:0:0:
448,192,22763,1,0,0:0:0:0:
192,192,22936,1,0,0:0:0:0:
320,192,22936,1,0,0:0:0:0:
64,192,23108,1,0,0:0:0:0:
192,192,23108,1,0,0:0:0:0:
320,192,23108,1,0,0:0:0:0:
448,192,23108,1,0,0:0:0:0:
64,192,23280,1,0,0:0:0:0:
448,192,23280,1,0,0:0:0:0:
64,192,23453,1,0,0:0:0:0:
192,192,23453,1,0,0:0:0:0:
448,192,23453,1,0,0:0:0:0:
64,192,23625,1,0,0:0:0:0:
448,192,23625,1,0,0:0:0:0:
192,192,23798,1,0,0:0:0:0:
320,192,23798,1,0,0:0:0:0:
448,192,23798,1,0,0:0:0:0:
64,192,23970,1,0,0:0:0:0:
320,192,23970,1,0,0:0:0:0:
64,192,24142,1,0,0:0:0:0:
320,192,24142,1,0,0:0:0:0:
448,192,24142,1,0,0:0:0:0:
192,192,24315,1,0,0:0:0:0:
448,192,24315,1,0,0:0:0:0:
64,192,24487,1,0,0:0:0:0:
192,192,24487,1,0,0:0:0:0:
320,192,24487,1,0,0:0:0:0:
448,192,24487,1,0,0:0:0:0:
64,192,24832,1,0,0:0:0:0:
320,192,24832,1,0,0:0:0:0:
448,192,24832,1,0,0:0:0:0:
64,192,25005,1,0,0:0:0:0:
320,192,25005,1,0,0:0:0:0:
192,192,25177,1,0,0:0:0:0:
320,192,25177,1,0,0:0:0:0:
448,192,25177,1,0,0:0:0:0:
192,192,25349,1,0,0:0:0:0:
448,192,25349,1,0,0:0:0:0:
64,192,25522,1,0,0:0:0:0:
320,192,25522,1,0,0:0:0:0:
448,192,25522,1,0,0:0:0:0:
192,192,25694,1,0,0:0:0:0:
320,192,25694,1,0,0:0:0:0:
64,192,25867,1,0,0:0:0:0:
192,192,25867,1,0,0:0:0:0:
320,192,25867,1,0,0:0:0:0:
448,192,25867,1,0,0:0:0:0:
64,192,26039,1,0,0:0:0:0:
448,192,26039,1,0,0:0:0:0:
64,192,26211,1,0,0:0:0:0:
192,192,26211,1,0,0:0:0:0:
320,192,26211,1,0,0:0:0:0:
64,192,26384,1,0,0:0:0:0:
320,192,26384,1,0,0:0:0:0:
64,192,26556,1,0,0:0:0:0:
320,192,26556,1,0,0:0:0:0:
448,192,26556,1,0,0:0:0:0:
64,192,26729,1,0,0:0:0:0:
192,192,26729,1,0,0:0:0:0:
320,192,26815,1,0,0:0:0:0:
448,192,26815,1,0,0:0:0:0:
64,192,26901,1,0,0:0:0:0:
192,192,26901,1,0,0:0:0:0:
64,192,27073,1,0,0:0:0:0:
320,192,27073,1,0,0:0:0:0:
64,192,27246,1,0,0:0:0:0:
192,192,27246,1,0,0:0:0:0:
320,192,27246,1,0,0:0:0:0:
448,192,27246,1,0,0:0:0:0:
64,192,27418,1,0,0:0:0:0:
320,192,27418,1,0,0:0:0:0:
64,192,27591,1,0,0:0:0:0:
320,192,27591,1,0,0:0:0:0:
448,192,27591,1,0,0:0:0:0:
64,192,27763,1,0,0:0:0:0:
448,192,27763,1,0,0:0:0:0:
192,192,27936,1,0,0:0:0:0:
320,192,27936,1,0,0:0:0:0:
448,192,27936,1,0,0:0:0:0:
192,192,28108,1,0,0:0:0:0:
448,192,28108,1,0,0:0:0:0:
64,192,28280,1,0,0:0:0:0:
192,192,28280,1,0,0:0:0:0:
448,192,28280,1,0,0:0:0:0:
192,192,28453,1,0,0:0:0:0:
320,192,28453,1,0,0:0:0:0:
64,192,28625,1,0,0:0:0:0:
192,192,28625,1,0,0:0:0:0:
320,192,28625,1,0,0:0:0:0:
448,192,28625,1,0,0:0:0:0:
64,192,28798,1,0,0:0:0:0:
320,192,28798,1,0,0:0:0:0:
64,192,28970,1,0,0:0:0:0:
320,192,28970,1,0,0:0:0:0:
448,192,28970,1,0,0:0:0:0:
192,192,29142,1,0,0:0:0:0:
320,192,29142,1,0,0:0:0:0:
192,192,29315,1,0,0:0:0:0:
320,192,29315,1,0,0:0:0:0:
448,192,29315,1,0,0:0:0:0:
64,192,29487,1,0,0:0:0:0:
448,192,29487,1,0,0:0:0:0:
64,192,29660,1,0,0:0:0:0:
192,192,29660,1,0,0:0:0:0:
320,192,29660,1,0,0:0:0:0:
64,192,29832,1,0,0:0:0:0:
320,192,29832,1,0,0:0:0:0:
64,192,30005,1,0,0:0:0:0:
192,192,30005,1,0,0:0:0:0:
320,192,30005,1,0,0:0:0:0:
448,192,30005,1,0,0:0:0:0:
448,192,30177,1,0,0:0:0:0:
320,192,30234,1,0,0:0:0:0:
448,192,30292,1,0,0:0:0:0:
64,192,30349,1,0,0:0:0:0:
192,192,30349,1,0,0:0:0:0:
320,192,30349,1,0,0:0:0:0:
64,192,30522,1,0,0:0:0:0:
320,192,30522,1,0,0:0:0:0:
64,192,30694,1,0,0:0:0:0:
320,192,30694,1,0,0:0:0:0:
448,192,30694,1,0,0:0:0:0:
64,192,30867,1,0,0:0:0:0:
448,192,30867,1,0,0:0:0:0:
192,192,31039,1,0,0:0:0:0:
320,192,31039,1,0,0:0:0:0:
448,192,31039,1,0,0:0:0:0:
192,192,31211,1,0,0:0:0:0:
320,192,31211,1,0,0:0:0:0:
64,192,31384,1,0,0:0:0:0:
192,192,31384,1,0,0:0:0:0:
320,192,31384,1,0,0:0:0:0:
448,192,31384,1,0,0:0:0:0:
64,192,31556,1,0,0:0:0:0:
320,192,31556,1,0,0:0:0:0:
64,192,31729,1,0,0:0:0:0:
192,192,31729,1,0,0:0:0:0:
320,192,31729,1,0,0:0:0:0:
64,192,32073,1,0,0:0:0:0:
192,192,32073,1,0,0:0:0:0:
320,192,32073,1,0,0:0:0:0:
192,192,32332,1,0,0:0:0:0:
64,192,32418,1,0,0:0:0:0:
320,192,32418,1,0,0:0:0:0:
448,192,32418,1,0,0:0:0:0:
192,192,32591,1,0,0:0:0:0:
320,192,32634,1,0,0:0:0:0:
192,192,32677,1,0,0:0:0:0:
320,192,32720,1,0,0:0:0:0:
64,192,32763,1,0,0:0:0:0:
192,192,32763,1,0,0:0:0:0:
448,192,32763,1,0,0:0:0:0:
192,192,32936,1,0,0:0:0:0:
448,0,32936,128,0,33108:1:0:0:0:
64,192,33108,1,0,0:0:0:0:
192,192,33108,1,0,0:0:0:0:
320,192,33108,1,0,0:0:0:0:
320,192,33280,1,0,0:0:0:0:
448,192,33280,1,0,0:0:0:0:
64,192,33453,1,0,0:0:0:0:
192,192,33453,1,0,0:0:0:0:
448,192,33453,1,0,0:0:0:0:
320,192,33625,1,0,0:0:0:0:
448,192,33625,1,0,0:0:0:0:
64,192,33798,1,0,0:0:0:0:
192,192,33798,1,0,0:0:0:0:
448,192,33798,1,0,0:0:0:0:
192,192,33970,1,0,0:0:0:0:
320,192,33970,1,0,0:0:0:0:
64,192,34142,1,0,0:0:0:0:
192,192,34142,1,0,0:0:0:0:
320,192,34142,1,0,0:0:0:0:
448,192,34142,1,0,0:0:0:0:
192,192,34315,1,0,0:0:0:0:
448,192,34315,1,0,0:0:0:0:
64,192,34487,1,0,0:0:0:0:
192,192,34487,1,0,0:0:0:0:
320,192,34487,1,0,0:0:0:0:
192,192,34660,1,0,0:0:0:0:
448,192,34660,1,0,0:0:0:0:
64,192,34832,1,0,0:0:0:0:
320,192,34832,1,0,0:0:0:0:
448,192,34832,1,0,0:0:0:0:
192,192,35005,1,0,0:0:0:0:
320,192,35005,1,0,0:0:0:0:
64,192,35177,1,0,0:0:0:0:
192,192,35177,1,0,0:0:0:0:
448,192,35177,1,0,0:0:0:0:
64,192,35349,1,0,0:0:0:0:
192,192,35349,1,0,0:0:0:0:
64,192,35522,1,0,0:0:0:0:
192,192,35522,1,0,0:0:0:0:
320,192,35522,1,0,0:0:0:0:
448,192,35522,1,0,0:0:0:0:
64,192,35867,1,0,0:0:0:0:
192,192,35867,1,0,0:0:0:0:
448,192,35867,1,0,0:0:0:0:
320,192,36039,1,0,0:0:0:0:
448,192,36039,1,0,0:0:0:0:
64,192,36211,1,0,0:0:0:0:
192,192,36211,1,0,0:0:0:0:
320,192,36211,1,0,0:0:0:0:
192,192,36384,1,0,0:0:0:0:
448,192,36384,1,0,0:0:0:0:
64,192,36556,1,0,0:0:0:0:
320,192,36556,1,0,0:0:0:0:
448,192,36556,1,0,0:0:0:0:
192,192,36729,1,0,0:0:0:0:
320,192,36729,1,0,0:0:0:0:
64,192,36901,1,0,0:0:0:0:
192,192,36901,1,0,0:0:0:0:
320,192,36901,1,0,0:0:0:0:
448,192,36901,1,0,0:0:0:0:
64,192,37073,1,0,0:0:0:0:
192,192,37073,1,0,0:0:0:0:
64,192,37246,1,0,0:0:0:0:
192,192,37246,1,0,0:0:0:0:
448,192,37246,1,0,0:0:0:0:
192,192,37418,1,0,0:0:0:0:
448,192,37418,1,0,0:0:0:0:
64,192,37591,1,0,0:0:0:0:
320,192,37591,1,0,0:0:0:0:
448,192,37591,1,0,0:0:0:0:
192,192,37763,1,0,0:0:0:0:
320,192,37763,1,0,0:0:0:0:
64,192,37849,1,0,0:0:0:0:
448,192,37849,1,0,0:0:0:0:
192,192,37936,1,0,0:0:0:0:
320,192,37936,1,0,0:0:0:0:
320,192,38108,1,0,0:0:0:0:
448,192,38108,1,0,0:0:0:0:
64,192,38280,1,0,0:0:0:0:
192,192,38280,1,0,0:0:0:0:
320,192,38280,1,0,0:0:0:0:
448,192,38280,1,0,0:0:0:0:
192,192,38453,1,0,0:0:0:0:
320,192,38453,1,0,0:0:0:0:
192,192,38625,1,0,0:0:0:0:
320,192,38625,1,0,0:0:0:0:
448,192,38625,1,0,0:0:0:0:
64,192,38798,1,0,0:0:0:0:
448,192,38798,1,0,0:0:0:0:
64,192,38970,1,0,0:0:0:0:
192,192,38970,1,0,0:0:0:0:
320,192,38970,1,0,0:0:0:0:
192,192,39142,1,0,0:0:0:0:
320,192,39142,1,0,0:0:0:0:
64,192,39315,1,0,0:0:0:0:
192,192,39315,1,0,0:0:0:0:
448,192,39315,1,0,0:0:0:0:
320,192,39487,1,0,0:0:0:0:
448,192,39487,1,0,0:0:0:0:
64,192,39660,1,0,0:0:0:0:
192,192,39660,1,0,0:0:0:0:
320,192,39660,1,0,0:0:0:0:
448,192,39660,1,0,0:0:0:0:
64,192,39832,1,0,0:0:0:0:
192,192,39832,1,0,0:0:0:0:
64,192,40005,1,0,0:0:0:0:
192,192,40005,1,0,0:0:0:0:
448,192,40005,1,0,0:0:0:0:
320,192,40177,1,0,0:0:0:0:
448,192,40177,1,0,0:0:0:0:
64,192,40349,1,0,0:0:0:0:
192,192,40349,1,0,0:0:0:0:
448,192,40349,1,0,0:0:0:0:
64,192,40522,1,0,0:0:0:0:
320,192,40522,1,0,0:0:0:0:
64,192,40694,1,0,0:0:0:0:
192,192,40694,1,0,0:0:0:0:
320,192,40694,1,0,0:0:0:0:
320,192,40867,1,0,0:0:0:0:
448,192,40867,1,0,0:0:0:0:
64,192,41039,1,0,0:0:0:0:
192,192,41039,1,0,0:0:0:0:
320,192,41039,1,0,0:0:0:0:
448,192,41039,1,0,0:0:0:0:
448,192,41211,1,0,0:0:0:0:
320,192,41269,1,0,0:0:0:0:
448,192,41326,1,0,0:0:0:0:
64,192,41384,1,0,0:0:0:0:
192,192,41384,1,0,0:0:0:0:
320,192,41384,1,0,0:0:0:0:
320,192,41556,1,0,0:0:0:0:
448,192,41556,1,0,0:0:0:0:
64,192,41729,1,0,0:0:0:0:
192,192,41729,1,0,0:0:0:0:
448,192,41729,1,0,0:0:0:0:
192,192,41901,1,0,0:0:0:0:
320,192,41901,1,0,0:0:0:0:
64,192,42074,1,0,0:0:0:0:
192,192,42074,1,0,0:0:0:0:
448,192,42074,1,0,0:0:0:0:
192,192,42246,1,0,0:0:0:0:
320,192,42246,1,0,0:0:0:0:
64,192,42418,1,0,0:0:0:0:
192,192,42418,1,0,0:0:0:0:
320,192,42418,1,0,0:0:0:0:
448,192,42418,1,0,0:0:0:0:
320,192,42591,1,0,0:0:0:0:
64,192,42763,1,0,0:0:0:0:
192,192,42763,1,0,0:0:0:0:
448,192,42763,1,0,0:0:0:0:
320,192,42936,1,0,0:0:0:0:
448,192,43108,1,0,0:0:0:0:
64,192,43280,1,0,0:0:0:0:
192,192,43453,1,0,0:0:0:0:
320,192,43625,1,0,0:0:0:0:
64,0,43798,128,0,43884:1:0:0:0:
192,0,43798,128,0,43884:1:0:0:0:
448,0,43798,128,0,43884:1:0:0:0:
64,192,44142,1,0,0:0:0:0:
192,192,44142,1,0,0:0:0:0:
64,192,44315,1,0,0:0:0:0:
192,192,44315,1,0,0:0:0:0:
320,192,44487,1,0,0:0:0:0:
448,192,44660,1,0,0:0:0:0:
64,192,44832,1,0,0:0:0:0:
192,192,45005,1,0,0:0:0:0:
64,192,45177,1,0,0:0:0:0:
192,192,45349,1,0,0:0:0:0:
448,192,45349,1,0,0:0:0:0:
320,192,45522,1,0,0:0:0:0:
192,192,45694,1,0,0:0:0:0:
448,192,45694,1,0,0:0:0:0:
64,192,45867,1,0,0:0:0:0:
192,192,46039,1,0,0:0:0:0:
320,192,46211,1,0,0:0:0:0:
192,192,46384,1,0,0:0:0:0:
64,192,46556,1,0,0:0:0:0:
192,192,46729,1,0,0:0:0:0:
448,192,46729,1,0,0:0:0:0:
64,192,46901,1,0,0:0:0:0:
320,192,46901,1,0,0:0:0:0:
64,192,47074,1,0,0:0:0:0:
320,192,47074,1,0,0:0:0:0:
192,192,47246,1,0,0:0:0:0:
320,192,47418,1,0,0:0:0:0:
448,192,47591,1,0,0:0:0:0:
320,192,47763,1,0,0:0:0:0:
64,192,47936,1,0,0:0:0:0:
192,192,47936,1,0,0:0:0:0:
320,192,48108,1,0,0:0:0:0:
448,192,48108,1,0,0:0:0:0:
64,192,48280,1,0,0:0:0:0:
320,192,48453,1,0,0:0:0:0:
448,192,48453,1,0,0:0:0:0:
320,192,48625,1,0,0:0:0:0:
448,192,48625,1,0,0:0:0:0:
320,192,48798,1,0,0:0:0:0:
448,192,48798,1,0,0:0:0:0:
64,192,48970,1,0,0:0:0:0:
320,192,49142,1,0,0:0:0:0:
448,192,49142,1,0,0:0:0:0:
192,192,49315,1,0,0:0:0:0:
320,192,49487,1,0,0:0:0:0:
448,192,49487,1,0,0:0:0:0:
64,192,49660,1,0,0:0:0:0:
192,192,49660,1,0,0:0:0:0:
64,192,49832,1,0,0:0:0:0:
192,192,49832,1,0,0:0:0:0:
448,192,50005,1,0,0:0:0:0:
320,192,50177,1,0,0:0:0:0:
192,192,50349,1,0,0:0:0:0:
64,192,50522,1,0,0:0:0:0:
320,192,50694,1,0,0:0:0:0:
192,192,50867,1,0,0:0:0:0:
448,192,50867,1,0,0:0:0:0:
64,192,51039,1,0,0:0:0:0:
192,192,51211,1,0,0:0:0:0:
448,192,51211,1,0,0:0:0:0:
320,192,51384,1,0,0:0:0:0:
192,192,51556,1,0,0:0:0:0:
64,192,51729,1,0,0:0:0:0:
192,192,51901,1,0,0:0:0:0:
320,192,52074,1,0,0:0:0:0:
192,192,52246,1,0,0:0:0:0:
448,192,52246,1,0,0:0:0:0:
64,192,52418,1,0,0:0:0:0:
320,192,52418,1,0,0:0:0:0:
64,192,52591,1,0,0:0:0:0:
320,192,52591,1,0,0:0:0:0:
192,192,52763,1,0,0:0:0:0:
320,192,52936,1,0,0:0:0:0:
448,192,53108,1,0,0:0:0:0:
192,192,53280,1,0,0:0:0:0:
64,192,53453,1,0,0:0:0:0:
320,192,53453,1,0,0:0:0:0:
192,192,53625,1,0,0:0:0:0:
448,192,53625,1,0,0:0:0:0:
64,192,53798,1,0,0:0:0:0:
192,192,53970,1,0,0:0:0:0:
448,192,53970,1,0,0:0:0:0:
64,192,54142,1,0,0:0:0:0:
192,192,54315,1,0,0:0:0:0:
448,192,54315,1,0,0:0:0:0:
320,192,54487,1,0,0:0:0:0:
192,192,54660,1,0,0:0:0:0:
448,192,54660,1,0,0:0:0:0:
192,0,54832,128,0,55005:1:0:0:0:
448,0,54832,128,0,55005:1:0:0:0:
64,192,55177,1,0,0:0:0:0:
192,192,55177,1,0,0:0:0:0:
64,192,55349,1,0,0:0:0:0:
192,192,55349,1,0,0:0:0:0:
320,192,55522,1,0,0:0:0:0:
448,192,55694,1,0,0:0:0:0:
320,192,55867,1,0,0:0:0:0:
448,192,56039,1,0,0:0:0:0:
320,192,56211,1,0,0:0:0:0:
320,192,56384,1,0,0:0:0:0:
448,192,56384,1,0,0:0:0:0:
64,192,56556,1,0,0:0:0:0:
320,192,56729,1,0,0:0:0:0:
448,192,56729,1,0,0:0:0:0:
64,192,56901,1,0,0:0:0:0:
192,192,57074,1,0,0:0:0:0:
448,192,57246,1,0,0:0:0:0:
320,192,57418,1,0,0:0:0:0:
448,192,57591,1,0,0:0:0:0:
192,192,57763,1,0,0:0:0:0:
448,192,57763,1,0,0:0:0:0:
64,192,57936,1,0,0:0:0:0:
320,192,57936,1,0,0:0:0:0:
64,192,58108,1,0,0:0:0:0:
320,192,58108,1,0,0:0:0:0:
192,192,58280,1,0,0:0:0:0:
64,192,58453,1,0,0:0:0:0:
192,192,58625,1,0,0:0:0:0:
448,192,58798,1,0,0:0:0:0:
192,192,58970,1,0,0:0:0:0:
320,192,58970,1,0,0:0:0:0:
64,192,59143,1,0,0:0:0:0:
448,192,59143,1,0,0:0:0:0:
192,192,59315,1,0,0:0:0:0:
64,192,59487,1,0,0:0:0:0:
448,192,59487,1,0,0:0:0:0:
64,192,59660,1,0,0:0:0:0:
448,192,59660,1,0,0:0:0:0:
64,192,59832,1,0,0:0:0:0:
448,192,59832,1,0,0:0:0:0:
320,192,60005,1,0,0:0:0:0:
64,192,60177,1,0,0:0:0:0:
448,192,60177,1,0,0:0:0:0:
320,192,60349,1,0,0:0:0:0:
320,192,60522,1,0,0:0:0:0:
448,192,60522,1,0,0:0:0:0:
64,192,60694,1,0,0:0:0:0:
192,192,60694,1,0,0:0:0:0:
64,192,60867,1,0,0:0:0:0:
192,192,60867,1,0,0:0:0:0:
192,192,61039,1,0,0:0:0:0:
64,192,61211,1,0,0:0:0:0:
448,192,61384,1,0,0:0:0:0:
320,192,61556,1,0,0:0:0:0:
448,192,61729,1,0,0:0:0:0:
192,192,61901,1,0,0:0:0:0:
448,192,61901,1,0,0:0:0:0:
64,192,62074,1,0,0:0:0:0:
192,192,62246,1,0,0:0:0:0:
448,192,62246,1,0,0:0:0:0:
64,192,62418,1,0,0:0:0:0:
448,192,62591,1,0,0:0:0:0:
320,192,62763,1,0,0:0:0:0:
448,192,62936,1,0,0:0:0:0:
320,192,63108,1,0,0:0:0:0:
64,192,63280,1,0,0:0:0:0:
320,192,63280,1,0,0:0:0:0:
192,192,63453,1,0,0:0:0:0:
448,192,63453,1,0,0:0:0:0:
192,192,63625,1,0,0:0:0:0:
448,192,63625,1,0,0:0:0:0:
64,192,63798,1,0,0:0:0:0:
448,192,63970,1,0,0:0:0:0:
320,192,64143,1,0,0:0:0:0:
448,192,64315,1,0,0:0:0:0:
320,192,64487,1,0,0:0:0:0:
448,192,64487,1,0,0:0:0:0:
64,192,64660,1,0,0:0:0:0:
192,192,64660,1,0,0:0:0:0:
320,192,64832,1,0,0:0:0:0:
64,192,65005,1,0,0:0:0:0:
192,192,65005,1,0,0:0:0:0:
192,192,65177,1,0,0:0:0:0:
320,192,65177,1,0,0:0:0:0:
64,192,65349,1,0,0:0:0:0:
448,192,65349,1,0,0:0:0:0:
192,192,65522,1,0,0:0:0:0:
448,192,65522,1,0,0:0:0:0:
320,192,65694,1,0,0:0:0:0:
448,192,65694,1,0,0:0:0:0:
192,192,65867,1,0,0:0:0:0:
448,192,65867,1,0,0:0:0:0:
192,192,66039,1,0,0:0:0:0:
320,192,66039,1,0,0:0:0:0:
64,192,66211,1,0,0:0:0:0:
320,192,66211,1,0,0:0:0:0:
192,0,66211,128,0,66901:1:0:0:0:
64,192,66556,1,0,0:0:0:0:
320,192,66556,1,0,0:0:0:0:
64,192,66901,1,0,0:0:0:0:
320,192,66901,1,0,0:0:0:0:
448,0,66901,128,0,67591:1:0:0:0:
64,192,67246,1,0,0:0:0:0:
192,192,67246,1,0,0:0:0:0:
192,192,67418,1,0,0:0:0:0:
320,192,67418,1,0,0:0:0:0:
192,192,67591,1,0,0:0:0:0:
320,192,67591,1,0,0:0:0:0:
64,0,67591,128,0,68280:1:0:0:0:
192,192,67763,1,0,0:0:0:0:
320,192,67763,1,0,0:0:0:0:
192,192,67936,1,0,0:0:0:0:
448,192,67936,1,0,0:0:0:0:
192,192,68280,1,0,0:0:0:0:
448,192,68280,1,0,0:0:0:0:
320,0,68280,128,0,68970:1:0:0:0:
64,192,68625,1,0,0:0:0:0:
192,192,68625,1,0,0:0:0:0:
64,192,68798,1,0,0:0:0:0:
448,192,68798,1,0,0:0:0:0:
192,192,68970,1,0,0:0:0:0:
448,192,68970,1,0,0:0:0:0:
64,0,68970,128,0,69660:1:0:0:0:
192,192,69143,1,0,0:0:0:0:
448,192,69143,1,0,0:0:0:0:
192,192,69315,1,0,0:0:0:0:
320,192,69315,1,0,0:0:0:0:
320,192,69660,1,0,0:0:0:0:
448,192,69660,1,0,0:0:0:0:
192,0,69660,128,0,70349:1:0:0:0:
64,192,70005,1,0,0:0:0:0:
320,192,70005,1,0,0:0:0:0:
320,192,70177,1,0,0:0:0:0:
448,192,70177,1,0,0:0:0:0:
320,192,70349,1,0,0:0:0:0:
448,192,70349,1,0,0:0:0:0:
64,0,70349,128,0,71039:1:0:0:0:
320,192,70522,1,0,0:0:0:0:
448,192,70522,1,0,0:0:0:0:
320,192,70694,1,0,0:0:0:0:
448,192,70694,1,0,0:0:0:0:
320,192,70867,1,0,0:0:0:0:
448,192,70867,1,0,0:0:0:0:
192,192,71039,1,0,0:0:0:0:
448,192,71039,1,0,0:0:0:0:
320,0,71039,128,0,71729:1:0:0:0:
192,192,71211,1,0,0:0:0:0:
448,192,71211,1,0,0:0:0:0:
192,192,71556,1,0,0:0:0:0:
448,192,71556,1,0,0:0:0:0:
64,192,71729,1,0,0:0:0:0:
448,192,71729,1,0,0:0:0:0:
192,0,71729,128,0,72418:1:0:0:0:
64,192,71901,1,0,0:0:0:0:
448,192,71901,1,0,0:0:0:0:
64,192,72074,1,0,0:0:0:0:
320,192,72074,1,0,0:0:0:0:
64,192,72418,1,0,0:0:0:0:
320,192,72418,1,0,0:0:0:0:
448,0,72418,128,0,73108:1:0:0:0:
64,192,72763,1,0,0:0:0:0:
192,192,72763,1,0,0:0:0:0:
192,192,72936,1,0,0:0:0:0:
320,192,72936,1,0,0:0:0:0:
192,192,73108,1,0,0:0:0:0:
320,192,73108,1,0,0:0:0:0:
64,0,73108,128,0,73798:1:0:0:0:
192,192,73280,1,0,0:0:0:0:
320,192,73280,1,0,0:0:0:0:
192,192,73453,1,0,0:0:0:0:
448,192,73453,1,0,0:0:0:0:
192,192,73798,1,0,0:0:0:0:
448,192,73798,1,0,0:0:0:0:
320,0,73798,128,0,74487:1:0:0:0:
64,192,74143,1,0,0:0:0:0:
192,192,74143,1,0,0:0:0:0:
64,192,74315,1,0,0:0:0:0:
448,192,74315,1,0,0:0:0:0:
192,192,74487,1,0,0:0:0:0:
448,192,74487,1,0,0:0:0:0:
64,0,74487,128,0,75177:1:0:0:0:
192,192,74660,1,0,0:0:0:0:
448,192,74660,1,0,0:0:0:0:
192,192,74832,1,0,0:0:0:0:
320,192,74832,1,0,0:0:0:0:
320,192,75177,1,0,0:0:0:0:
448,192,75177,1,0,0:0:0:0:
192,0,75177,128,0,75867:1:0:0:0:
64,192,75522,1,0,0:0:0:0:
448,192,75522,1,0,0:0:0:0:
320,192,75694,1,0,0:0:0:0:
448,192,75694,1,0,0:0:0:0:
320,192,75867,1,0,0:0:0:0:
448,192,75867,1,0,0:0:0:0:
64,0,75867,128,0,76556:1:0:0:0:
192,192,76039,1,0,0:0:0:0:
448,192,76039,1,0,0:0:0:0:
320,192,76211,1,0,0:0:0:0:
448,192,76211,1,0,0:0:0:0:
320,192,76384,1,0,0:0:0:0:
448,192,76384,1,0,0:0:0:0:
192,192,76556,1,0,0:0:0:0:
448,192,76556,1,0,0:0:0:0:
320,0,76556,128,0,77246:1:0:0:0:
192,192,76729,1,0,0:0:0:0:
448,192,76729,1,0,0:0:0:0:
64,192,76901,1,0,0:0:0:0:
192,192,76901,1,0,0:0:0:0:
192,192,77074,1,0,0:0:0:0:
448,192,77074,1,0,0:0:0:0:
64,192,77246,1,0,0:0:0:0:
448,192,77246,1,0,0:0:0:0:
192,0,77246,128,0,77936:1:0:0:0:
64,192,77418,1,0,0:0:0:0:
448,192,77418,1,0,0:0:0:0:
64,192,77591,1,0,0:0:0:0:
320,192,77591,1,0,0:0:0:0:
64,192,77936,1,0,0:0:0:0:
320,192,77936,1,0,0:0:0:0:
448,0,77936,128,0,78625:1:0:0:0:
64,192,78280,1,0,0:0:0:0:
192,192,78280,1,0,0:0:0:0:
192,192,78453,1,0,0:0:0:0:
320,192,78453,1,0,0:0:0:0:
192,192,78625,1,0,0:0:0:0:
320,192,78625,1,0,0:0:0:0:
64,0,78625,128,0,79315:1:0:0:0:
192,192,78798,1,0,0:0:0:0:
320,192,78798,1,0,0:0:0:0:
320,192,78970,1,0,0:0:0:0:
448,192,78970,1,0,0:0:0:0:
192,192,79315,1,0,0:0:0:0:
448,192,79315,1,0,0:0:0:0:
320,0,79315,128,0,80005:1:0:0:0:
64,192,79660,1,0,0:0:0:0:
192,192,79660,1,0,0:0:0:0:
64,192,79832,1,0,0:0:0:0:
448,192,79832,1,0,0:0:0:0:
192,192,80005,1,0,0:0:0:0:
448,192,80005,1,0,0:0:0:0:
64,0,80005,128,0,80694:1:0:0:0:
192,192,80177,1,0,0:0:0:0:
448,192,80177,1,0,0:0:0:0:
192,192,80349,1,0,0:0:0:0:
320,192,80349,1,0,0:0:0:0:
320,192,80694,1,0,0:0:0:0:
448,192,80694,1,0,0:0:0:0:
192,0,80694,128,0,81384:1:0:0:0:
64,192,81039,1,0,0:0:0:0:
320,192,81039,1,0,0:0:0:0:
320,192,81212,1,0,0:0:0:0:
448,192,81212,1,0,0:0:0:0:
320,192,81384,1,0,0:0:0:0:
448,192,81384,1,0,0:0:0:0:
64,0,81384,128,0,82074:1:0:0:0:
192,192,81556,1,0,0:0:0:0:
448,192,81556,1,0,0:0:0:0:
192,192,81729,1,0,0:0:0:0:
448,192,81729,1,0,0:0:0:0:
192,192,81901,1,0,0:0:0:0:
448,192,81901,1,0,0:0:0:0:
192,192,82074,1,0,0:0:0:0:
448,192,82074,1,0,0:0:0:0:
320,0,82074,128,0,82763:1:0:0:0:
192,192,82246,1,0,0:0:0:0:
448,192,82246,1,0,0:0:0:0:
64,192,82418,1,0,0:0:0:0:
192,192,82418,1,0,0:0:0:0:
192,192,82591,1,0,0:0:0:0:
448,192,82591,1,0,0:0:0:0:
64,192,82763,1,0,0:0:0:0:
448,192,82763,1,0,0:0:0:0:
192,0,82763,128,0,83453:1:0:0:0:
64,192,82936,1,0,0:0:0:0:
448,192,82936,1,0,0:0:0:0:
320,192,83108,1,0,0:0:0:0:
448,192,83108,1,0,0:0:0:0:
64,192,83453,1,0,0:0:0:0:
320,192,83453,1,0,0:0:0:0:
448,0,83453,128,0,84143:1:0:0:0:
64,192,83798,1,0,0:0:0:0:
192,192,83798,1,0,0:0:0:0:
192,192,83970,1,0,0:0:0:0:
320,192,83970,1,0,0:0:0:0:
192,192,84143,1,0,0:0:0:0:
320,192,84143,1,0,0:0:0:0:
64,0,84143,128,0,84832:1:0:0:0:
192,192,84315,1,0,0:0:0:0:
320,192,84315,1,0,0:0:0:0:
192,192,84487,1,0,0:0:0:0:
448,192,84487,1,0,0:0:0:0:
192,192,84832,1,0,0:0:0:0:
448,192,84832,1,0,0:0:0:0:
320,0,84832,128,0,85522:1:0:0:0:
64,192,85177,1,0,0:0:0:0:
192,192,85177,1,0,0:0:0:0:
64,192,85349,1,0,0:0:0:0:
448,192,85349,1,0,0:0:0:0:
192,192,85522,1,0,0:0:0:0:
448,192,85522,1,0,0:0:0:0:
64,0,85522,128,0,86212:1:0:0:0:
192,192,85694,1,0,0:0:0:0:
448,192,85694,1,0,0:0:0:0:
192,192,85867,1,0,0:0:0:0:
320,192,85867,1,0,0:0:0:0:
320,192,86212,1,0,0:0:0:0:
448,192,86212,1,0,0:0:0:0:
192,0,86212,128,0,86729:1:0:0:0:
64,192,86556,1,0,0:0:0:0:
320,192,86556,1,0,0:0:0:0:
64,192,86729,1,0,0:0:0:0:
320,192,86729,1,0,0:0:0:0:
320,192,86901,1,0,0:0:0:0:
448,192,86901,1,0,0:0:0:0:
64,0,87074,128,0,87160:1:0:0:0:
192,0,87074,128,0,87160:1:0:0:0:
64,0,87246,128,0,87332:1:0:0:0:
320,0,87246,128,0,87332:1:0:0:0:
192,0,87418,128,0,87505:1:0:0:0:
448,0,87418,128,0,87505:1:0:0:0:
64,192,87591,1,0,0:0:0:0:
320,0,87591,128,0,87677:1:0:0:0:
448,0,87591,128,0,87677:1:0:0:0:
192,0,87763,128,0,87849:1:0:0:0:
448,0,87763,128,0,87849:1:0:0:0:
64,0,87936,128,0,88022:1:0:0:0:
320,0,87936,128,0,88022:1:0:0:0:
192,0,88108,128,0,88194:1:0:0:0:
320,0,88108,128,0,88194:1:0:0:0:
64,192,88280,1,0,0:0:0:0:
320,192,88280,1,0,0:0:0:0:
448,192,88280,1,0,0:0:0:0:
64,192,88453,1,0,0:0:0:0:
192,192,88453,1,0,0:0:0:0:
64,192,88625,1,0,0:0:0:0:
320,192,88625,1,0,0:0:0:0:
448,192,88625,1,0,0:0:0:0:
64,192,88798,1,0,0:0:0:0:
192,192,88798,1,0,0:0:0:0:
64,192,88970,1,0,0:0:0:0:
192,192,88970,1,0,0:0:0:0:
448,192,88970,1,0,0:0:0:0:
320,192,89142,1,0,0:0:0:0:
448,192,89142,1,0,0:0:0:0:
64,192,89315,1,0,0:0:0:0:
192,192,89315,1,0,0:0:0:0:
448,192,89315,1,0,0:0:0:0:
192,192,89487,1,0,0:0:0:0:
320,192,89487,1,0,0:0:0:0:
448,192,89487,1,0,0:0:0:0:
192,192,89660,1,0,0:0:0:0:
320,192,89660,1,0,0:0:0:0:
448,192,89660,1,0,0:0:0:0:
64,192,89832,1,0,0:0:0:0:
320,192,89832,1,0,0:0:0:0:
192,192,90005,1,0,0:0:0:0:
320,192,90005,1,0,0:0:0:0:
448,192,90005,1,0,0:0:0:0:
64,192,90177,1,0,0:0:0:0:
320,192,90177,1,0,0:0:0:0:
64,192,90349,1,0,0:0:0:0:
192,192,90349,1,0,0:0:0:0:
320,192,90349,1,0,0:0:0:0:
192,192,90522,1,0,0:0:0:0:
448,192,90522,1,0,0:0:0:0:
64,192,90694,1,0,0:0:0:0:
192,192,90694,1,0,0:0:0:0:
320,192,90694,1,0,0:0:0:0:
192,192,90867,1,0,0:0:0:0:
448,192,90867,1,0,0:0:0:0:
192,192,91039,1,0,0:0:0:0:
320,192,91039,1,0,0:0:0:0:
448,192,91039,1,0,0:0:0:0:
64,192,91211,1,0,0:0:0:0:
192,192,91211,1,0,0:0:0:0:
192,192,91384,1,0,0:0:0:0:
320,192,91384,1,0,0:0:0:0:
448,192,91384,1,0,0:0:0:0:
64,192,91556,1,0,0:0:0:0:
192,192,91556,1,0,0:0:0:0:
64,192,91729,1,0,0:0:0:0:
192,192,91729,1,0,0:0:0:0:
448,192,91729,1,0,0:0:0:0:
320,192,91901,1,0,0:0:0:0:
448,192,91901,1,0,0:0:0:0:
64,192,92074,1,0,0:0:0:0:
192,192,92074,1,0,0:0:0:0:
448,192,92074,1,0,0:0:0:0:
320,192,92246,1,0,0:0:0:0:
448,192,92246,1,0,0:0:0:0:
64,192,92418,1,0,0:0:0:0:
192,192,92418,1,0,0:0:0:0:
448,192,92418,1,0,0:0:0:0:
64,192,92591,1,0,0:0:0:0:
320,192,92591,1,0,0:0:0:0:
64,192,92763,1,0,0:0:0:0:
192,192,92763,1,0,0:0:0:0:
448,192,92763,1,0,0:0:0:0:
64,192,92936,1,0,0:0:0:0:
320,192,92936,1,0,0:0:0:0:
64,192,93108,1,0,0:0:0:0:
320,192,93108,1,0,0:0:0:0:
448,192,93108,1,0,0:0:0:0:
192,192,93280,1,0,0:0:0:0:
448,192,93280,1,0,0:0:0:0:
64,192,93453,1,0,0:0:0:0:
320,192,93453,1,0,0:0:0:0:
448,192,93453,1,0,0:0:0:0:
192,192,93625,1,0,0:0:0:0:
448,192,93625,1,0,0:0:0:0:
64,192,93798,1,0,0:0:0:0:
192,192,93798,1,0,0:0:0:0:
320,192,93798,1,0,0:0:0:0:
64,192,93970,1,0,0:0:0:0:
192,192,93970,1,0,0:0:0:0:
64,192,94142,1,0,0:0:0:0:
192,192,94142,1,0,0:0:0:0:
320,192,94142,1,0,0:0:0:0:
64,192,94315,1,0,0:0:0:0:
192,192,94315,1,0,0:0:0:0:
192,192,94487,1,0,0:0:0:0:
320,192,94487,1,0,0:0:0:0:
448,192,94487,1,0,0:0:0:0:
320,192,94660,1,0,0:0:0:0:
448,192,94660,1,0,0:0:0:0:
192,192,94832,1,0,0:0:0:0:
320,192,94832,1,0,0:0:0:0:
448,192,94832,1,0,0:0:0:0:
320,192,95005,1,0,0:0:0:0:
448,192,95005,1,0,0:0:0:0:
64,192,95177,1,0,0:0:0:0:
192,192,95177,1,0,0:0:0:0:
448,192,95177,1,0,0:0:0:0:
64,192,95349,1,0,0:0:0:0:
192,192,95349,1,0,0:0:0:0:
320,192,95349,1,0,0:0:0:0:
64,192,95522,1,0,0:0:0:0:
192,192,95522,1,0,0:0:0:0:
448,192,95522,1,0,0:0:0:0:
192,192,95694,1,0,0:0:0:0:
320,192,95694,1,0,0:0:0:0:
448,192,95694,1,0,0:0:0:0:
64,192,95867,1,0,0:0:0:0:
320,192,95867,1,0,0:0:0:0:
448,192,95867,1,0,0:0:0:0:
192,192,96039,1,0,0:0:0:0:
448,192,96039,1,0,0:0:0:0:
64,192,96211,1,0,0:0:0:0:
320,192,96211,1,0,0:0:0:0:
448,192,96211,1,0,0:0:0:0:
192,192,96384,1,0,0:0:0:0:
448,192,96384,1,0,0:0:0:0:
64,192,96556,1,0,0:0:0:0:
192,192,96556,1,0,0:0:0:0:
320,192,96556,1,0,0:0:0:0:
64,192,96729,1,0,0:0:0:0:
192,192,96729,1,0,0:0:0:0:
448,192,96729,1,0,0:0:0:0:
64,192,96901,1,0,0:0:0:0:
192,192,96901,1,0,0:0:0:0:
320,192,96901,1,0,0:0:0:0:
64,192,97074,1,0,0:0:0:0:
320,192,97074,1,0,0:0:0:0:
448,192,97074,1,0,0:0:0:0:
192,192,97246,1,0,0:0:0:0:
320,192,97246,1,0,0:0:0:0:
448,192,97246,1,0,0:0:0:0:
64,192,97418,1,0,0:0:0:0:
320,192,97418,1,0,0:0:0:0:
192,192,97591,1,0,0:0:0:0:
320,192,97591,1,0,0:0:0:0:
448,192,97591,1,0,0:0:0:0:
64,192,97763,1,0,0:0:0:0:
320,192,97763,1,0,0:0:0:0:
64,192,97936,1,0,0:0:0:0:
192,192,97936,1,0,0:0:0:0:
320,192,97936,1,0,0:0:0:0:
64,192,98108,1,0,0:0:0:0:
320,192,98108,1,0,0:0:0:0:
448,192,98108,1,0,0:0:0:0:
64,192,98280,1,0,0:0:0:0:
192,192,98280,1,0,0:0:0:0:
320,192,98280,1,0,0:0:0:0:
192,192,98453,1,0,0:0:0:0:
320,192,98453,1,0,0:0:0:0:
448,192,98453,1,0,0:0:0:0:
64,192,98625,1,0,0:0:0:0:
192,192,98711,1,0,0:0:0:0:
320,192,98711,1,0,0:0:0:0:
448,192,98711,1,0,0:0:0:0:
64,192,98798,1,0,0:0:0:0:
64,192,98970,1,0,0:0:0:0:
192,192,98970,1,0,0:0:0:0:
320,192,98970,1,0,0:0:0:0:
448,192,98970,1,0,0:0:0:0:
320,192,99142,1,0,0:0:0:0:
448,192,99142,1,0,0:0:0:0:
64,192,99315,1,0,0:0:0:0:
320,192,99315,1,0,0:0:0:0:
448,192,99315,1,0,0:0:0:0:
64,192,99487,1,0,0:0:0:0:
192,192,99487,1,0,0:0:0:0:
192,192,99660,1,0,0:0:0:0:
320,192,99660,1,0,0:0:0:0:
448,192,99660,1,0,0:0:0:0:
64,192,99832,1,0,0:0:0:0:
192,192,99832,1,0,0:0:0:0:
64,192,100004,1,0,0:0:0:0:
192,192,100004,1,0,0:0:0:0:
448,192,100004,1,0,0:0:0:0:
64,192,100177,1,0,0:0:0:0:
192,192,100177,1,0,0:0:0:0:
64,192,100349,1,0,0:0:0:0:
192,192,100349,1,0,0:0:0:0:
320,192,100349,1,0,0:0:0:0:
448,192,100349,1,0,0:0:0:0:
64,192,100694,1,0,0:0:0:0:
320,192,100694,1,0,0:0:0:0:
448,192,100694,1,0,0:0:0:0:
64,192,100867,1,0,0:0:0:0:
192,192,100867,1,0,0:0:0:0:
64,192,101039,1,0,0:0:0:0:
192,192,101039,1,0,0:0:0:0:
448,192,101039,1,0,0:0:0:0:
64,192,101211,1,0,0:0:0:0:
192,192,101211,1,0,0:0:0:0:
192,192,101384,1,0,0:0:0:0:
320,192,101384,1,0,0:0:0:0:
448,192,101384,1,0,0:0:0:0:
64,192,101556,1,0,0:0:0:0:
64,192,101729,1,0,0:0:0:0:
192,192,101729,1,0,0:0:0:0:
320,192,101729,1,0,0:0:0:0:
448,192,101729,1,0,0:0:0:0:
64,192,101901,1,0,0:0:0:0:
192,192,101901,1,0,0:0:0:0:
192,192,102073,1,0,0:0:0:0:
320,192,102073,1,0,0:0:0:0:
448,192,102073,1,0,0:0:0:0:
64,192,102246,1,0,0:0:0:0:
192,192,102246,1,0,0:0:0:0:
64,192,102418,1,0,0:0:0:0:
320,192,102418,1,0,0:0:0:0:
448,192,102418,1,0,0:0:0:0:
64,192,102591,1,0,0:0:0:0:
192,192,102591,1,0,0:0:0:0:
64,192,102763,1,0,0:0:0:0:
192,192,102763,1,0,0:0:0:0:
448,192,102763,1,0,0:0:0:0:
64,192,102935,1,0,0:0:0:0:
192,192,102935,1,0,0:0:0:0:
64,192,103108,1,0,0:0:0:0:
192,192,103108,1,0,0:0:0:0:
320,192,103108,1,0,0:0:0:0:
448,192,103108,1,0,0:0:0:0:
64,192,103453,1,0,0:0:0:0:
320,192,103453,1,0,0:0:0:0:
448,192,103453,1,0,0:0:0:0:
64,192,103625,1,0,0:0:0:0:
192,192,103625,1,0,0:0:0:0:
192,192,103797,1,0,0:0:0:0:
320,192,103797,1,0,0:0:0:0:
448,192,103797,1,0,0:0:0:0:
192,192,103970,1,0,0:0:0:0:
64,192,104142,1,0,0:0:0:0:
320,192,104142,1,0,0:0:0:0:
448,192,104142,1,0,0:0:0:0:
64,192,104315,1,0,0:0:0:0:
192,192,104315,1,0,0:0:0:0:
64,192,104487,1,0,0:0:0:0:
192,192,104487,1,0,0:0:0:0:
320,192,104487,1,0,0:0:0:0:
448,192,104487,1,0,0:0:0:0:
192,192,104660,1,0,0:0:0:0:
192,192,104832,1,0,0:0:0:0:
320,192,104832,1,0,0:0:0:0:
448,192,104832,1,0,0:0:0:0:
64,192,105004,1,0,0:0:0:0:
192,192,105004,1,0,0:0:0:0:
64,192,105177,1,0,0:0:0:0:
320,192,105177,1,0,0:0:0:0:
448,192,105177,1,0,0:0:0:0:
64,192,105349,1,0,0:0:0:0:
192,192,105349,1,0,0:0:0:0:
64,192,105522,1,0,0:0:0:0:
192,192,105522,1,0,0:0:0:0:
448,192,105522,1,0,0:0:0:0:
64,192,105694,1,0,0:0:0:0:
192,192,105694,1,0,0:0:0:0:
64,192,105866,1,0,0:0:0:0:
320,192,105866,1,0,0:0:0:0:
448,192,105866,1,0,0:0:0:0:
64,192,106039,1,0,0:0:0:0:
192,192,106039,1,0,0:0:0:0:
64,192,106211,1,0,0:0:0:0:
192,192,106211,1,0,0:0:0:0:
448,192,106211,1,0,0:0:0:0:
64,192,106384,1,0,0:0:0:0:
320,192,106384,1,0,0:0:0:0:
64,192,106556,1,0,0:0:0:0:
192,192,106556,1,0,0:0:0:0:
320,192,106556,1,0,0:0:0:0:
64,192,106729,1,0,0:0:0:0:
320,192,106729,1,0,0:0:0:0:
64,192,106901,1,0,0:0:0:0:
192,192,106901,1,0,0:0:0:0:
448,192,106901,1,0,0:0:0:0:
192,192,107073,1,0,0:0:0:0:
320,192,107073,1,0,0:0:0:0:
64,192,107246,1,0,0:0:0:0:
320,192,107246,1,0,0:0:0:0:
448,192,107246,1,0,0:0:0:0:
192,192,107418,1,0,0:0:0:0:
320,192,107418,1,0,0:0:0:0:
192,192,107591,1,0,0:0:0:0:
320,192,107591,1,0,0:0:0:0:
448,192,107591,1,0,0:0:0:0:
192,192,107763,1,0,0:0:0:0:
448,192,107763,1,0,0:0:0:0:
64,192,107935,1,0,0:0:0:0:
320,192,107935,1,0,0:0:0:0:
448,192,107935,1,0,0:0:0:0:
192,192,108108,1,0,0:0:0:0:
448,192,108108,1,0,0:0:0:0:
64,192,108280,1,0,0:0:0:0:
192,192,108280,1,0,0:0:0:0:
448,192,108280,1,0,0:0:0:0:
320,192,108453,1,0,0:0:0:0:
448,192,108453,1,0,0:0:0:0:
64,192,108625,1,0,0:0:0:0:
320,192,108625,1,0,0:0:0:0:
448,192,108625,1,0,0:0:0:0:
320,192,108798,1,0,0:0:0:0:
448,192,108798,1,0,0:0:0:0:
64,192,108977,1,0,0:0:0:0:
64,192,109322,1,0,0:0:0:0:
320,192,109660,1,0,0:0:0:0:
448,192,109660,1,0,0:0:0:0:
192,192,109832,1,0,0:0:0:0:
64,192,110005,1,0,0:0:0:0:
320,192,110005,1,0,0:0:0:0:
448,192,110005,1,0,0:0:0:0:
192,192,110177,1,0,0:0:0:0:
64,192,110350,1,0,0:0:0:0:
192,192,110350,1,0,0:0:0:0:
320,192,110350,1,0,0:0:0:0:
448,192,110350,1,0,0:0:0:0:
64,192,110522,1,0,0:0:0:0:
192,192,110522,1,0,0:0:0:0:
320,192,110522,1,0,0:0:0:0:
64,192,110695,1,0,0:0:0:0:
192,192,110695,1,0,0:0:0:0:
320,192,110695,1,0,0:0:0:0:
448,192,110695,1,0,0:0:0:0:
192,192,110867,1,0,0:0:0:0:
320,192,110867,1,0,0:0:0:0:
448,192,110867,1,0,0:0:0:0:
64,192,111040,1,0,0:0:0:0:
192,192,111040,1,0,0:0:0:0:
320,192,111040,1,0,0:0:0:0:
448,192,111040,1,0,0:0:0:0:
192,192,111212,1,0,0:0:0:0:
320,192,111212,1,0,0:0:0:0:
64,192,111384,1,0,0:0:0:0:
192,192,111384,1,0,0:0:0:0:
320,192,111384,1,0,0:0:0:0:
448,192,111384,1,0,0:0:0:0:
64,192,111729,1,0,0:0:0:0:
192,192,111729,1,0,0:0:0:0:
320,192,111729,1,0,0:0:0:0:
448,192,111729,1,0,0:0:0:0:
64,192,111902,1,0,0:0:0:0:
320,192,111902,1,0,0:0:0:0:
448,192,111902,1,0,0:0:0:0:
64,192,112074,1,0,0:0:0:0:
192,192,112074,1,0,0:0:0:0:
320,192,112074,1,0,0:0:0:0:
448,192,112074,1,0,0:0:0:0:
64,192,112246,1,0,0:0:0:0:
192,192,112246,1,0,0:0:0:0:
448,192,112246,1,0,0:0:0:0:
64,192,112419,1,0,0:0:0:0:
192,192,112419,1,0,0:0:0:0:
320,192,112419,1,0,0:0:0:0:
448,192,112419,1,0,0:0:0:0:
320,192,112591,1,0,0:0:0:0:
448,192,112591,1,0,0:0:0:0:
64,192,112764,1,0,0:0:0:0:
192,192,112764,1,0,0:0:0:0:
320,192,112764,1,0,0:0:0:0:
448,192,112764,1,0,0:0:0:0:
64,192,113109,1,0,0:0:0:0:
192,192,113109,1,0,0:0:0:0:
320,192,113109,1,0,0:0:0:0:
448,192,113109,1,0,0:0:0:0:
64,192,113281,1,0,0:0:0:0:
192,192,113281,1,0,0:0:0:0:
320,192,113281,1,0,0:0:0:0:
64,192,113453,1,0,0:0:0:0:
192,192,113453,1,0,0:0:0:0:
320,192,113453,1,0,0:0:0:0:
448,192,113453,1,0,0:0:0:0:
192,192,113626,1,0,0:0:0:0:
320,192,113626,1,0,0:0:0:0:
448,192,113626,1,0,0:0:0:0:
64,192,113798,1,0,0:0:0:0:
192,192,113798,1,0,0:0:0:0:
320,192,113798,1,0,0:0:0:0:
448,192,113798,1,0,0:0:0:0:
64,192,113971,1,0,0:0:0:0:
192,192,113971,1,0,0:0:0:0:
64,192,114143,1,0,0:0:0:0:
192,192,114143,1,0,0:0:0:0:
320,192,114143,1,0,0:0:0:0:
448,192,114143,1,0,0:0:0:0:
64,192,114488,1,0,0:0:0:0:
192,192,114488,1,0,0:0:0:0:
320,192,114488,1,0,0:0:0:0:
448,192,114488,1,0,0:0:0:0:
64,192,114660,1,0,0:0:0:0:
320,192,114660,1,0,0:0:0:0:
448,192,114660,1,0,0:0:0:0:
64,192,114833,1,0,0:0:0:0:
192,192,114833,1,0,0:0:0:0:
320,192,114833,1,0,0:0:0:0:
448,192,114833,1,0,0:0:0:0:
64,192,115005,1,0,0:0:0:0:
192,192,115005,1,0,0:0:0:0:
448,192,115005,1,0,0:0:0:0:
64,192,115177,1,0,0:0:0:0:
192,192,115177,1,0,0:0:0:0:
320,192,115177,1,0,0:0:0:0:
448,192,115177,1,0,0:0:0:0:
448,192,115264,1,0,0:0:0:0:
320,192,115350,1,0,0:0:0:0:
64,192,115522,1,0,0:0:0:0:
192,192,115522,1,0,0:0:0:0:
320,192,115522,1,0,0:0:0:0:
448,192,115522,1,0,0:0:0:0:
64,192,115867,1,0,0:0:0:0:
192,192,115867,1,0,0:0:0:0:
320,192,115867,1,0,0:0:0:0:
448,192,115867,1,0,0:0:0:0:
64,192,116040,1,0,0:0:0:0:
192,192,116040,1,0,0:0:0:0:
448,192,116040,1,0,0:0:0:0:
64,192,116212,1,0,0:0:0:0:
192,192,116212,1,0,0:0:0:0:
320,192,116212,1,0,0:0:0:0:
448,192,116212,1,0,0:0:0:0:
192,192,116384,1,0,0:0:0:0:
320,192,116384,1,0,0:0:0:0:
448,192,116384,1,0,0:0:0:0:
64,192,116557,1,0,0:0:0:0:
192,192,116557,1,0,0:0:0:0:
320,192,116557,1,0,0:0:0:0:
448,192,116557,1,0,0:0:0:0:
192,192,116729,1,0,0:0:0:0:
320,192,116729,1,0,0:0:0:0:
64,192,116902,1,0,0:0:0:0:
192,192,116902,1,0,0:0:0:0:
320,192,116902,1,0,0:0:0:0:
448,192,116902,1,0,0:0:0:0:
64,192,117246,1,0,0:0:0:0:
192,192,117246,1,0,0:0:0:0:
320,192,117246,1,0,0:0:0:0:
448,192,117246,1,0,0:0:0:0:
64,192,117419,1,0,0:0:0:0:
192,192,117419,1,0,0:0:0:0:
448,192,117419,1,0,0:0:0:0:
64,192,117591,1,0,0:0:0:0:
192,192,117591,1,0,0:0:0:0:
320,192,117591,1,0,0:0:0:0:
448,192,117591,1,0,0:0:0:0:
192,192,117764,1,0,0:0:0:0:
320,192,117764,1,0,0:0:0:0:
448,192,117764,1,0,0:0:0:0:
64,192,117936,1,0,0:0:0:0:
192,192,117936,1,0,0:0:0:0:
320,192,117936,1,0,0:0:0:0:
448,192,117936,1,0,0:0:0:0:
64,192,118108,1,0,0:0:0:0:
448,192,118108,1,0,0:0:0:0:
64,192,118281,1,0,0:0:0:0:
192,192,118281,1,0,0:0:0:0:
320,192,118281,1,0,0:0:0:0:
448,192,118281,1,0,0:0:0:0:
64,192,118626,1,0,0:0:0:0:
192,192,118626,1,0,0:0:0:0:
320,192,118626,1,0,0:0:0:0:
448,192,118626,1,0,0:0:0:0:
192,192,118798,1,0,0:0:0:0:
320,192,118798,1,0,0:0:0:0:
448,192,118798,1,0,0:0:0:0:
64,192,118971,1,0,0:0:0:0:
192,192,118971,1,0,0:0:0:0:
320,192,118971,1,0,0:0:0:0:
448,192,118971,1,0,0:0:0:0:
64,192,119143,1,0,0:0:0:0:
192,192,119143,1,0,0:0:0:0:
448,192,119143,1,0,0:0:0:0:
64,192,119315,1,0,0:0:0:0:
192,192,119315,1,0,0:0:0:0:
320,192,119315,1,0,0:0:0:0:
448,192,119315,1,0,0:0:0:0:
64,192,119488,1,0,0:0:0:0:
192,192,119488,1,0,0:0:0:0:
64,192,119660,1,0,0:0:0:0:
192,192,119660,1,0,0:0:0:0:
320,192,119660,1,0,0:0:0:0:
448,192,119660,1,0,0:0:0:0:
64,192,120005,1,0,0:0:0:0:
192,192,120005,1,0,0:0:0:0:
320,192,120005,1,0,0:0:0:0:
448,192,120005,1,0,0:0:0:0:
64,192,120177,1,0,0:0:0:0:
320,192,120177,1,0,0:0:0:0:
448,192,120177,1,0,0:0:0:0:
64,192,120350,1,0,0:0:0:0:
192,192,120350,1,0,0:0:0:0:
320,192,120350,1,0,0:0:0:0:
448,192,120350,1,0,0:0:0:0:
192,192,120522,1,0,0:0:0:0:
320,192,120522,1,0,0:0:0:0:
448,192,120522,1,0,0:0:0:0:
64,192,120695,1,0,0:0:0:0:
192,192,120695,1,0,0:0:0:0:
320,192,120695,1,0,0:0:0:0:
448,192,120695,1,0,0:0:0:0:
192,192,120781,1,0,0:0:0:0:
320,192,120867,1,0,0:0:0:0:
64,192,121039,1,0,0:0:0:0:
192,192,121039,1,0,0:0:0:0:
320,192,121039,1,0,0:0:0:0:
448,192,121039,1,0,0:0:0:0:
64,192,121384,1,0,0:0:0:0:
192,192,121384,1,0,0:0:0:0:
320,192,121384,1,0,0:0:0:0:
448,192,121384,1,0,0:0:0:0:
64,192,121557,1,0,0:0:0:0:
320,192,121557,1,0,0:0:0:0:
448,192,121557,1,0,0:0:0:0:
64,192,121729,1,0,0:0:0:0:
192,192,121729,1,0,0:0:0:0:
320,192,121729,1,0,0:0:0:0:
448,192,121729,1,0,0:0:0:0:
64,192,121902,1,0,0:0:0:0:
192,192,121902,1,0,0:0:0:0:
448,192,121902,1,0,0:0:0:0:
64,192,122074,1,0,0:0:0:0:
192,192,122074,1,0,0:0:0:0:
320,192,122074,1,0,0:0:0:0:
448,192,122074,1,0,0:0:0:0:
320,192,122246,1,0,0:0:0:0:
448,192,122246,1,0,0:0:0:0:
64,192,122419,1,0,0:0:0:0:
192,192,122419,1,0,0:0:0:0:
320,192,122419,1,0,0:0:0:0:
448,192,122419,1,0,0:0:0:0:
64,192,122764,1,0,0:0:0:0:
192,192,122764,1,0,0:0:0:0:
320,192,122764,1,0,0:0:0:0:
448,192,122764,1,0,0:0:0:0:
64,192,122936,1,0,0:0:0:0:
192,192,122936,1,0,0:0:0:0:
448,192,122936,1,0,0:0:0:0:
64,192,123108,1,0,0:0:0:0:
192,192,123108,1,0,0:0:0:0:
320,192,123108,1,0,0:0:0:0:
448,192,123108,1,0,0:0:0:0:
192,192,123281,1,0,0:0:0:0:
320,192,123281,1,0,0:0:0:0:
448,192,123281,1,0,0:0:0:0:
64,192,123453,1,0,0:0:0:0:
192,192,123453,1,0,0:0:0:0:
320,192,123453,1,0,0:0:0:0:
448,192,123453,1,0,0:0:0:0:
64,192,123626,1,0,0:0:0:0:
192,192,123626,1,0,0:0:0:0:
64,192,123798,1,0,0:0:0:0:
192,192,123798,1,0,0:0:0:0:
320,192,123798,1,0,0:0:0:0:
448,192,123798,1,0,0:0:0:0:
64,192,124143,1,0,0:0:0:0:
192,192,124143,1,0,0:0:0:0:
320,192,124143,1,0,0:0:0:0:
448,192,124143,1,0,0:0:0:0:
64,192,124315,1,0,0:0:0:0:
192,192,124315,1,0,0:0:0:0:
448,192,124315,1,0,0:0:0:0:
64,192,124488,1,0,0:0:0:0:
192,192,124488,1,0,0:0:0:0:
320,192,124488,1,0,0:0:0:0:
448,192,124488,1,0,0:0:0:0:
64,192,124660,1,0,0:0:0:0:
320,192,124660,1,0,0:0:0:0:
448,192,124660,1,0,0:0:0:0:
64,192,124833,1,0,0:0:0:0:
192,192,124833,1,0,0:0:0:0:
320,192,124833,1,0,0:0:0:0:
448,192,124833,1,0,0:0:0:0:
320,192,125005,1,0,0:0:0:0:
448,192,125005,1,0,0:0:0:0:
64,192,125177,1,0,0:0:0:0:
192,192,125177,1,0,0:0:0:0:
320,192,125177,1,0,0:0:0:0:
448,192,125177,1,0,0:0:0:0:
64,192,125522,1,0,0:0:0:0:
192,192,125522,1,0,0:0:0:0:
320,192,125522,1,0,0:0:0:0:
448,192,125522,1,0,0:0:0:0:
64,192,125695,1,0,0:0:0:0:
192,192,125695,1,0,0:0:0:0:
448,192,125695,1,0,0:0:0:0:
64,192,125867,1,0,0:0:0:0:
192,192,125867,1,0,0:0:0:0:
320,192,125867,1,0,0:0:0:0:
448,192,125867,1,0,0:0:0:0:
64,192,126039,1,0,0:0:0:0:
192,192,126039,1,0,0:0:0:0:
320,192,126039,1,0,0:0:0:0:
64,192,126212,1,0,0:0:0:0:
192,192,126212,1,0,0:0:0:0:
320,192,126212,1,0,0:0:0:0:
448,192,126212,1,0,0:0:0:0:
192,192,126298,1,0,0:0:0:0:
448,192,126384,1,0,0:0:0:0:
64,192,126557,1,0,0:0:0:0:
192,192,126557,1,0,0:0:0:0:
320,192,126557,1,0,0:0:0:0:
448,192,126557,1,0,0:0:0:0:
64,192,126901,1,0,0:0:0:0:
192,192,126901,1,0,0:0:0:0:
320,192,126901,1,0,0:0:0:0:
448,192,126901,1,0,0:0:0:0:
64,192,127074,1,0,0:0:0:0:
320,192,127074,1,0,0:0:0:0:
448,192,127074,1,0,0:0:0:0:
64,192,127246,1,0,0:0:0:0:
192,192,127246,1,0,0:0:0:0:
320,192,127246,1,0,0:0:0:0:
448,192,127246,1,0,0:0:0:0:
192,192,127419,1,0,0:0:0:0:
320,192,127419,1,0,0:0:0:0:
448,192,127419,1,0,0:0:0:0:
64,192,127591,1,0,0:0:0:0:
192,192,127591,1,0,0:0:0:0:
320,192,127591,1,0,0:0:0:0:
448,192,127591,1,0,0:0:0:0:
64,192,127764,1,0,0:0:0:0:
320,192,127764,1,0,0:0:0:0:
64,192,127936,1,0,0:0:0:0:
192,192,127936,1,0,0:0:0:0:
320,192,127936,1,0,0:0:0:0:
448,192,127936,1,0,0:0:0:0:
64,192,128281,1,0,0:0:0:0:
192,192,128281,1,0,0:0:0:0:
320,192,128281,1,0,0:0:0:0:
448,192,128281,1,0,0:0:0:0:
64,192,128453,1,0,0:0:0:0:
192,192,128453,1,0,0:0:0:0:
320,192,128453,1,0,0:0:0:0:
64,192,128626,1,0,0:0:0:0:
192,192,128626,1,0,0:0:0:0:
320,192,128626,1,0,0:0:0:0:
448,192,128626,1,0,0:0:0:0:
192,192,128798,1,0,0:0:0:0:
320,192,128798,1,0,0:0:0:0:
448,192,128798,1,0,0:0:0:0:
64,192,128970,1,0,0:0:0:0:
192,192,128970,1,0,0:0:0:0:
320,192,128970,1,0,0:0:0:0:
448,192,128970,1,0,0:0:0:0:
64,192,129143,1,0,0:0:0:0:
448,192,129143,1,0,0:0:0:0:
64,192,129315,1,0,0:0:0:0:
192,192,129315,1,0,0:0:0:0:
320,192,129315,1,0,0:0:0:0:
448,192,129315,1,0,0:0:0:0:
64,192,129660,1,0,0:0:0:0:
192,192,129660,1,0,0:0:0:0:
320,192,129660,1,0,0:0:0:0:
448,192,129660,1,0,0:0:0:0:
64,192,129833,1,0,0:0:0:0:
192,192,129833,1,0,0:0:0:0:
320,192,129833,1,0,0:0:0:0:
64,192,130005,1,0,0:0:0:0:
192,192,130005,1,0,0:0:0:0:
320,192,130005,1,0,0:0:0:0:
448,192,130005,1,0,0:0:0:0:
64,192,130177,1,0,0:0:0:0:
192,192,130177,1,0,0:0:0:0:
448,192,130177,1,0,0:0:0:0:
64,192,130350,1,0,0:0:0:0:
192,192,130350,1,0,0:0:0:0:
320,192,130350,1,0,0:0:0:0:
448,192,130350,1,0,0:0:0:0:
64,192,130522,1,0,0:0:0:0:
320,192,130522,1,0,0:0:0:0:
64,192,130695,1,0,0:0:0:0:
192,192,130695,1,0,0:0:0:0:
320,192,130695,1,0,0:0:0:0:
448,192,130695,1,0,0:0:0:0:
64,192,131039,1,0,0:0:0:0:
192,192,131039,1,0,0:0:0:0:
320,192,131039,1,0,0:0:0:0:
448,192,131039,1,0,0:0:0:0:
64,192,131212,1,0,0:0:0:0:
320,192,131212,1,0,0:0:0:0:
448,192,131212,1,0,0:0:0:0:
64,192,131384,1,0,0:0:0:0:
192,192,131384,1,0,0:0:0:0:
320,192,131384,1,0,0:0:0:0:
448,192,131384,1,0,0:0:0:0:
192,192,131557,1,0,0:0:0:0:
320,192,131557,1,0,0:0:0:0:
448,192,131557,1,0,0:0:0:0:
64,192,131729,1,0,0:0:0:0:
192,192,131729,1,0,0:0:0:0:
320,192,131729,1,0,0:0:0:0:
448,192,131729,1,0,0:0:0:0:
320,192,131815,1,0,0:0:0:0:
64,192,131901,1,0,0:0:0:0:
448,192,131901,1,0,0:0:0:0:
64,192,132074,1,0,0:0:0:0:
192,192,132074,1,0,0:0:0:0:
320,192,132074,1,0,0:0:0:0:
448,192,132074,1,0,0:0:0:0:
64,192,132419,1,0,0:0:0:0:
192,192,132419,1,0,0:0:0:0:
320,192,132419,1,0,0:0:0:0:
448,192,132419,1,0,0:0:0:0:
64,192,132591,1,0,0:0:0:0:
192,192,132591,1,0,0:0:0:0:
320,192,132591,1,0,0:0:0:0:
64,192,132763,1,0,0:0:0:0:
192,192,132763,1,0,0:0:0:0:
320,192,132763,1,0,0:0:0:0:
448,192,132763,1,0,0:0:0:0:
64,192,132936,1,0,0:0:0:0:
320,192,132936,1,0,0:0:0:0:
448,192,132936,1,0,0:0:0:0:
192,192,133022,1,0,0:0:0:0:
64,192,133108,1,0,0:0:0:0:
192,192,133108,1,0,0:0:0:0:
320,192,133108,1,0,0:0:0:0:
448,192,133108,1,0,0:0:0:0:
320,192,133281,1,0,0:0:0:0:
448,192,133281,1,0,0:0:0:0:
64,192,133453,1,0,0:0:0:0:
192,192,133453,1,0,0:0:0:0:
320,192,133453,1,0,0:0:0:0:
448,192,133453,1,0,0:0:0:0:
192,192,133626,1,0,0:0:0:0:
64,192,133798,1,0,0:0:0:0:
192,192,133798,1,0,0:0:0:0:
320,192,133798,1,0,0:0:0:0:
448,192,133798,1,0,0:0:0:0:
64,192,133970,1,0,0:0:0:0:
192,192,133970,1,0,0:0:0:0:
448,192,133970,1,0,0:0:0:0:
64,192,134143,1,0,0:0:0:0:
192,192,134143,1,0,0:0:0:0:
320,192,134143,1,0,0:0:0:0:
448,192,134143,1,0,0:0:0:0:
64,192,134315,1,0,0:0:0:0:
320,192,134315,1,0,0:0:0:0:
448,192,134315,1,0,0:0:0:0:
192,192,134401,1,0,0:0:0:0:
64,192,134488,1,0,0:0:0:0:
192,192,134488,1,0,0:0:0:0:
320,192,134488,1,0,0:0:0:0:
448,192,134488,1,0,0:0:0:0:
320,192,134660,1,0,0:0:0:0:
448,192,134660,1,0,0:0:0:0:
64,192,134832,1,0,0:0:0:0:
192,192,134832,1,0,0:0:0:0:
320,192,134832,1,0,0:0:0:0:
448,192,134832,1,0,0:0:0:0:
320,192,135005,1,0,0:0:0:0:
64,192,135177,1,0,0:0:0:0:
192,192,135177,1,0,0:0:0:0:
320,192,135177,1,0,0:0:0:0:
448,192,135177,1,0,0:0:0:0:
64,192,135350,1,0,0:0:0:0:
192,192,135350,1,0,0:0:0:0:
448,192,135350,1,0,0:0:0:0:
64,192,135522,1,0,0:0:0:0:
192,192,135522,1,0,0:0:0:0:
320,192,135522,1,0,0:0:0:0:
448,192,135522,1,0,0:0:0:0:
64,192,135694,1,0,0:0:0:0:
192,192,135694,1,0,0:0:0:0:
320,192,135694,1,0,0:0:0:0:
448,192,135781,1,0,0:0:0:0:
64,192,135867,1,0,0:0:0:0:
192,192,135867,1,0,0:0:0:0:
320,192,135867,1,0,0:0:0:0:
448,192,135867,1,0,0:0:0:0:
192,192,136039,1,0,0:0:0:0:
448,192,136039,1,0,0:0:0:0:
64,192,136212,1,0,0:0:0:0:
192,192,136212,1,0,0:0:0:0:
320,192,136212,1,0,0:0:0:0:
448,192,136212,1,0,0:0:0:0:
448,192,136384,1,0,0:0:0:0:
64,192,136556,1,0,0:0:0:0:
192,192,136556,1,0,0:0:0:0:
320,192,136556,1,0,0:0:0:0:
448,192,136556,1,0,0:0:0:0:
64,192,136729,1,0,0:0:0:0:
192,192,136729,1,0,0:0:0:0:
320,192,136729,1,0,0:0:0:0:
64,192,136901,1,0,0:0:0:0:
192,192,136901,1,0,0:0:0:0:
320,192,136901,1,0,0:0:0:0:
448,192,136901,1,0,0:0:0:0:
64,192,137074,1,0,0:0:0:0:
320,192,137074,1,0,0:0:0:0:
448,192,137074,1,0,0:0:0:0:
192,192,137160,1,0,0:0:0:0:
64,192,137246,1,0,0:0:0:0:
192,192,137246,1,0,0:0:0:0:
320,192,137246,1,0,0:0:0:0:
448,192,137246,1,0,0:0:0:0:
320,192,137332,1,0,0:0:0:0:
192,192,137418,1,0,0:0:0:0:
448,192,137418,1,0,0:0:0:0:
64,192,137591,1,0,0:0:0:0:
192,192,137591,1,0,0:0:0:0:
320,192,137591,1,0,0:0:0:0:
448,192,137591,1,0,0:0:0:0:
64,192,137763,1,0,0:0:0:0:
64,192,137936,1,0,0:0:0:0:
192,192,137936,1,0,0:0:0:0:
320,192,137936,1,0,0:0:0:0:
448,192,137936,1,0,0:0:0:0:
192,192,138108,1,0,0:0:0:0:
320,192,138108,1,0,0:0:0:0:
448,192,138108,1,0,0:0:0:0:
64,192,138280,1,0,0:0:0:0:
192,192,138280,1,0,0:0:0:0:
320,192,138280,1,0,0:0:0:0:
448,192,138280,1,0,0:0:0:0:
64,192,138453,1,0,0:0:0:0:
192,192,138453,1,0,0:0:0:0:
448,192,138453,1,0,0:0:0:0:
320,192,138539,1,0,0:0:0:0:
64,192,138625,1,0,0:0:0:0:
192,192,138625,1,0,0:0:0:0:
320,192,138625,1,0,0:0:0:0:
448,192,138625,1,0,0:0:0:0:
192,192,138798,1,0,0:0:0:0:
448,192,138798,1,0,0:0:0:0:
64,192,138970,1,0,0:0:0:0:
192,192,138970,1,0,0:0:0:0:
320,192,138970,1,0,0:0:0:0:
448,192,138970,1,0,0:0:0:0:
320,192,139143,1,0,0:0:0:0:
64,192,139315,1,0,0:0:0:0:
192,192,139315,1,0,0:0:0:0:
320,192,139315,1,0,0:0:0:0:
448,192,139315,1,0,0:0:0:0:
192,192,139487,1,0,0:0:0:0:
320,192,139487,1,0,0:0:0:0:
448,192,139487,1,0,0:0:0:0:
64,192,139660,1,0,0:0:0:0:
192,192,139660,1,0,0:0:0:0:
320,192,139660,1,0,0:0:0:0:
448,192,139660,1,0,0:0:0:0:
64,192,139832,1,0,0:0:0:0:
192,192,139832,1,0,0:0:0:0:
320,192,139832,1,0,0:0:0:0:
448,192,139918,1,0,0:0:0:0:
64,192,140005,1,0,0:0:0:0:
192,192,140005,1,0,0:0:0:0:
320,192,140005,1,0,0:0:0:0:
448,192,140005,1,0,0:0:0:0:
192,192,140177,1,0,0:0:0:0:
320,192,140177,1,0,0:0:0:0:
64,192,140349,1,0,0:0:0:0:
192,192,140349,1,0,0:0:0:0:
320,192,140349,1,0,0:0:0:0:
448,192,140349,1,0,0:0:0:0:
192,192,140522,1,0,0:0:0:0:
64,192,140694,1,0,0:0:0:0:
192,192,140694,1,0,0:0:0:0:
320,192,140694,1,0,0:0:0:0:
448,192,140694,1,0,0:0:0:0:
192,192,140867,1,0,0:0:0:0:
320,192,140867,1,0,0:0:0:0:
448,192,140867,1,0,0:0:0:0:
64,192,141039,1,0,0:0:0:0:
192,192,141039,1,0,0:0:0:0:
320,192,141039,1,0,0:0:0:0:
448,192,141039,1,0,0:0:0:0:
64,192,141211,1,0,0:0:0:0:
320,192,141211,1,0,0:0:0:0:
448,192,141211,1,0,0:0:0:0:
192,192,141298,1,0,0:0:0:0:
64,192,141384,1,0,0:0:0:0:
192,192,141384,1,0,0:0:0:0:
320,192,141384,1,0,0:0:0:0:
448,192,141384,1,0,0:0:0:0:
320,192,141556,1,0,0:0:0:0:
448,192,141556,1,0,0:0:0:0:
64,192,141729,1,0,0:0:0:0:
192,192,141729,1,0,0:0:0:0:
320,192,141729,1,0,0:0:0:0:
448,192,141729,1,0,0:0:0:0:
448,192,141901,1,0,0:0:0:0:
64,192,142073,1,0,0:0:0:0:
192,192,142073,1,0,0:0:0:0:
320,192,142073,1,0,0:0:0:0:
448,192,142073,1,0,0:0:0:0:
64,192,142246,1,0,0:0:0:0:
192,192,142246,1,0,0:0:0:0:
448,192,142246,1,0,0:0:0:0:
64,192,142418,1,0,0:0:0:0:
192,192,142418,1,0,0:0:0:0:
320,192,142418,1,0,0:0:0:0:
448,192,142418,1,0,0:0:0:0:
64,192,142591,1,0,0:0:0:0:
192,192,142591,1,0,0:0:0:0:
448,192,142677,1,0,0:0:0:0:
64,192,142763,1,0,0:0:0:0:
192,192,142763,1,0,0:0:0:0:
320,192,142763,1,0,0:0:0:0:
448,192,142763,1,0,0:0:0:0:
192,192,142849,1,0,0:0:0:0:
320,192,142935,1,0,0:0:0:0:
448,192,142935,1,0,0:0:0:0:
64,192,143108,1,0,0:0:0:0:
192,192,143108,1,0,0:0:0:0:
320,192,143108,1,0,0:0:0:0:
448,192,143108,1,0,0:0:0:0:
192,192,143280,1,0,0:0:0:0:
64,192,143453,1,0,0:0:0:0:
192,192,143453,1,0,0:0:0:0:
320,192,143453,1,0,0:0:0:0:
448,192,143453,1,0,0:0:0:0:
64,192,143625,1,0,0:0:0:0:
192,192,143625,1,0,0:0:0:0:
448,192,143625,1,0,0:0:0:0:
64,192,143797,1,0,0:0:0:0:
192,192,143797,1,0,0:0:0:0:
320,192,143797,1,0,0:0:0:0:
448,192,143797,1,0,0:0:0:0:
64,192,143970,1,0,0:0:0:0:
192,192,143970,1,0,0:0:0:0:
320,192,143970,1,0,0:0:0:0:
448,192,144056,1,0,0:0:0:0:
64,192,144142,1,0,0:0:0:0:
192,192,144142,1,0,0:0:0:0:
320,192,144142,1,0,0:0:0:0:
448,192,144142,1,0,0:0:0:0:
192,192,144315,1,0,0:0:0:0:
320,192,144315,1,0,0:0:0:0:
64,192,144487,1,0,0:0:0:0:
192,192,144487,1,0,0:0:0:0:
320,192,144487,1,0,0:0:0:0:
448,192,144487,1,0,0:0:0:0:
64,192,144660,1,0,0:0:0:0:
64,192,144832,1,0,0:0:0:0:
192,192,144832,1,0,0:0:0:0:
320,192,144832,1,0,0:0:0:0:
448,192,144832,1,0,0:0:0:0:
192,192,145004,1,0,0:0:0:0:
320,192,145004,1,0,0:0:0:0:
448,192,145004,1,0,0:0:0:0:
64,192,145177,1,0,0:0:0:0:
192,192,145177,1,0,0:0:0:0:
320,192,145177,1,0,0:0:0:0:
448,192,145177,1,0,0:0:0:0:
64,192,145349,1,0,0:0:0:0:
192,192,145349,1,0,0:0:0:0:
448,192,145349,1,0,0:0:0:0:
320,192,145435,1,0,0:0:0:0:
64,192,145522,1,0,0:0:0:0:
192,192,145522,1,0,0:0:0:0:
320,192,145522,1,0,0:0:0:0:
448,192,145522,1,0,0:0:0:0:
64,192,145694,1,0,0:0:0:0:
192,192,145694,1,0,0:0:0:0:
64,192,145866,1,0,0:0:0:0:
192,192,145866,1,0,0:0:0:0:
320,192,145866,1,0,0:0:0:0:
448,192,145866,1,0,0:0:0:0:
320,192,146039,1,0,0:0:0:0:
64,192,146211,1,0,0:0:0:0:
192,192,146211,1,0,0:0:0:0:
320,192,146211,1,0,0:0:0:0:
448,192,146211,1,0,0:0:0:0:
192,192,146384,1,0,0:0:0:0:
320,192,146384,1,0,0:0:0:0:
448,192,146384,1,0,0:0:0:0:
64,192,146556,1,0,0:0:0:0:
192,192,146556,1,0,0:0:0:0:
320,192,146556,1,0,0:0:0:0:
448,192,146556,1,0,0:0:0:0:
64,192,146728,1,0,0:0:0:0:
320,192,146728,1,0,0:0:0:0:
448,192,146728,1,0,0:0:0:0:
192,192,146815,1,0,0:0:0:0:
64,192,146901,1,0,0:0:0:0:
192,192,146901,1,0,0:0:0:0:
320,192,146901,1,0,0:0:0:0:
448,192,146901,1,0,0:0:0:0:
64,192,147073,1,0,0:0:0:0:
320,192,147073,1,0,0:0:0:0:
64,192,147246,1,0,0:0:0:0:
192,192,147246,1,0,0:0:0:0:
320,192,147246,1,0,0:0:0:0:
448,192,147246,1,0,0:0:0:0:
192,192,147418,1,0,0:0:0:0:
64,192,147590,1,0,0:0:0:0:
192,192,147590,1,0,0:0:0:0:
320,192,147590,1,0,0:0:0:0:
448,192,147590,1,0,0:0:0:0:
192,192,147763,1,0,0:0:0:0:
320,192,147763,1,0,0:0:0:0:
448,192,147763,1,0,0:0:0:0:
64,192,147935,1,0,0:0:0:0:
192,192,147935,1,0,0:0:0:0:
320,192,147935,1,0,0:0:0:0:
448,192,147935,1,0,0:0:0:0:
64,192,148108,1,0,0:0:0:0:
192,192,148108,1,0,0:0:0:0:
448,192,148108,1,0,0:0:0:0:
320,192,148194,1,0,0:0:0:0:
64,192,148280,1,0,0:0:0:0:
192,192,148280,1,0,0:0:0:0:
320,192,148280,1,0,0:0:0:0:
448,192,148280,1,0,0:0:0:0:
192,192,148366,1,0,0:0:0:0:
64,192,148452,1,0,0:0:0:0:
448,192,148452,1,0,0:0:0:0:
64,192,148625,1,0,0:0:0:0:
192,192,148625,1,0,0:0:0:0:
320,192,148625,1,0,0:0:0:0:
448,192,148625,1,0,0:0:0:0:
448,192,148797,1,0,0:0:0:0:
64,192,148970,1,0,0:0:0:0:
192,192,148970,1,0,0:0:0:0:
320,192,148970,1,0,0:0:0:0:
448,192,148970,1,0,0:0:0:0:
192,192,149142,1,0,0:0:0:0:
320,192,149142,1,0,0:0:0:0:
448,192,149142,1,0,0:0:0:0:
64,192,149314,1,0,0:0:0:0:
192,192,149314,1,0,0:0:0:0:
320,192,149314,1,0,0:0:0:0:
448,192,149314,1,0,0:0:0:0:
64,192,149487,1,0,0:0:0:0:
192,192,149487,1,0,0:0:0:0:
320,192,149487,1,0,0:0:0:0:
448,192,149573,1,0,0:0:0:0:
64,192,149659,1,0,0:0:0:0:
192,192,149659,1,0,0:0:0:0:
320,192,149659,1,0,0:0:0:0:
448,192,149659,1,0,0:0:0:0:
192,192,149832,1,0,0:0:0:0:
320,192,149832,1,0,0:0:0:0:
64,192,150004,1,0,0:0:0:0:
192,192,150004,1,0,0:0:0:0:
320,192,150004,1,0,0:0:0:0:
448,192,150004,1,0,0:0:0:0:
64,192,150177,1,0,0:0:0:0:
64,192,150349,1,0,0:0:0:0:
192,192,150349,1,0,0:0:0:0:
320,192,150349,1,0,0:0:0:0:
448,192,150349,1,0,0:0:0:0:
64,192,150521,1,0,0:0:0:0:
320,192,150521,1,0,0:0:0:0:
448,192,150521,1,0,0:0:0:0:
64,192,150694,1,0,0:0:0:0:
192,192,150694,1,0,0:0:0:0:
320,192,150694,1,0,0:0:0:0:
448,192,150694,1,0,0:0:0:0:
64,192,150866,1,0,0:0:0:0:
192,192,150866,1,0,0:0:0:0:
320,192,150866,1,0,0:0:0:0:
448,192,150952,1,0,0:0:0:0:
64,192,151039,1,0,0:0:0:0:
192,192,151039,1,0,0:0:0:0:
320,192,151039,1,0,0:0:0:0:
448,192,151039,1,0,0:0:0:0:
192,192,151211,1,0,0:0:0:0:
320,192,151211,1,0,0:0:0:0:
64,192,151383,1,0,0:0:0:0:
192,192,151383,1,0,0:0:0:0:
320,192,151383,1,0,0:0:0:0:
448,192,151383,1,0,0:0:0:0:
320,192,151556,1,0,0:0:0:0:
64,192,151728,1,0,0:0:0:0:
192,192,151728,1,0,0:0:0:0:
320,192,151728,1,0,0:0:0:0:
448,192,151728,1,0,0:0:0:0:
192,192,151901,1,0,0:0:0:0:
320,192,151901,1,0,0:0:0:0:
448,192,151901,1,0,0:0:0:0:
64,192,152073,1,0,0:0:0:0:
192,192,152073,1,0,0:0:0:0:
320,192,152073,1,0,0:0:0:0:
448,192,152073,1,0,0:0:0:0:
64,192,152245,1,0,0:0:0:0:
320,192,152245,1,0,0:0:0:0:
448,192,152245,1,0,0:0:0:0:
192,192,152332,1,0,0:0:0:0:
64,192,152418,1,0,0:0:0:0:
192,192,152418,1,0,0:0:0:0:
320,192,152418,1,0,0:0:0:0:
448,192,152418,1,0,0:0:0:0:
64,192,152590,1,0,0:0:0:0:
320,192,152590,1,0,0:0:0:0:
64,192,152763,1,0,0:0:0:0:
192,192,152763,1,0,0:0:0:0:
320,192,152763,1,0,0:0:0:0:
448,192,152763,1,0,0:0:0:0:
320,192,152935,1,0,0:0:0:0:
64,192,153107,1,0,0:0:0:0:
192,192,153107,1,0,0:0:0:0:
320,192,153107,1,0,0:0:0:0:
448,192,153107,1,0,0:0:0:0:
64,192,153280,1,0,0:0:0:0:
448,192,153280,1,0,0:0:0:0:
192,192,153452,1,0,0:0:0:0:
320,192,153625,1,0,0:0:0:0:
448,192,153625,1,0,0:0:0:0:
192,192,153797,1,0,0:0:0:0:
320,192,153883,1,0,0:0:0:0:
448,192,153883,1,0,0:0:0:0:
64,192,153969,1,0,0:0:0:0:
192,192,153969,1,0,0:0:0:0:
320,192,154142,1,0,0:0:0:0:
448,192,154142,1,0,0:0:0:0:
64,192,154314,1,0,0:0:0:0:
448,192,154314,1,0,0:0:0:0:
64,192,154487,1,0,0:0:0:0:
192,0,154487,128,0,155176:1:0:0:0:
64,192,154659,1,0,0:0:0:0:
448,192,154831,1,0,0:0:0:0:
320,192,155004,1,0,0:0:0:0:
64,192,155176,1,0,0:0:0:0:
448,0,155176,128,0,155866:1:0:0:0:
64,192,155521,1,0,0:0:0:0:
192,192,155521,1,0,0:0:0:0:
320,192,155866,1,0,0:0:0:0:
64,0,155866,128,0,156556:1:0:0:0:
192,192,156038,1,0,0:0:0:0:
192,192,156211,1,0,0:0:0:0:
448,192,156383,1,0,0:0:0:0:
192,192,156556,1,0,0:0:0:0:
320,0,156556,128,0,157245:1:0:0:0:
192,192,156900,1,0,0:0:0:0:
448,192,156900,1,0,0:0:0:0:
192,192,157245,1,0,0:0:0:0:
64,0,157245,128,0,157935:1:0:0:0:
192,192,157418,1,0,0:0:0:0:
320,192,157590,1,0,0:0:0:0:
448,192,157762,1,0,0:0:0:0:
320,192,157935,1,0,0:0:0:0:
192,0,157935,128,0,158624:1:0:0:0:
320,192,158280,1,0,0:0:0:0:
448,192,158280,1,0,0:0:0:0:
320,192,158624,1,0,0:0:0:0:
64,0,158624,128,0,159314:1:0:0:0:
192,192,158797,1,0,0:0:0:0:
192,192,158969,1,0,0:0:0:0:
320,192,159142,1,0,0:0:0:0:
448,192,159228,1,0,0:0:0:0:
192,192,159314,1,0,0:0:0:0:
320,0,159314,128,0,160004:1:0:0:0:
64,192,159659,1,0,0:0:0:0:
192,192,159659,1,0,0:0:0:0:
448,192,160004,1,0,0:0:0:0:
192,0,160004,128,0,160693:1:0:0:0:
64,192,160176,1,0,0:0:0:0:
320,192,160348,1,0,0:0:0:0:
320,192,160521,1,0,0:0:0:0:
64,192,160693,1,0,0:0:0:0:
448,0,160693,128,0,161383:1:0:0:0:
64,192,161038,1,0,0:0:0:0:
192,192,161038,1,0,0:0:0:0:
320,192,161383,1,0,0:0:0:0:
64,0,161383,128,0,162073:1:0:0:0:
192,192,161555,1,0,0:0:0:0:
192,192,161728,1,0,0:0:0:0:
448,192,161900,1,0,0:0:0:0:
192,192,162073,1,0,0:0:0:0:
320,0,162073,128,0,162762:1:0:0:0:
64,192,162417,1,0,0:0:0:0:
448,192,162417,1,0,0:0:0:0:
448,192,162762,1,0,0:0:0:0:
64,0,162762,128,0,163452:1:0:0:0:
192,192,162935,1,0,0:0:0:0:
448,192,163107,1,0,0:0:0:0:
320,192,163279,1,0,0:0:0:0:
448,192,163452,1,0,0:0:0:0:
192,0,163452,128,0,164141:1:0:0:0:
64,192,163797,1,0,0:0:0:0:
320,192,163797,1,0,0:0:0:0:
448,192,164141,1,0,0:0:0:0:
64,0,164141,128,0,164831:1:0:0:0:
320,192,164314,1,0,0:0:0:0:
192,192,164486,1,0,0:0:0:0:
448,192,164659,1,0,0:0:0:0:
192,192,164745,1,0,0:0:0:0:
448,192,164831,1,0,0:0:0:0:
320,0,164831,128,0,165521:1:0:0:0:
192,192,165003,1,0,0:0:0:0:
64,192,165176,1,0,0:0:0:0:
448,192,165348,1,0,0:0:0:0:
64,192,165521,1,0,0:0:0:0:
448,192,165521,1,0,0:0:0:0:
192,0,165521,128,0,166210:1:0:0:0:
64,192,165693,1,0,0:0:0:0:
320,192,165865,1,0,0:0:0:0:
64,192,166038,1,0,0:0:0:0:
320,192,166038,1,0,0:0:0:0:
320,192,166210,1,0,0:0:0:0:
448,0,166210,128,0,166900:1:0:0:0:
192,192,166383,1,0,0:0:0:0:
320,192,166555,1,0,0:0:0:0:
192,192,166728,1,0,0:0:0:0:
192,192,166900,1,0,0:0:0:0:
64,0,166900,128,0,167590:1:0:0:0:
320,192,167072,1,0,0:0:0:0:
192,192,167245,1,0,0:0:0:0:
320,192,167417,1,0,0:0:0:0:
448,192,167417,1,0,0:0:0:0:
448,192,167590,1,0,0:0:0:0:
320,0,167590,128,0,168279:1:0:0:0:
192,192,167762,1,0,0:0:0:0:
448,192,167934,1,0,0:0:0:0:
192,192,168107,1,0,0:0:0:0:
192,192,168279,1,0,0:0:0:0:
64,0,168279,128,0,168969:1:0:0:0:
320,192,168452,1,0,0:0:0:0:
192,192,168624,1,0,0:0:0:0:
192,192,168796,1,0,0:0:0:0:
320,192,168796,1,0,0:0:0:0:
448,192,168969,1,0,0:0:0:0:
192,0,168969,128,0,169658:1:0:0:0:
320,192,169141,1,0,0:0:0:0:
448,192,169314,1,0,0:0:0:0:
320,192,169486,1,0,0:0:0:0:
320,192,169658,1,0,0:0:0:0:
64,0,169658,128,0,170348:1:0:0:0:
192,192,169831,1,0,0:0:0:0:
320,192,170003,1,0,0:0:0:0:
320,192,170176,1,0,0:0:0:0:
192,192,170262,1,0,0:0:0:0:
448,192,170348,1,0,0:0:0:0:
320,0,170348,128,0,171038:1:0:0:0:
192,192,170520,1,0,0:0:0:0:
448,192,170693,1,0,0:0:0:0:
192,192,170865,1,0,0:0:0:0:
64,192,171038,1,0,0:0:0:0:
192,0,171038,128,0,171727:1:0:0:0:
320,192,171210,1,0,0:0:0:0:
64,192,171382,1,0,0:0:0:0:
320,192,171555,1,0,0:0:0:0:
448,192,171555,1,0,0:0:0:0:
64,192,171727,1,0,0:0:0:0:
320,192,171727,1,0,0:0:0:0:
448,0,171727,128,0,172417:1:0:0:0:
192,192,171900,1,0,0:0:0:0:
320,192,172072,1,0,0:0:0:0:
192,192,172245,1,0,0:0:0:0:
192,192,172417,1,0,0:0:0:0:
64,0,172417,128,0,173107:1:0:0:0:
320,192,172589,1,0,0:0:0:0:
192,192,172762,1,0,0:0:0:0:
320,192,172934,1,0,0:0:0:0:
448,192,172934,1,0,0:0:0:0:
192,192,173107,1,0,0:0:0:0:
448,192,173107,1,0,0:0:0:0:
320,0,173107,128,0,173796:1:0:0:0:
192,192,173279,1,0,0:0:0:0:
448,192,173451,1,0,0:0:0:0:
192,192,173624,1,0,0:0:0:0:
192,192,173796,1,0,0:0:0:0:
64,0,173796,128,0,174486:1:0:0:0:
320,192,173969,1,0,0:0:0:0:
192,192,174141,1,0,0:0:0:0:
192,192,174313,1,0,0:0:0:0:
320,192,174313,1,0,0:0:0:0:
320,192,174486,1,0,0:0:0:0:
448,192,174486,1,0,0:0:0:0:
192,0,174486,128,0,175175:1:0:0:0:
320,192,174658,1,0,0:0:0:0:
448,192,174831,1,0,0:0:0:0:
320,192,175003,1,0,0:0:0:0:
64,192,175175,1,0,0:0:0:0:
320,192,175175,1,0,0:0:0:0:
448,192,175175,1,0,0:0:0:0:
64,192,175348,1,0,0:0:0:0:
192,192,175348,1,0,0:0:0:0:
64,192,175520,1,0,0:0:0:0:
320,192,175520,1,0,0:0:0:0:
448,192,175520,1,0,0:0:0:0:
320,192,175779,1,0,0:0:0:0:
64,192,175865,1,0,0:0:0:0:
192,192,175865,1,0,0:0:0:0:
448,192,175865,1,0,0:0:0:0:
320,192,176037,1,0,0:0:0:0:
448,192,176037,1,0,0:0:0:0:
64,192,176124,1,0,0:0:0:0:
192,192,176124,1,0,0:0:0:0:
320,192,176210,1,0,0:0:0:0:
448,192,176210,1,0,0:0:0:0:
64,192,176555,1,0,0:0:0:0:
320,192,176555,1,0,0:0:0:0:
448,0,176555,128,0,177589:1:0:0:0:
64,192,176727,1,0,0:0:0:0:
64,192,176899,1,0,0:0:0:0:
192,192,176899,1,0,0:0:0:0:
320,192,176899,1,0,0:0:0:0:
192,192,177072,1,0,0:0:0:0:
64,192,177244,1,0,0:0:0:0:
192,192,177244,1,0,0:0:0:0:
320,192,177244,1,0,0:0:0:0:
64,192,177417,1,0,0:0:0:0:
192,192,177417,1,0,0:0:0:0:
64,192,177589,1,0,0:0:0:0:
192,192,177589,1,0,0:0:0:0:
320,192,177589,1,0,0:0:0:0:
64,192,177934,1,0,0:0:0:0:
320,192,177934,1,0,0:0:0:0:
448,0,177934,128,0,178968:1:0:0:0:
64,192,178106,1,0,0:0:0:0:
64,192,178279,1,0,0:0:0:0:
192,192,178279,1,0,0:0:0:0:
320,192,178279,1,0,0:0:0:0:
320,192,178451,1,0,0:0:0:0:
64,192,178624,1,0,0:0:0:0:
192,192,178624,1,0,0:0:0:0:
320,192,178624,1,0,0:0:0:0:
192,192,178796,1,0,0:0:0:0:
320,192,178796,1,0,0:0:0:0:
64,192,178968,1,0,0:0:0:0:
192,192,178968,1,0,0:0:0:0:
320,192,178968,1,0,0:0:0:0:
64,192,179313,1,0,0:0:0:0:
320,192,179313,1,0,0:0:0:0:
448,0,179313,128,0,180348:1:0:0:0:
192,192,179486,1,0,0:0:0:0:
64,192,179658,1,0,0:0:0:0:
192,192,179658,1,0,0:0:0:0:
320,192,179658,1,0,0:0:0:0:
64,192,179830,1,0,0:0:0:0:
64,192,180003,1,0,0:0:0:0:
192,192,180003,1,0,0:0:0:0:
320,192,180003,1,0,0:0:0:0:
64,192,180175,1,0,0:0:0:0:
320,192,180175,1,0,0:0:0:0:
64,192,180348,1,0,0:0:0:0:
192,192,180348,1,0,0:0:0:0:
320,192,180348,1,0,0:0:0:0:
64,192,180692,1,0,0:0:0:0:
192,192,180692,1,0,0:0:0:0:
448,0,180692,128,0,181382:1:0:0:0:
320,192,180865,1,0,0:0:0:0:
64,192,181037,1,0,0:0:0:0:
192,192,181037,1,0,0:0:0:0:
320,192,181037,1,0,0:0:0:0:
64,192,181210,1,0,0:0:0:0:
192,192,181210,1,0,0:0:0:0:
64,192,181382,1,0,0:0:0:0:
320,192,181382,1,0,0:0:0:0:
192,0,181382,128,0,181727:1:0:0:0:
320,192,181554,1,0,0:0:0:0:
448,192,181554,1,0,0:0:0:0:
64,192,181641,1,0,0:0:0:0:
64,192,181727,1,0,0:0:0:0:
320,192,181727,1,0,0:0:0:0:
448,192,181727,1,0,0:0:0:0:
192,192,181899,1,0,0:0:0:0:
320,192,181899,1,0,0:0:0:0:
64,192,182072,1,0,0:0:0:0:
192,192,182072,1,0,0:0:0:0:
320,0,182072,128,0,183106:1:0:0:0:
192,192,182244,1,0,0:0:0:0:
64,192,182416,1,0,0:0:0:0:
192,192,182416,1,0,0:0:0:0:
448,192,182416,1,0,0:0:0:0:
448,192,182589,1,0,0:0:0:0:
64,192,182761,1,0,0:0:0:0:
192,192,182761,1,0,0:0:0:0:
448,192,182761,1,0,0:0:0:0:
192,192,182934,1,0,0:0:0:0:
448,192,182934,1,0,0:0:0:0:
64,192,183106,1,0,0:0:0:0:
192,192,183106,1,0,0:0:0:0:
448,192,183106,1,0,0:0:0:0:
64,192,183451,1,0,0:0:0:0:
192,192,183451,1,0,0:0:0:0:
320,0,183451,128,0,184485:1:0:0:0:
192,192,183623,1,0,0:0:0:0:
64,192,183796,1,0,0:0:0:0:
192,192,183796,1,0,0:0:0:0:
448,192,183796,1,0,0:0:0:0:
64,192,183968,1,0,0:0:0:0:
64,192,184141,1,0,0:0:0:0:
192,192,184141,1,0,0:0:0:0:
448,192,184141,1,0,0:0:0:0:
64,192,184313,1,0,0:0:0:0:
448,192,184313,1,0,0:0:0:0:
64,192,184485,1,0,0:0:0:0:
192,192,184485,1,0,0:0:0:0:
448,192,184485,1,0,0:0:0:0:
64,192,184830,1,0,0:0:0:0:
192,192,184830,1,0,0:0:0:0:
320,0,184830,128,0,185865:1:0:0:0:
448,192,185003,1,0,0:0:0:0:
64,192,185175,1,0,0:0:0:0:
192,192,185175,1,0,0:0:0:0:
448,192,185175,1,0,0:0:0:0:
192,192,185347,1,0,0:0:0:0:
64,192,185520,1,0,0:0:0:0:
192,192,185520,1,0,0:0:0:0:
448,192,185520,1,0,0:0:0:0:
64,192,185692,1,0,0:0:0:0:
192,192,185692,1,0,0:0:0:0:
64,192,185865,1,0,0:0:0:0:
192,192,185865,1,0,0:0:0:0:
448,192,185865,1,0,0:0:0:0:
192,192,186209,1,0,0:0:0:0:
448,192,186209,1,0,0:0:0:0:
320,0,186209,128,0,186899:1:0:0:0:
64,192,186382,1,0,0:0:0:0:
64,192,186554,1,0,0:0:0:0:
192,192,186554,1,0,0:0:0:0:
448,192,186554,1,0,0:0:0:0:
192,192,186727,1,0,0:0:0:0:
448,192,186813,1,0,0:0:0:0:
64,192,186899,1,0,0:0:0:0:
192,192,186899,1,0,0:0:0:0:
448,0,186899,128,0,187244:1:0:0:0:
192,192,186985,1,0,0:0:0:0:
64,192,187071,1,0,0:0:0:0:
320,192,187071,1,0,0:0:0:0:
192,192,187158,1,0,0:0:0:0:
64,192,187244,1,0,0:0:0:0:
192,192,187244,1,0,0:0:0:0:
320,192,187244,1,0,0:0:0:0:
64,192,187416,1,0,0:0:0:0:
448,192,187416,1,0,0:0:0:0:
64,192,187589,1,0,0:0:0:0:
320,192,187589,1,0,0:0:0:0:
448,0,187589,128,0,188623:1:0:0:0:
64,192,187761,1,0,0:0:0:0:
64,192,187933,1,0,0:0:0:0:
192,192,187933,1,0,0:0:0:0:
320,192,187933,1,0,0:0:0:0:
192,192,188106,1,0,0:0:0:0:
64,192,188278,1,0,0:0:0:0:
192,192,188278,1,0,0:0:0:0:
320,192,188278,1,0,0:0:0:0:
64,192,188451,1,0,0:0:0:0:
192,192,188451,1,0,0:0:0:0:
64,192,188623,1,0,0:0:0:0:
192,192,188623,1,0,0:0:0:0:
320,192,188623,1,0,0:0:0:0:
64,192,188968,1,0,0:0:0:0:
320,192,188968,1,0,0:0:0:0:
448,0,188968,128,0,190002:1:0:0:0:
64,192,189140,1,0,0:0:0:0:
64,192,189313,1,0,0:0:0:0:
192,192,189313,1,0,0:0:0:0:
320,192,189313,1,0,0:0:0:0:
320,192,189485,1,0,0:0:0:0:
64,192,189658,1,0,0:0:0:0:
192,192,189658,1,0,0:0:0:0:
320,192,189658,1,0,0:0:0:0:
192,192,189830,1,0,0:0:0:0:
320,192,189830,1,0,0:0:0:0:
64,192,190002,1,0,0:0:0:0:
192,192,190002,1,0,0:0:0:0:
320,192,190002,1,0,0:0:0:0:
64,192,190347,1,0,0:0:0:0:
320,192,190347,1,0,0:0:0:0:
448,0,190347,128,0,191382:1:0:0:0:
192,192,190520,1,0,0:0:0:0:
64,192,190692,1,0,0:0:0:0:
192,192,190692,1,0,0:0:0:0:
320,192,190692,1,0,0:0:0:0:
64,192,190864,1,0,0:0:0:0:
64,192,191037,1,0,0:0:0:0:
192,192,191037,1,0,0:0:0:0:
320,192,191037,1,0,0:0:0:0:
64,192,191209,1,0,0:0:0:0:
320,192,191209,1,0,0:0:0:0:
64,192,191382,1,0,0:0:0:0:
192,192,191382,1,0,0:0:0:0:
320,192,191382,1,0,0:0:0:0:
64,192,191726,1,0,0:0:0:0:
192,192,191726,1,0,0:0:0:0:
448,0,191726,128,0,192416:1:0:0:0:
320,192,191899,1,0,0:0:0:0:
64,192,192071,1,0,0:0:0:0:
192,192,192071,1,0,0:0:0:0:
320,192,192071,1,0,0:0:0:0:
64,192,192244,1,0,0:0:0:0:
320,192,192330,1,0,0:0:0:0:
64,192,192416,1,0,0:0:0:0:
320,192,192416,1,0,0:0:0:0:
192,0,192416,128,0,192761:1:0:0:0:
320,192,192588,1,0,0:0:0:0:
448,192,192588,1,0,0:0:0:0:
64,192,192675,1,0,0:0:0:0:
64,192,192761,1,0,0:0:0:0:
320,192,192761,1,0,0:0:0:0:
448,192,192761,1,0,0:0:0:0:
192,192,192933,1,0,0:0:0:0:
320,192,192933,1,0,0:0:0:0:
320,192,193106,1,0,0:0:0:0:
448,192,193106,1,0,0:0:0:0:
192,0,193106,128,0,194140:1:0:0:0:
320,192,193278,1,0,0:0:0:0:
64,192,193450,1,0,0:0:0:0:
320,192,193450,1,0,0:0:0:0:
448,192,193450,1,0,0:0:0:0:
64,192,193623,1,0,0:0:0:0:
64,192,193795,1,0,0:0:0:0:
320,192,193795,1,0,0:0:0:0:
448,192,193795,1,0,0:0:0:0:
64,192,193968,1,0,0:0:0:0:
320,192,193968,1,0,0:0:0:0:
64,192,194140,1,0,0:0:0:0:
320,192,194140,1,0,0:0:0:0:
448,192,194140,1,0,0:0:0:0:
320,192,194485,1,0,0:0:0:0:
448,192,194485,1,0,0:0:0:0:
192,0,194485,128,0,195519:1:0:0:0:
320,192,194657,1,0,0:0:0:0:
64,192,194830,1,0,0:0:0:0:
320,192,194830,1,0,0:0:0:0:
448,192,194830,1,0,0:0:0:0:
448,192,195002,1,0,0:0:0:0:
64,192,195175,1,0,0:0:0:0:
320,192,195175,1,0,0:0:0:0:
448,192,195175,1,0,0:0:0:0:
64,192,195347,1,0,0:0:0:0:
448,192,195347,1,0,0:0:0:0:
64,192,195519,1,0,0:0:0:0:
320,192,195519,1,0,0:0:0:0:
448,192,195519,1,0,0:0:0:0:
320,192,195864,1,0,0:0:0:0:
448,192,195864,1,0,0:0:0:0:
192,0,195864,128,0,196899:1:0:0:0:
64,192,196037,1,0,0:0:0:0:
64,192,196209,1,0,0:0:0:0:
320,192,196209,1,0,0:0:0:0:
448,192,196209,1,0,0:0:0:0:
320,192,196381,1,0,0:0:0:0:
64,192,196554,1,0,0:0:0:0:
320,192,196554,1,0,0:0:0:0:
448,192,196554,1,0,0:0:0:0:
320,192,196726,1,0,0:0:0:0:
448,192,196726,1,0,0:0:0:0:
64,192,196899,1,0,0:0:0:0:
320,192,196899,1,0,0:0:0:0:
448,192,196899,1,0,0:0:0:0:
64,192,197243,1,0,0:0:0:0:
320,192,197243,1,0,0:0:0:0:
192,0,197243,128,0,197933:1:0:0:0:
448,192,197416,1,0,0:0:0:0:
320,192,197502,1,0,0:0:0:0:
64,192,197588,1,0,0:0:0:0:
320,192,197588,1,0,0:0:0:0:
448,192,197588,1,0,0:0:0:0:
320,192,197761,1,0,0:0:0:0:
64,192,197847,1,0,0:0:0:0:
320,192,197933,1,0,0:0:0:0:
448,192,197933,1,0,0:0:0:0:
64,0,197933,128,0,198278:1:0:0:0:
320,192,198019,1,0,0:0:0:0:
192,192,198105,1,0,0:0:0:0:
448,192,198105,1,0,0:0:0:0:
320,192,198192,1,0,0:0:0:0:
192,192,198278,1,0,0:0:0:0:
320,192,198278,1,0,0:0:0:0:
448,192,198278,1,0,0:0:0:0:
64,192,198450,1,0,0:0:0:0:
448,192,198450,1,0,0:0:0:0:
192,192,198623,1,0,0:0:0:0:
320,192,198623,1,0,0:0:0:0:
64,0,198623,128,0,201381:1:0:0:0:
448,192,198795,1,0,0:0:0:0:
192,192,198967,1,0,0:0:0:0:
320,192,198967,1,0,0:0:0:0:
448,192,198967,1,0,0:0:0:0:
192,192,199140,1,0,0:0:0:0:
320,192,199140,1,0,0:0:0:0:
192,192,199312,1,0,0:0:0:0:
320,192,199312,1,0,0:0:0:0:
448,192,199312,1,0,0:0:0:0:
192,192,199485,1,0,0:0:0:0:
192,192,199657,1,0,0:0:0:0:
320,192,199657,1,0,0:0:0:0:
448,192,199657,1,0,0:0:0:0:
320,192,199830,1,0,0:0:0:0:
192,192,200002,1,0,0:0:0:0:
320,192,200002,1,0,0:0:0:0:
448,192,200002,1,0,0:0:0:0:
448,192,200174,1,0,0:0:0:0:
192,192,200347,1,0,0:0:0:0:
320,192,200347,1,0,0:0:0:0:
448,192,200347,1,0,0:0:0:0:
320,192,200519,1,0,0:0:0:0:
448,192,200519,1,0,0:0:0:0:
192,192,200692,1,0,0:0:0:0:
320,192,200692,1,0,0:0:0:0:
448,192,200692,1,0,0:0:0:0:
320,192,200864,1,0,0:0:0:0:
192,192,201036,1,0,0:0:0:0:
320,192,201036,1,0,0:0:0:0:
448,192,201036,1,0,0:0:0:0:
192,192,201209,1,0,0:0:0:0:
192,192,201381,1,0,0:0:0:0:
320,192,201381,1,0,0:0:0:0:
448,0,201381,128,0,202588:1:0:0:0:
64,192,201554,1,0,0:0:0:0:
64,192,201726,1,0,0:0:0:0:
192,192,201726,1,0,0:0:0:0:
320,192,201726,1,0,0:0:0:0:
64,192,201898,1,0,0:0:0:0:
192,192,201898,1,0,0:0:0:0:
64,192,202071,1,0,0:0:0:0:
192,192,202071,1,0,0:0:0:0:
320,192,202071,1,0,0:0:0:0:
192,192,202243,1,0,0:0:0:0:
64,192,202416,1,0,0:0:0:0:
192,192,202416,1,0,0:0:0:0:
320,192,202416,1,0,0:0:0:0:
64,192,202588,1,0,0:0:0:0:
192,0,202588,128,0,204140:1:0:0:0:
64,192,202760,1,0,0:0:0:0:
320,192,202760,1,0,0:0:0:0:
448,192,202760,1,0,0:0:0:0:
320,192,202933,1,0,0:0:0:0:
64,192,203105,1,0,0:0:0:0:
320,192,203105,1,0,0:0:0:0:
448,192,203105,1,0,0:0:0:0:
64,192,203278,1,0,0:0:0:0:
448,192,203278,1,0,0:0:0:0:
320,192,203364,1,0,0:0:0:0:
64,192,203450,1,0,0:0:0:0:
320,192,203450,1,0,0:0:0:0:
448,192,203450,1,0,0:0:0:0:
320,192,203622,1,0,0:0:0:0:
448,192,203622,1,0,0:0:0:0:
64,192,203795,1,0,0:0:0:0:
320,192,203795,1,0,0:0:0:0:
448,192,203795,1,0,0:0:0:0:
64,192,203967,1,0,0:0:0:0:
320,192,203967,1,0,0:0:0:0:
320,192,204140,1,0,0:0:0:0:
448,192,204140,1,0,0:0:0:0:
64,0,204140,128,0,206898:1:0:0:0:
192,192,204312,1,0,0:0:0:0:
192,192,204484,1,0,0:0:0:0:
320,192,204484,1,0,0:0:0:0:
448,192,204484,1,0,0:0:0:0:
192,192,204657,1,0,0:0:0:0:
320,192,204657,1,0,0:0:0:0:
192,192,204829,1,0,0:0:0:0:
320,192,204829,1,0,0:0:0:0:
448,192,204829,1,0,0:0:0:0:
320,192,205002,1,0,0:0:0:0:
192,192,205174,1,0,0:0:0:0:
320,192,205174,1,0,0:0:0:0:
448,192,205174,1,0,0:0:0:0:
448,192,205347,1,0,0:0:0:0:
192,192,205519,1,0,0:0:0:0:
320,192,205519,1,0,0:0:0:0:
448,192,205519,1,0,0:0:0:0:
192,192,205691,1,0,0:0:0:0:
192,192,205864,1,0,0:0:0:0:
320,192,205864,1,0,0:0:0:0:
448,192,205864,1,0,0:0:0:0:
192,192,206036,1,0,0:0:0:0:
448,192,206036,1,0,0:0:0:0:
192,192,206209,1,0,0:0:0:0:
320,192,206209,1,0,0:0:0:0:
448,192,206209,1,0,0:0:0:0:
448,192,206381,1,0,0:0:0:0:
192,192,206553,1,0,0:0:0:0:
320,192,206553,1,0,0:0:0:0:
448,192,206553,1,0,0:0:0:0:
192,192,206726,1,0,0:0:0:0:
192,192,206898,1,0,0:0:0:0:
320,192,206898,1,0,0:0:0:0:
448,0,206898,128,0,207760:1:0:0:0:
192,192,207071,1,0,0:0:0:0:
64,192,207243,1,0,0:0:0:0:
192,192,207243,1,0,0:0:0:0:
320,192,207243,1,0,0:0:0:0:
64,192,207415,1,0,0:0:0:0:
192,192,207415,1,0,0:0:0:0:
64,192,207588,1,0,0:0:0:0:
192,192,207588,1,0,0:0:0:0:
320,192,207588,1,0,0:0:0:0:
64,192,207760,1,0,0:0:0:0:
320,0,207760,128,0,208105:1:0:0:0:
64,192,207933,1,0,0:0:0:0:
192,192,207933,1,0,0:0:0:0:
448,192,207933,1,0,0:0:0:0:
64,192,208105,1,0,0:0:0:0:
448,0,208105,128,0,209657:1:0:0:0:
64,192,208277,1,0,0:0:0:0:
192,192,208277,1,0,0:0:0:0:
320,192,208277,1,0,0:0:0:0:
320,192,208450,1,0,0:0:0:0:
64,192,208622,1,0,0:0:0:0:
192,192,208622,1,0,0:0:0:0:
320,192,208622,1,0,0:0:0:0:
64,192,208795,1,0,0:0:0:0:
192,192,208795,1,0,0:0:0:0:
320,192,208881,1,0,0:0:0:0:
64,192,208967,1,0,0:0:0:0:
192,192,208967,1,0,0:0:0:0:
320,192,208967,1,0,0:0:0:0:
64,192,209139,1,0,0:0:0:0:
192,192,209139,1,0,0:0:0:0:
64,192,209312,1,0,0:0:0:0:
192,192,209312,1,0,0:0:0:0:
320,192,209312,1,0,0:0:0:0:
64,192,209484,1,0,0:0:0:0:
192,192,209484,1,0,0:0:0:0:
192,192,209657,1,0,0:0:0:0:
320,192,209657,1,0,0:0:0:0:
64,0,209657,128,0,212415:1:0:0:0:
448,192,209829,1,0,0:0:0:0:
192,192,210001,1,0,0:0:0:0:
320,192,210001,1,0,0:0:0:0:
448,192,210001,1,0,0:0:0:0:
192,192,210174,1,0,0:0:0:0:
320,192,210174,1,0,0:0:0:0:
192,192,210346,1,0,0:0:0:0:
320,192,210346,1,0,0:0:0:0:
448,192,210346,1,0,0:0:0:0:
448,192,210519,1,0,0:0:0:0:
192,192,210691,1,0,0:0:0:0:
320,192,210691,1,0,0:0:0:0:
448,192,210691,1,0,0:0:0:0:
320,192,210864,1,0,0:0:0:0:
192,192,211036,1,0,0:0:0:0:
320,192,211036,1,0,0:0:0:0:
448,192,211036,1,0,0:0:0:0:
192,192,211208,1,0,0:0:0:0:
192,192,211381,1,0,0:0:0:0:
320,192,211381,1,0,0:0:0:0:
448,192,211381,1,0,0:0:0:0:
192,192,211553,1,0,0:0:0:0:
320,192,211553,1,0,0:0:0:0:
448,192,211639,1,0,0:0:0:0:
192,192,211726,1,0,0:0:0:0:
320,192,211726,1,0,0:0:0:0:
448,192,211726,1,0,0:0:0:0:
320,192,211898,1,0,0:0:0:0:
192,192,212070,1,0,0:0:0:0:
320,192,212070,1,0,0:0:0:0:
448,192,212070,1,0,0:0:0:0:
192,192,212243,1,0,0:0:0:0:
192,192,212415,1,0,0:0:0:0:
320,192,212415,1,0,0:0:0:0:
448,0,212415,128,0,213622:1:0:0:0:
192,192,212588,1,0,0:0:0:0:
64,192,212760,1,0,0:0:0:0:
192,192,212760,1,0,0:0:0:0:
320,192,212760,1,0,0:0:0:0:
64,192,212932,1,0,0:0:0:0:
192,192,212932,1,0,0:0:0:0:
64,192,213105,1,0,0:0:0:0:
192,192,213105,1,0,0:0:0:0:
320,192,213105,1,0,0:0:0:0:
192,192,213277,1,0,0:0:0:0:
64,192,213450,1,0,0:0:0:0:
192,192,213450,1,0,0:0:0:0:
320,192,213450,1,0,0:0:0:0:
64,192,213622,1,0,0:0:0:0:
320,0,213622,128,0,215174:1:0:0:0:
64,192,213794,1,0,0:0:0:0:
192,192,213794,1,0,0:0:0:0:
448,192,213794,1,0,0:0:0:0:
448,192,213967,1,0,0:0:0:0:
64,192,214139,1,0,0:0:0:0:
192,192,214139,1,0,0:0:0:0:
448,192,214139,1,0,0:0:0:0:
64,192,214312,1,0,0:0:0:0:
192,192,214312,1,0,0:0:0:0:
448,192,214398,1,0,0:0:0:0:
64,192,214484,1,0,0:0:0:0:
192,192,214484,1,0,0:0:0:0:
448,192,214484,1,0,0:0:0:0:
192,192,214656,1,0,0:0:0:0:
448,192,214656,1,0,0:0:0:0:
64,192,214829,1,0,0:0:0:0:
192,192,214829,1,0,0:0:0:0:
448,192,214829,1,0,0:0:0:0:
192,192,215001,1,0,0:0:0:0:
448,192,215001,1,0,0:0:0:0:
192,192,215174,1,0,0:0:0:0:
448,192,215174,1,0,0:0:0:0:
64,0,215174,128,0,217932:1:0:0:0:
448,192,215346,1,0,0:0:0:0:
192,192,215518,1,0,0:0:0:0:
320,192,215518,1,0,0:0:0:0:
448,192,215518,1,0,0:0:0:0:
192,192,215691,1,0,0:0:0:0:
320,192,215691,1,0,0:0:0:0:
192,192,215863,1,0,0:0:0:0:
320,192,215863,1,0,0:0:0:0:
448,192,215863,1,0,0:0:0:0:
320,192,216036,1,0,0:0:0:0:
192,192,216208,1,0,0:0:0:0:
320,192,216208,1,0,0:0:0:0:
448,192,216208,1,0,0:0:0:0:
192,192,216381,1,0,0:0:0:0:
192,192,216553,1,0,0:0:0:0:
320,192,216553,1,0,0:0:0:0:
448,192,216553,1,0,0:0:0:0:
448,192,216725,1,0,0:0:0:0:
192,192,216898,1,0,0:0:0:0:
320,192,216898,1,0,0:0:0:0:
448,192,216898,1,0,0:0:0:0:
192,192,217070,1,0,0:0:0:0:
320,192,217070,1,0,0:0:0:0:
192,192,217243,1,0,0:0:0:0:
320,192,217243,1,0,0:0:0:0:
448,192,217243,1,0,0:0:0:0:
448,192,217415,1,0,0:0:0:0:
192,192,217587,1,0,0:0:0:0:
320,192,217587,1,0,0:0:0:0:
448,192,217587,1,0,0:0:0:0:
192,192,217760,1,0,0:0:0:0:
192,192,217932,1,0,0:0:0:0:
320,192,217932,1,0,0:0:0:0:
448,0,217932,128,0,218794:1:0:0:0:
192,192,218105,1,0,0:0:0:0:
64,192,218277,1,0,0:0:0:0:
192,192,218277,1,0,0:0:0:0:
320,192,218277,1,0,0:0:0:0:
64,192,218449,1,0,0:0:0:0:
192,192,218449,1,0,0:0:0:0:
64,192,218622,1,0,0:0:0:0:
192,192,218622,1,0,0:0:0:0:
320,192,218622,1,0,0:0:0:0:
64,192,218794,1,0,0:0:0:0:
320,0,218794,128,0,219139:1:0:0:0:
64,192,218967,1,0,0:0:0:0:
192,192,218967,1,0,0:0:0:0:
448,192,218967,1,0,0:0:0:0:
192,192,219139,1,0,0:0:0:0:
448,0,219139,128,0,220691:1:0:0:0:
64,192,219311,1,0,0:0:0:0:
192,192,219311,1,0,0:0:0:0:
320,192,219311,1,0,0:0:0:0:
64,192,219484,1,0,0:0:0:0:
64,192,219656,1,0,0:0:0:0:
192,192,219656,1,0,0:0:0:0:
320,192,219656,1,0,0:0:0:0:
192,192,219829,1,0,0:0:0:0:
320,192,219829,1,0,0:0:0:0:
64,192,219915,1,0,0:0:0:0:
64,192,220001,1,0,0:0:0:0:
192,192,220001,1,0,0:0:0:0:
320,192,220001,1,0,0:0:0:0:
192,192,220173,1,0,0:0:0:0:
320,192,220173,1,0,0:0:0:0:
64,192,220346,1,0,0:0:0:0:
192,192,220346,1,0,0:0:0:0:
320,192,220346,1,0,0:0:0:0:
192,192,220518,1,0,0:0:0:0:
320,192,220518,1,0,0:0:0:0:
64,0,220691,128,0,225690:1:0:0:0:
320,0,220691,128,0,225690:1:0:0:0:
192,0,225690,128,0,226208:1:0:0:0:
448,0,225690,128,0,226208:1:0:0:0:
64,0,226208,128,0,231207:1:0:0:0:
320,0,226208,128,0,231207:1:0:0:0:
192,0,231207,128,0,231552:1:0:0:0:
448,0,231207,128,0,231552:1:0:0:0:
192,192,231725,1,0,0:0:0:0:
320,192,231725,1,0,0:0:0:0:
448,192,231725,1,0,0:0:0:0:
64,0,231725,128,0,234483:1:0:0:0:
192,192,232070,1,0,0:0:0:0:
320,192,232070,1,0,0:0:0:0:
192,192,232414,1,0,0:0:0:0:
448,192,232414,1,0,0:0:0:0:
320,192,232759,1,0,0:0:0:0:
448,192,232759,1,0,0:0:0:0:
192,192,233104,1,0,0:0:0:0:
448,192,233104,1,0,0:0:0:0:
192,192,233449,1,0,0:0:0:0:
320,192,233449,1,0,0:0:0:0:
192,192,233794,1,0,0:0:0:0:
448,192,233794,1,0,0:0:0:0:
320,192,234138,1,0,0:0:0:0:
448,192,234138,1,0,0:0:0:0:
320,192,234483,1,0,0:0:0:0:
448,192,234483,1,0,0:0:0:0:
192,0,234483,128,0,234828:1:0:0:0:
64,192,234828,1,0,0:0:0:0:
448,192,234828,1,0,0:0:0:0:
64,192,235173,1,0,0:0:0:0:
192,192,235173,1,0,0:0:0:0:
64,192,235518,1,0,0:0:0:0:
448,192,235518,1,0,0:0:0:0:
320,0,235690,128,0,236035:1:0:0:0:
64,192,235863,1,0,0:0:0:0:
448,192,235863,1,0,0:0:0:0:
192,192,236207,1,0,0:0:0:0:
448,192,236207,1,0,0:0:0:0:
64,192,236552,1,0,0:0:0:0:
320,192,236552,1,0,0:0:0:0:
192,0,236725,128,0,237242:1:0:0:0:
448,0,236725,128,0,237242:1:0:0:0:
64,192,236897,1,0,0:0:0:0:
320,192,236897,1,0,0:0:0:0:
320,192,237242,1,0,0:0:0:0:
64,0,237242,128,0,240000:1:0:0:0:
192,192,237587,1,0,0:0:0:0:
320,192,237587,1,0,0:0:0:0:
192,192,237931,1,0,0:0:0:0:
448,192,237931,1,0,0:0:0:0:
320,192,238276,1,0,0:0:0:0:
448,192,238276,1,0,0:0:0:0:
192,192,238621,1,0,0:0:0:0:
448,192,238621,1,0,0:0:0:0:
192,192,238966,1,0,0:0:0:0:
320,192,238966,1,0,0:0:0:0:
192,192,239311,1,0,0:0:0:0:
448,192,239311,1,0,0:0:0:0:
320,192,239656,1,0,0:0:0:0:
448,192,239656,1,0,0:0:0:0:
192,0,240000,128,0,240345:1:0:0:0:
64,192,241380,1,0,0:0:0:0:
192,192,241380,1,0,0:0:0:0:
320,192,241380,1,0,0:0:0:0:
448,192,241380,1,0,0:0:0:0:
64,0,241552,128,0,241638:1:0:0:0:
192,0,241552,128,0,241638:1:0:0:0:
64,0,241725,128,0,241811:1:0:0:0:
320,0,241725,128,0,241811:1:0:0:0:
192,0,241897,128,0,241983:1:0:0:0:
320,0,241897,128,0,241983:1:0:0:0:
64,192,242069,1,0,0:0:0:0:
320,192,242069,1,0,0:0:0:0:
192,0,242069,128,0,242156:1:0:0:0:
448,0,242069,128,0,242156:1:0:0:0:
448,192,242242,1,0,0:0:0:0:
192,0,242242,128,0,242328:1:0:0:0:
320,0,242242,128,0,242328:1:0:0:0:
64,0,242414,128,0,242500:1:0:0:0:
320,0,242414,128,0,242500:1:0:0:0:
64,0,242587,128,0,242673:1:0:0:0:
192,0,242587,128,0,242673:1:0:0:0:
64,192,242759,1,0,0:0:0:0:
192,192,242759,1,0,0:0:0:0:
320,192,242759,1,0,0:0:0:0:
448,192,242759,1,0,0:0:0:0:
64,192,242931,1,0,0:0:0:0:
192,192,242931,1,0,0:0:0:0:
64,192,243104,1,0,0:0:0:0:
192,192,243104,1,0,0:0:0:0:
448,192,243104,1,0,0:0:0:0:
64,192,243276,1,0,0:0:0:0:
192,192,243276,1,0,0:0:0:0:
64,192,243449,1,0,0:0:0:0:
320,192,243449,1,0,0:0:0:0:
448,192,243449,1,0,0:0:0:0:
320,192,243621,1,0,0:0:0:0:
448,192,243621,1,0,0:0:0:0:
64,192,243793,1,0,0:0:0:0:
320,192,243793,1,0,0:0:0:0:
448,192,243793,1,0,0:0:0:0:
320,192,243966,1,0,0:0:0:0:
448,192,243966,1,0,0:0:0:0:
64,192,244138,1,0,0:0:0:0:
192,192,244138,1,0,0:0:0:0:
320,192,244138,1,0,0:0:0:0:
64,192,244311,1,0,0:0:0:0:
320,192,244311,1,0,0:0:0:0:
64,192,244483,1,0,0:0:0:0:
192,192,244483,1,0,0:0:0:0:
320,192,244483,1,0,0:0:0:0:
64,192,244655,1,0,0:0:0:0:
320,192,244655,1,0,0:0:0:0:
192,192,244828,1,0,0:0:0:0:
320,192,244828,1,0,0:0:0:0:
448,192,244828,1,0,0:0:0:0:
320,192,245000,1,0,0:0:0:0:
448,192,245000,1,0,0:0:0:0:
192,192,245173,1,0,0:0:0:0:
320,192,245173,1,0,0:0:0:0:
448,192,245173,1,0,0:0:0:0:
320,192,245345,1,0,0:0:0:0:
448,192,245345,1,0,0:0:0:0:
64,192,245517,1,0,0:0:0:0:
192,192,245517,1,0,0:0:0:0:
448,192,245517,1,0,0:0:0:0:
64,192,245690,1,0,0:0:0:0:
320,192,245690,1,0,0:0:0:0:
64,192,245862,1,0,0:0:0:0:
192,192,245862,1,0,0:0:0:0:
448,192,245862,1,0,0:0:0:0:
64,192,246035,1,0,0:0:0:0:
320,192,246035,1,0,0:0:0:0:
64,192,246207,1,0,0:0:0:0:
320,192,246207,1,0,0:0:0:0:
448,192,246207,1,0,0:0:0:0:
320,192,246380,1,0,0:0:0:0:
448,192,246380,1,0,0:0:0:0:
64,192,246552,1,0,0:0:0:0:
320,192,246552,1,0,0:0:0:0:
448,192,246552,1,0,0:0:0:0:
320,192,246724,1,0,0:0:0:0:
448,192,246724,1,0,0:0:0:0:
64,192,246897,1,0,0:0:0:0:
192,192,246897,1,0,0:0:0:0:
448,192,246897,1,0,0:0:0:0:
64,192,247069,1,0,0:0:0:0:
448,192,247069,1,0,0:0:0:0:
64,192,247242,1,0,0:0:0:0:
192,192,247242,1,0,0:0:0:0:
448,192,247242,1,0,0:0:0:0:
64,192,247414,1,0,0:0:0:0:
448,192,247414,1,0,0:0:0:0:
192,192,247586,1,0,0:0:0:0:
320,192,247586,1,0,0:0:0:0:
448,192,247586,1,0,0:0:0:0:
192,192,247759,1,0,0:0:0:0:
320,192,247759,1,0,0:0:0:0:
192,192,247931,1,0,0:0:0:0:
320,192,247931,1,0,0:0:0:0:
448,192,247931,1,0,0:0:0:0:
192,192,248104,1,0,0:0:0:0:
320,192,248104,1,0,0:0:0:0:
64,192,248276,1,0,0:0:0:0:
192,192,248276,1,0,0:0:0:0:
448,192,248276,1,0,0:0:0:0:
64,192,248448,1,0,0:0:0:0:
192,192,248448,1,0,0:0:0:0:
64,192,248621,1,0,0:0:0:0:
192,192,248621,1,0,0:0:0:0:
448,192,248621,1,0,0:0:0:0:
64,192,248793,1,0,0:0:0:0:
192,192,248793,1,0,0:0:0:0:
64,192,248966,1,0,0:0:0:0:
192,192,248966,1,0,0:0:0:0:
448,192,248966,1,0,0:0:0:0:
192,192,249138,1,0,0:0:0:0:
448,192,249138,1,0,0:0:0:0:
64,192,249310,1,0,0:0:0:0:
192,192,249310,1,0,0:0:0:0:
448,192,249310,1,0,0:0:0:0:
192,192,249483,1,0,0:0:0:0:
448,192,249483,1,0,0:0:0:0:
64,192,249655,1,0,0:0:0:0:
320,192,249655,1,0,0:0:0:0:
448,192,249655,1,0,0:0:0:0:
64,192,249828,1,0,0:0:0:0:
320,192,249828,1,0,0:0:0:0:
64,192,250000,1,0,0:0:0:0:
320,192,250000,1,0,0:0:0:0:
448,192,250000,1,0,0:0:0:0:
64,192,250172,1,0,0:0:0:0:
320,192,250172,1,0,0:0:0:0:
64,192,250345,1,0,0:0:0:0:
320,192,250345,1,0,0:0:0:0:
448,192,250345,1,0,0:0:0:0:
320,192,250517,1,0,0:0:0:0:
448,192,250517,1,0,0:0:0:0:
64,192,250690,1,0,0:0:0:0:
320,192,250690,1,0,0:0:0:0:
448,192,250690,1,0,0:0:0:0:
320,192,250862,1,0,0:0:0:0:
448,192,250862,1,0,0:0:0:0:
64,192,251034,1,0,0:0:0:0:
192,192,251034,1,0,0:0:0:0:
448,192,251034,1,0,0:0:0:0:
64,192,251207,1,0,0:0:0:0:
320,192,251207,1,0,0:0:0:0:
64,192,251379,1,0,0:0:0:0:
192,192,251379,1,0,0:0:0:0:
448,192,251379,1,0,0:0:0:0:
64,192,251552,1,0,0:0:0:0:
320,192,251552,1,0,0:0:0:0:
64,192,251724,1,0,0:0:0:0:
320,192,251724,1,0,0:0:0:0:
448,192,251724,1,0,0:0:0:0:
192,192,251897,1,0,0:0:0:0:
448,192,251897,1,0,0:0:0:0:
64,192,252069,1,0,0:0:0:0:
320,192,252069,1,0,0:0:0:0:
448,192,252069,1,0,0:0:0:0:
192,192,252241,1,0,0:0:0:0:
448,192,252241,1,0,0:0:0:0:
64,192,252414,1,0,0:0:0:0:
192,192,252414,1,0,0:0:0:0:
320,192,252414,1,0,0:0:0:0:
192,192,252586,1,0,0:0:0:0:
320,192,252586,1,0,0:0:0:0:
64,192,252759,1,0,0:0:0:0:
192,192,252759,1,0,0:0:0:0:
320,192,252759,1,0,0:0:0:0:
192,192,252931,1,0,0:0:0:0:
320,192,252931,1,0,0:0:0:0:
192,192,253103,1,0,0:0:0:0:
320,192,253103,1,0,0:0:0:0:
448,192,253103,1,0,0:0:0:0:
64,192,253276,1,0,0:0:0:0:
448,192,253276,1,0,0:0:0:0:
192,192,253448,1,0,0:0:0:0:
320,192,253448,1,0,0:0:0:0:
448,192,253448,1,0,0:0:0:0:
64,192,253621,1,0,0:0:0:0:
448,192,253621,1,0,0:0:0:0:
64,192,253793,1,0,0:0:0:0:
192,192,253793,1,0,0:0:0:0:
320,192,253793,1,0,0:0:0:0:
448,192,253793,1,0,0:0:0:0:
64,192,253965,1,0,0:0:0:0:
192,192,253965,1,0,0:0:0:0:
64,192,254138,1,0,0:0:0:0:
192,192,254138,1,0,0:0:0:0:
320,192,254138,1,0,0:0:0:0:
448,192,254138,1,0,0:0:0:0:
192,192,254310,1,0,0:0:0:0:
320,192,254310,1,0,0:0:0:0:
64,192,254483,1,0,0:0:0:0:
192,192,254483,1,0,0:0:0:0:
320,192,254483,1,0,0:0:0:0:
448,192,254483,1,0,0:0:0:0:
64,192,254655,1,0,0:0:0:0:
192,192,254655,1,0,0:0:0:0:
64,192,254827,1,0,0:0:0:0:
192,192,254827,1,0,0:0:0:0:
320,192,254827,1,0,0:0:0:0:
448,192,254827,1,0,0:0:0:0:
64,192,255000,1,0,0:0:0:0:
320,192,255000,1,0,0:0:0:0:
64,192,255172,1,0,0:0:0:0:
192,192,255172,1,0,0:0:0:0:
320,192,255172,1,0,0:0:0:0:
448,192,255172,1,0,0:0:0:0:
320,192,255345,1,0,0:0:0:0:
448,192,255345,1,0,0:0:0:0:
64,192,255517,1,0,0:0:0:0:
192,192,255517,1,0,0:0:0:0:
320,192,255517,1,0,0:0:0:0:
448,192,255517,1,0,0:0:0:0:
64,192,255689,1,0,0:0:0:0:
448,192,255689,1,0,0:0:0:0:
64,192,255862,1,0,0:0:0:0:
192,192,255862,1,0,0:0:0:0:
320,192,255862,1,0,0:0:0:0:
448,192,255862,1,0,0:0:0:0:
320,192,256034,1,0,0:0:0:0:
448,192,256034,1,0,0:0:0:0:
64,192,256207,1,0,0:0:0:0:
192,192,256207,1,0,0:0:0:0:
320,192,256207,1,0,0:0:0:0:
448,192,256207,1,0,0:0:0:0:
64,192,256379,1,0,0:0:0:0:
192,192,256379,1,0,0:0:0:0:
64,192,256551,1,0,0:0:0:0:
192,192,256551,1,0,0:0:0:0:
320,192,256551,1,0,0:0:0:0:
448,192,256551,1,0,0:0:0:0:
64,192,256724,1,0,0:0:0:0:
192,192,256724,1,0,0:0:0:0:
64,192,256896,1,0,0:0:0:0:
192,192,256896,1,0,0:0:0:0:
320,192,256896,1,0,0:0:0:0:
448,192,256896,1,0,0:0:0:0:
64,192,257069,1,0,0:0:0:0:
448,192,257069,1,0,0:0:0:0:
64,192,257241,1,0,0:0:0:0:
192,192,257241,1,0,0:0:0:0:
320,192,257241,1,0,0:0:0:0:
448,192,257241,1,0,0:0:0:0:
64,192,257414,1,0,0:0:0:0:
448,192,257414,1,0,0:0:0:0:
64,192,257586,1,0,0:0:0:0:
192,192,257586,1,0,0:0:0:0:
320,192,257586,1,0,0:0:0:0:
448,192,257586,1,0,0:0:0:0:
64,192,257758,1,0,0:0:0:0:
320,192,257758,1,0,0:0:0:0:
64,192,257931,1,0,0:0:0:0:
192,192,257931,1,0,0:0:0:0:
320,192,257931,1,0,0:0:0:0:
448,192,257931,1,0,0:0:0:0:
64,192,258103,1,0,0:0:0:0:
320,192,258103,1,0,0:0:0:0:
64,192,258276,1,0,0:0:0:0:
192,192,258276,1,0,0:0:0:0:
320,192,258276,1,0,0:0:0:0:
448,192,258276,1,0,0:0:0:0:
64,192,258448,1,0,0:0:0:0:
320,192,258448,1,0,0:0:0:0:
64,192,258620,1,0,0:0:0:0:
192,192,258620,1,0,0:0:0:0:
320,192,258620,1,0,0:0:0:0:
448,192,258620,1,0,0:0:0:0:
64,192,258793,1,0,0:0:0:0:
192,192,258793,1,0,0:0:0:0:
64,192,258965,1,0,0:0:0:0:
192,192,258965,1,0,0:0:0:0:
320,192,258965,1,0,0:0:0:0:
448,192,258965,1,0,0:0:0:0:
192,192,259138,1,0,0:0:0:0:
320,192,259138,1,0,0:0:0:0:
64,192,259310,1,0,0:0:0:0:
192,192,259310,1,0,0:0:0:0:
320,192,259310,1,0,0:0:0:0:
448,192,259310,1,0,0:0:0:0:
192,192,259482,1,0,0:0:0:0:
320,192,259482,1,0,0:0:0:0:
64,192,259655,1,0,0:0:0:0:
192,192,259655,1,0,0:0:0:0:
320,192,259655,1,0,0:0:0:0:
448,192,259655,1,0,0:0:0:0:
64,192,259827,1,0,0:0:0:0:
192,192,259827,1,0,0:0:0:0:
64,192,260000,1,0,0:0:0:0:
192,192,260000,1,0,0:0:0:0:
320,192,260000,1,0,0:0:0:0:
448,192,260000,1,0,0:0:0:0:
64,192,260172,1,0,0:0:0:0:
192,192,260172,1,0,0:0:0:0:
64,192,260344,1,0,0:0:0:0:
192,192,260344,1,0,0:0:0:0:
320,192,260344,1,0,0:0:0:0:
448,192,260344,1,0,0:0:0:0:
320,192,260517,1,0,0:0:0:0:
448,192,260517,1,0,0:0:0:0:
64,192,260689,1,0,0:0:0:0:
192,192,260689,1,0,0:0:0:0:
320,192,260689,1,0,0:0:0:0:
448,192,260689,1,0,0:0:0:0:
192,192,260862,1,0,0:0:0:0:
448,192,260862,1,0,0:0:0:0:
64,192,261034,1,0,0:0:0:0:
192,192,261034,1,0,0:0:0:0:
320,192,261034,1,0,0:0:0:0:
448,192,261034,1,0,0:0:0:0:
64,192,261206,1,0,0:0:0:0:
320,192,261206,1,0,0:0:0:0:
64,192,261379,1,0,0:0:0:0:
192,192,261379,1,0,0:0:0:0:
320,192,261379,1,0,0:0:0:0:
448,192,261379,1,0,0:0:0:0:
64,192,261551,1,0,0:0:0:0:
320,192,261551,1,0,0:0:0:0:
64,192,261724,1,0,0:0:0:0:
192,192,261724,1,0,0:0:0:0:
320,192,261724,1,0,0:0:0:0:
448,192,261724,1,0,0:0:0:0:
64,192,261896,1,0,0:0:0:0:
320,192,261896,1,0,0:0:0:0:
64,192,262068,1,0,0:0:0:0:
192,192,262068,1,0,0:0:0:0:
320,192,262068,1,0,0:0:0:0:
448,192,262068,1,0,0:0:0:0:
64,192,262241,1,0,0:0:0:0:
320,192,262241,1,0,0:0:0:0:
64,192,262413,1,0,0:0:0:0:
192,192,262413,1,0,0:0:0:0:
320,192,262413,1,0,0:0:0:0:
448,192,262413,1,0,0:0:0:0:
192,192,262586,1,0,0:0:0:0:
320,192,262586,1,0,0:0:0:0:
64,192,262758,1,0,0:0:0:0:
192,192,262758,1,0,0:0:0:0:
320,192,262758,1,0,0:0:0:0:
448,192,262758,1,0,0:0:0:0:
64,192,262931,1,0,0:0:0:0:
320,192,262931,1,0,0:0:0:0:
64,192,263103,1,0,0:0:0:0:
192,192,263103,1,0,0:0:0:0:
320,192,263103,1,0,0:0:0:0:
448,192,263103,1,0,0:0:0:0:
64,192,263275,1,0,0:0:0:0:
192,192,263275,1,0,0:0:0:0:
448,192,263275,1,0,0:0:0:0:
64,192,263448,1,0,0:0:0:0:
192,192,263448,1,0,0:0:0:0:
320,192,263448,1,0,0:0:0:0:
448,192,263448,1,0,0:0:0:0:
64,0,263620,128,0,263793:1:0:0:0:
192,0,263793,128,0,263965:1:0:0:0:
320,0,263965,128,0,264138:1:0:0:0:
192,192,264138,1,0,0:0:0:0:
448,192,264138,1,0,0:0:0:0:
192,192,264310,1,0,0:0:0:0:
64,0,264310,128,0,264482:1:0:0:0:
320,192,264482,1,0,0:0:0:0:
448,192,264482,1,0,0:0:0:0:
192,0,264482,128,0,264655:1:0:0:0:
64,192,264655,1,0,0:0:0:0:
448,192,264655,1,0,0:0:0:0:
320,0,264655,128,0,264741:1:0:0:0:
64,192,264827,1,0,0:0:0:0:
192,192,264827,1,0,0:0:0:0:
320,192,264827,1,0,0:0:0:0:
448,0,264827,128,0,265000:1:0:0:0:
64,192,265000,1,0,0:0:0:0:
192,0,265000,128,0,265172:1:0:0:0:
64,192,265172,1,0,0:0:0:0:
320,192,265172,1,0,0:0:0:0:
448,0,265172,128,0,265344:1:0:0:0:
64,192,265344,1,0,0:0:0:0:
192,0,265344,128,0,265517:1:0:0:0:
64,192,265517,1,0,0:0:0:0:
320,192,265517,1,0,0:0:0:0:
448,0,265517,128,0,265689:1:0:0:0:
320,192,265689,1,0,0:0:0:0:
192,0,265689,128,0,265862:1:0:0:0:
64,192,265862,1,0,0:0:0:0:
320,192,265862,1,0,0:0:0:0:
448,0,265862,128,0,266034:1:0:0:0:
192,192,266034,1,0,0:0:0:0:
320,0,266034,128,0,266379:1:0:0:0:
64,192,266207,1,0,0:0:0:0:
192,192,266207,1,0,0:0:0:0:
64,192,266379,1,0,0:0:0:0:
448,0,266379,128,0,266551:1:0:0:0:
64,192,266551,1,0,0:0:0:0:
320,192,266551,1,0,0:0:0:0:
192,0,266551,128,0,266724:1:0:0:0:
448,192,266724,1,0,0:0:0:0:
64,0,266724,128,0,267069:1:0:0:0:
320,192,266896,1,0,0:0:0:0:
448,192,266896,1,0,0:0:0:0:
192,192,267069,1,0,0:0:0:0:
320,0,267069,128,0,267241:1:0:0:0:
64,192,267241,1,0,0:0:0:0:
448,192,267241,1,0,0:0:0:0:
192,0,267241,128,0,267413:1:0:0:0:
320,192,267413,1,0,0:0:0:0:
64,0,267413,128,0,267586:1:0:0:0:
192,192,267586,1,0,0:0:0:0:
448,192,267586,1,0,0:0:0:0:
320,0,267586,128,0,267758:1:0:0:0:
448,192,267758,1,0,0:0:0:0:
64,0,267758,128,0,267931:1:0:0:0:
192,192,267931,1,0,0:0:0:0:
448,192,267931,1,0,0:0:0:0:
320,0,267931,128,0,268103:1:0:0:0:
192,192,268103,1,0,0:0:0:0:
64,0,268103,128,0,268275:1:0:0:0:
192,192,268275,1,0,0:0:0:0:
448,192,268275,1,0,0:0:0:0:
320,0,268275,128,0,268448:1:0:0:0:
192,192,268448,1,0,0:0:0:0:
64,0,268448,128,0,268620:1:0:0:0:
320,192,268620,1,0,0:0:0:0:
448,192,268620,1,0,0:0:0:0:
192,0,268620,128,0,268793:1:0:0:0:
64,192,268793,1,0,0:0:0:0:
320,0,268793,128,0,269137:1:0:0:0:
192,192,268965,1,0,0:0:0:0:
448,192,268965,1,0,0:0:0:0:
192,192,269137,1,0,0:0:0:0:
64,0,269137,128,0,269310:1:0:0:0:
320,192,269310,1,0,0:0:0:0:
448,192,269310,1,0,0:0:0:0:
192,0,269310,128,0,269482:1:0:0:0:
64,192,269482,1,0,0:0:0:0:
320,0,269482,128,0,269827:1:0:0:0:
192,192,269655,1,0,0:0:0:0:
448,192,269655,1,0,0:0:0:0:
192,192,269827,1,0,0:0:0:0:
64,0,269827,128,0,269999:1:0:0:0:
320,192,269999,1,0,0:0:0:0:
448,192,269999,1,0,0:0:0:0:
192,0,269999,128,0,270172:1:0:0:0:
448,192,270172,1,0,0:0:0:0:
320,0,270172,128,0,270344:1:0:0:0:
64,192,270344,1,0,0:0:0:0:
192,192,270344,1,0,0:0:0:0:
448,0,270344,128,0,270517:1:0:0:0:
320,192,270517,1,0,0:0:0:0:
192,0,270517,128,0,270689:1:0:0:0:
64,192,270689,1,0,0:0:0:0:
320,192,270689,1,0,0:0:0:0:
448,0,270689,128,0,270861:1:0:0:0:
64,192,270861,1,0,0:0:0:0:
192,0,270861,128,0,271034:1:0:0:0:
64,192,271034,1,0,0:0:0:0:
320,192,271034,1,0,0:0:0:0:
448,0,271034,128,0,271206:1:0:0:0:
320,192,271206,1,0,0:0:0:0:
192,0,271206,128,0,271379:1:0:0:0:
64,192,271379,1,0,0:0:0:0:
320,192,271379,1,0,0:0:0:0:
448,0,271379,128,0,271551:1:0:0:0:
64,192,271551,1,0,0:0:0:0:
320,0,271551,128,0,271896:1:0:0:0:
64,192,271724,1,0,0:0:0:0:
192,192,271724,1,0,0:0:0:0:
192,192,271896,1,0,0:0:0:0:
448,0,271896,128,0,272068:1:0:0:0:
64,192,272068,1,0,0:0:0:0:
320,192,272068,1,0,0:0:0:0:
192,0,272068,128,0,272241:1:0:0:0:
320,192,272241,1,0,0:0:0:0:
64,0,272241,128,0,272413:1:0:0:0:
320,192,272413,1,0,0:0:0:0:
448,192,272413,1,0,0:0:0:0:
192,0,272413,128,0,272586:1:0:0:0:
64,192,272586,1,0,0:0:0:0:
320,0,272586,128,0,272758:1:0:0:0:
64,192,272758,1,0,0:0:0:0:
192,192,272758,1,0,0:0:0:0:
448,0,272758,128,0,272930:1:0:0:0:
320,192,272930,1,0,0:0:0:0:
64,0,272930,128,0,273103:1:0:0:0:
192,192,273103,1,0,0:0:0:0:
320,192,273103,1,0,0:0:0:0:
448,0,273103,128,0,273275:1:0:0:0:
64,192,273275,1,0,0:0:0:0:
320,0,273275,128,0,273448:1:0:0:0:
64,192,273448,1,0,0:0:0:0:
192,192,273448,1,0,0:0:0:0:
448,0,273448,128,0,273620:1:0:0:0:
192,192,273620,1,0,0:0:0:0:
320,0,273620,128,0,273792:1:0:0:0:
64,192,273792,1,0,0:0:0:0:
192,192,273792,1,0,0:0:0:0:
448,0,273792,128,0,273965:1:0:0:0:
192,192,273965,1,0,0:0:0:0:
320,0,273965,128,0,274137:1:0:0:0:
64,192,274137,1,0,0:0:0:0:
192,192,274137,1,0,0:0:0:0:
448,0,274137,128,0,274310:1:0:0:0:
320,192,274310,1,0,0:0:0:0:
192,0,274310,128,0,274654:1:0:0:0:
64,192,274482,1,0,0:0:0:0:
448,192,274482,1,0,0:0:0:0:
320,192,274654,1,0,0:0:0:0:
64,0,274654,128,0,274827:1:0:0:0:
320,192,274827,1,0,0:0:0:0:
448,192,274827,1,0,0:0:0:0:
192,0,274827,128,0,274999:1:0:0:0:
64,192,274999,1,0,0:0:0:0:
320,0,274999,128,0,275344:1:0:0:0:
64,192,275172,1,0,0:0:0:0:
448,192,275172,1,0,0:0:0:0:
64,192,275344,1,0,0:0:0:0:
192,0,275344,128,0,275517:1:0:0:0:
64,192,275517,1,0,0:0:0:0:
448,192,275517,1,0,0:0:0:0:
320,0,275517,128,0,275689:1:0:0:0:
64,192,275689,1,0,0:0:0:0:
192,192,275689,1,0,0:0:0:0:
448,0,275689,128,0,275775:1:0:0:0:
64,192,275862,1,0,0:0:0:0:
192,192,275862,1,0,0:0:0:0:
320,192,275862,1,0,0:0:0:0:
448,0,275862,128,0,276034:1:0:0:0:
64,192,276034,1,0,0:0:0:0:
192,0,276034,128,0,276206:1:0:0:0:
64,192,276206,1,0,0:0:0:0:
320,192,276206,1,0,0:0:0:0:
448,0,276206,128,0,276379:1:0:0:0:
320,192,276379,1,0,0:0:0:0:
192,0,276379,128,0,276551:1:0:0:0:
64,192,276551,1,0,0:0:0:0:
320,192,276551,1,0,0:0:0:0:
448,0,276551,128,0,276724:1:0:0:0:
64,192,276724,1,0,0:0:0:0:
192,0,276724,128,0,276896:1:0:0:0:
64,192,276896,1,0,0:0:0:0:
320,192,276896,1,0,0:0:0:0:
448,0,276896,128,0,277068:1:0:0:0:
192,192,277068,1,0,0:0:0:0:
320,0,277068,128,0,277413:1:0:0:0:
64,192,277241,1,0,0:0:0:0:
192,192,277241,1,0,0:0:0:0:
192,192,277413,1,0,0:0:0:0:
448,0,277413,128,0,277586:1:0:0:0:
64,192,277586,1,0,0:0:0:0:
320,192,277586,1,0,0:0:0:0:
192,0,277586,128,0,277758:1:0:0:0:
320,192,277758,1,0,0:0:0:0:
64,0,277758,128,0,277930:1:0:0:0:
320,192,277930,1,0,0:0:0:0:
448,192,277930,1,0,0:0:0:0:
192,0,277930,128,0,278103:1:0:0:0:
64,192,278103,1,0,0:0:0:0:
448,0,278103,128,0,278275:1:0:0:0:
64,192,278275,1,0,0:0:0:0:
192,192,278275,1,0,0:0:0:0:
320,0,278275,128,0,278448:1:0:0:0:
64,192,278448,1,0,0:0:0:0:
192,0,278448,128,0,278620:1:0:0:0:
64,192,278620,1,0,0:0:0:0:
448,192,278620,1,0,0:0:0:0:
320,0,278620,128,0,278792:1:0:0:0:
448,192,278792,1,0,0:0:0:0:
64,0,278792,128,0,278965:1:0:0:0:
192,192,278965,1,0,0:0:0:0:
448,192,278965,1,0,0:0:0:0:
320,0,278965,128,0,279137:1:0:0:0:
192,192,279137,1,0,0:0:0:0:
64,0,279137,128,0,279310:1:0:0:0:
192,192,279310,1,0,0:0:0:0:
448,192,279310,1,0,0:0:0:0:
320,0,279310,128,0,279482:1:0:0:0:
192,192,279482,1,0,0:0:0:0:
64,0,279482,128,0,279654:1:0:0:0:
192,192,279654,1,0,0:0:0:0:
448,192,279654,1,0,0:0:0:0:
320,0,279654,128,0,279827:1:0:0:0:
64,192,279827,1,0,0:0:0:0:
448,0,279827,128,0,280172:1:0:0:0:
64,192,279999,1,0,0:0:0:0:
192,192,279999,1,0,0:0:0:0:
320,192,280172,1,0,0:0:0:0:
64,0,280172,128,0,280344:1:0:0:0:
320,192,280344,1,0,0:0:0:0:
448,192,280344,1,0,0:0:0:0:
192,0,280344,128,0,280517:1:0:0:0:
64,192,280517,1,0,0:0:0:0:
320,0,280517,128,0,280861:1:0:0:0:
192,192,280689,1,0,0:0:0:0:
448,192,280689,1,0,0:0:0:0:
64,192,280861,1,0,0:0:0:0:
192,0,280861,128,0,281034:1:0:0:0:
64,192,281034,1,0,0:0:0:0:
448,192,281034,1,0,0:0:0:0:
320,0,281034,128,0,281206:1:0:0:0:
192,192,281206,1,0,0:0:0:0:
448,0,281206,128,0,281293:1:0:0:0:
64,192,281379,1,0,0:0:0:0:
320,192,281379,1,0,0:0:0:0:
448,0,281379,128,0,281551:1:0:0:0:
320,192,281551,1,0,0:0:0:0:
192,0,281551,128,0,281724:1:0:0:0:
64,192,281724,1,0,0:0:0:0:
320,192,281724,1,0,0:0:0:0:
448,0,281724,128,0,281896:1:0:0:0:
320,192,281896,1,0,0:0:0:0:
192,0,281896,128,0,282068:1:0:0:0:
64,192,282068,1,0,0:0:0:0:
320,192,282068,1,0,0:0:0:0:
448,0,282068,128,0,282241:1:0:0:0:
64,192,282241,1,0,0:0:0:0:
192,0,282241,128,0,282413:1:0:0:0:
64,192,282413,1,0,0:0:0:0:
320,192,282413,1,0,0:0:0:0:
448,0,282413,128,0,282586:1:0:0:0:
64,192,282586,1,0,0:0:0:0:
320,0,282586,128,0,282930:1:0:0:0:
64,192,282758,1,0,0:0:0:0:
192,192,282758,1,0,0:0:0:0:
64,192,282930,1,0,0:0:0:0:
448,0,282930,128,0,283103:1:0:0:0:
64,192,283103,1,0,0:0:0:0:
320,192,283103,1,0,0:0:0:0:
192,0,283103,128,0,283275:1:0:0:0:
320,192,283275,1,0,0:0:0:0:
64,0,283275,128,0,283448:1:0:0:0:
192,192,283448,1,0,0:0:0:0:
448,192,283448,1,0,0:0:0:0:
320,0,283448,128,0,283620:1:0:0:0:
448,192,283620,1,0,0:0:0:0:
64,0,283620,128,0,283792:1:0:0:0:
320,192,283792,1,0,0:0:0:0:
448,192,283792,1,0,0:0:0:0:
192,0,283792,128,0,283965:1:0:0:0:
448,192,283965,1,0,0:0:0:0:
320,0,283965,128,0,284137:1:0:0:0:
64,192,284137,1,0,0:0:0:0:
192,192,284137,1,0,0:0:0:0:
448,0,284137,128,0,284310:1:0:0:0:
64,192,284310,1,0,0:0:0:0:
320,0,284310,128,0,284482:1:0:0:0:
64,192,284482,1,0,0:0:0:0:
192,192,284482,1,0,0:0:0:0:
448,0,284482,128,0,284655:1:0:0:0:
192,192,284655,1,0,0:0:0:0:
320,0,284655,128,0,284827:1:0:0:0:
64,192,284827,1,0,0:0:0:0:
192,192,284827,1,0,0:0:0:0:
448,0,284827,128,0,284999:1:0:0:0:
64,192,284999,1,0,0:0:0:0:
320,0,284999,128,0,285172:1:0:0:0:
64,192,285172,1,0,0:0:0:0:
192,192,285172,1,0,0:0:0:0:
448,0,285172,128,0,285344:1:0:0:0:
64,192,285344,1,0,0:0:0:0:
192,0,285344,128,0,285689:1:0:0:0:
448,192,285431,1,0,0:0:0:0:
64,192,285517,1,0,0:0:0:0:
320,192,285517,1,0,0:0:0:0:
448,192,285517,1,0,0:0:0:0:
320,192,285689,1,0,0:0:0:0:
64,0,285689,128,0,285862:1:0:0:0:
448,192,285775,1,0,0:0:0:0:
320,192,285862,1,0,0:0:0:0:
448,192,285862,1,0,0:0:0:0:
192,0,285862,128,0,286034:1:0:0:0:
64,192,286034,1,0,0:0:0:0:
320,0,286034,128,0,286379:1:0:0:0:
64,192,286207,1,0,0:0:0:0:
448,192,286207,1,0,0:0:0:0:
64,192,286379,1,0,0:0:0:0:
192,0,286379,128,0,286551:1:0:0:0:
448,192,286465,1,0,0:0:0:0:
64,192,286551,1,0,0:0:0:0:
448,192,286551,1,0,0:0:0:0:
320,0,286551,128,0,286724:1:0:0:0:
192,192,286724,1,0,0:0:0:0:
448,0,286724,128,0,286810:1:0:0:0:
64,192,286810,1,0,0:0:0:0:
64,192,286896,1,0,0:0:0:0:
192,192,286896,1,0,0:0:0:0:
320,192,286896,1,0,0:0:0:0:
448,0,286896,128,0,287069:1:0:0:0:
64,192,287069,1,0,0:0:0:0:
192,0,287069,128,0,287241:1:0:0:0:
64,192,287241,1,0,0:0:0:0:
320,192,287241,1,0,0:0:0:0:
448,0,287241,128,0,287414:1:0:0:0:
320,192,287414,1,0,0:0:0:0:
192,0,287414,128,0,287586:1:0:0:0:
64,192,287500,1,0,0:0:0:0:
64,192,287586,1,0,0:0:0:0:
320,192,287586,1,0,0:0:0:0:
448,0,287586,128,0,287758:1:0:0:0:
64,192,287758,1,0,0:0:0:0:
192,0,287758,128,0,287931:1:0:0:0:
64,192,287931,1,0,0:0:0:0:
320,192,287931,1,0,0:0:0:0:
448,0,287931,128,0,288103:1:0:0:0:
64,192,288103,1,0,0:0:0:0:
320,0,288103,128,0,288448:1:0:0:0:
64,192,288276,1,0,0:0:0:0:
192,192,288276,1,0,0:0:0:0:
64,192,288448,1,0,0:0:0:0:
448,0,288448,128,0,288621:1:0:0:0:
64,192,288621,1,0,0:0:0:0:
320,192,288621,1,0,0:0:0:0:
192,0,288621,128,0,288793:1:0:0:0:
320,192,288793,1,0,0:0:0:0:
64,0,288793,128,0,288966:1:0:0:0:
448,192,288879,1,0,0:0:0:0:
320,192,288966,1,0,0:0:0:0:
448,192,288966,1,0,0:0:0:0:
192,0,288966,128,0,289138:1:0:0:0:
320,192,289138,1,0,0:0:0:0:
448,0,289138,128,0,289310:1:0:0:0:
64,192,289310,1,0,0:0:0:0:
192,192,289310,1,0,0:0:0:0:
320,0,289310,128,0,289483:1:0:0:0:
64,192,289483,1,0,0:0:0:0:
192,0,289483,128,0,289655:1:0:0:0:
64,192,289655,1,0,0:0:0:0:
448,192,289655,1,0,0:0:0:0:
320,0,289655,128,0,289828:1:0:0:0:
192,192,289828,1,0,0:0:0:0:
64,0,289828,128,0,290000:1:0:0:0:
192,192,290000,1,0,0:0:0:0:
448,192,290000,1,0,0:0:0:0:
320,0,290000,128,0,290173:1:0:0:0:
192,192,290173,1,0,0:0:0:0:
64,0,290173,128,0,290345:1:0:0:0:
448,192,290259,1,0,0:0:0:0:
192,192,290345,1,0,0:0:0:0:
448,192,290345,1,0,0:0:0:0:
320,0,290345,128,0,290517:1:0:0:0:
192,192,290517,1,0,0:0:0:0:
64,0,290517,128,0,290690:1:0:0:0:
192,192,290690,1,0,0:0:0:0:
448,192,290690,1,0,0:0:0:0:
320,0,290690,128,0,290862:1:0:0:0:
64,192,290862,1,0,0:0:0:0:
448,0,290862,128,0,291207:1:0:0:0:
192,192,291035,1,0,0:0:0:0:
320,192,291035,1,0,0:0:0:0:
192,192,291207,1,0,0:0:0:0:
64,0,291207,128,0,291380:1:0:0:0:
320,192,291380,1,0,0:0:0:0:
448,192,291380,1,0,0:0:0:0:
192,0,291380,128,0,291552:1:0:0:0:
64,192,291552,1,0,0:0:0:0:
320,0,291552,128,0,291897:1:0:0:0:
448,192,291638,1,0,0:0:0:0:
64,192,291725,1,0,0:0:0:0:
192,192,291725,1,0,0:0:0:0:
448,192,291725,1,0,0:0:0:0:
64,192,291897,1,0,0:0:0:0:
192,0,291897,128,0,292069:1:0:0:0:
64,192,292069,1,0,0:0:0:0:
448,192,292069,1,0,0:0:0:0:
320,0,292069,128,0,292242:1:0:0:0:
192,192,292242,1,0,0:0:0:0:
448,0,292242,128,0,292328:1:0:0:0:
64,192,292414,1,0,0:0:0:0:
192,192,292414,1,0,0:0:0:0:
448,0,292414,128,0,292587:1:0:0:0:
320,192,292587,1,0,0:0:0:0:
192,0,292587,128,0,292759:1:0:0:0:
64,192,292759,1,0,0:0:0:0:
320,192,292759,1,0,0:0:0:0:
448,0,292759,128,0,292932:1:0:0:0:
64,192,292932,1,0,0:0:0:0:
192,0,292932,128,0,293104:1:0:0:0:
320,192,293018,1,0,0:0:0:0:
64,192,293104,1,0,0:0:0:0:
320,192,293104,1,0,0:0:0:0:
448,0,293104,128,0,293276:1:0:0:0:
320,192,293276,1,0,0:0:0:0:
192,0,293276,128,0,293449:1:0:0:0:
64,192,293449,1,0,0:0:0:0:
320,192,293449,1,0,0:0:0:0:
448,0,293449,128,0,293621:1:0:0:0:
64,192,293621,1,0,0:0:0:0:
320,0,293621,128,0,293966:1:0:0:0:
64,192,293794,1,0,0:0:0:0:
192,192,293794,1,0,0:0:0:0:
192,192,293966,1,0,0:0:0:0:
448,0,293966,128,0,294139:1:0:0:0:
64,192,294139,1,0,0:0:0:0:
320,192,294139,1,0,0:0:0:0:
192,0,294139,128,0,294311:1:0:0:0:
320,192,294311,1,0,0:0:0:0:
64,0,294311,128,0,294484:1:0:0:0:
448,192,294397,1,0,0:0:0:0:
192,192,294484,1,0,0:0:0:0:
448,192,294484,1,0,0:0:0:0:
320,0,294484,128,0,294656:1:0:0:0:
448,192,294656,1,0,0:0:0:0:
64,0,294656,128,0,294828:1:0:0:0:
320,192,294828,1,0,0:0:0:0:
448,192,294828,1,0,0:0:0:0:
192,0,294828,128,0,295001:1:0:0:0:
448,192,295001,1,0,0:0:0:0:
320,0,295001,128,0,295173:1:0:0:0:
64,192,295173,1,0,0:0:0:0:
192,192,295173,1,0,0:0:0:0:
448,0,295173,128,0,295346:1:0:0:0:
64,192,295346,1,0,0:0:0:0:
320,0,295346,128,0,295518:1:0:0:0:
64,192,295518,1,0,0:0:0:0:
192,192,295518,1,0,0:0:0:0:
448,0,295518,128,0,295691:1:0:0:0:
64,192,295691,1,0,0:0:0:0:
320,0,295691,128,0,295863:1:0:0:0:
448,192,295777,1,0,0:0:0:0:
64,192,295863,1,0,0:0:0:0:
192,192,295863,1,0,0:0:0:0:
448,0,295863,128,0,296035:1:0:0:0:
192,192,296035,1,0,0:0:0:0:
320,0,296035,128,0,296208:1:0:0:0:
64,192,296208,1,0,0:0:0:0:
192,192,296208,1,0,0:0:0:0:
448,0,296208,128,0,296380:1:0:0:0:
320,192,296380,1,0,0:0:0:0:
192,0,296380,128,0,296725:1:0:0:0:
64,192,296553,1,0,0:0:0:0:
320,192,296553,1,0,0:0:0:0:
320,192,296725,1,0,0:0:0:0:
64,0,296725,128,0,296898:1:0:0:0:
320,192,296898,1,0,0:0:0:0:
448,192,296898,1,0,0:0:0:0:
192,0,296898,128,0,297070:1:0:0:0:
64,192,297070,1,0,0:0:0:0:
320,0,297070,128,0,297415:1:0:0:0:
448,192,297156,1,0,0:0:0:0:
64,192,297243,1,0,0:0:0:0:
192,192,297243,1,0,0:0:0:0:
448,192,297243,1,0,0:0:0:0:
64,192,297415,1,0,0:0:0:0:
192,0,297415,128,0,297587:1:0:0:0:
448,192,297501,1,0,0:0:0:0:
64,192,297587,1,0,0:0:0:0:
448,192,297587,1,0,0:0:0:0:
320,0,297587,128,0,297760:1:0:0:0:
64,192,297760,1,0,0:0:0:0:
448,0,297760,128,0,297846:1:0:0:0:
64,192,297932,1,0,0:0:0:0:
192,192,297932,1,0,0:0:0:0:
320,192,297932,1,0,0:0:0:0:
448,0,297932,128,0,298105:1:0:0:0:
320,192,298105,1,0,0:0:0:0:
192,0,298105,128,0,298277:1:0:0:0:
64,192,298277,1,0,0:0:0:0:
320,192,298277,1,0,0:0:0:0:
448,0,298277,128,0,298450:1:0:0:0:
64,192,298450,1,0,0:0:0:0:
192,0,298450,128,0,298622:1:0:0:0:
320,192,298536,1,0,0:0:0:0:
64,192,298622,1,0,0:0:0:0:
320,192,298622,1,0,0:0:0:0:
448,0,298622,128,0,298794:1:0:0:0:
320,192,298794,1,0,0:0:0:0:
192,0,298794,128,0,298967:1:0:0:0:
64,192,298967,1,0,0:0:0:0:
320,192,298967,1,0,0:0:0:0:
448,0,298967,128,0,299139:1:0:0:0:
64,192,299139,1,0,0:0:0:0:
320,0,299139,128,0,299484:1:0:0:0:
64,192,299312,1,0,0:0:0:0:
192,192,299312,1,0,0:0:0:0:
64,192,299484,1,0,0:0:0:0:
448,0,299484,128,0,299657:1:0:0:0:
64,192,299657,1,0,0:0:0:0:
320,192,299657,1,0,0:0:0:0:
192,0,299657,128,0,299829:1:0:0:0:
320,192,299829,1,0,0:0:0:0:
64,0,299829,128,0,300002:1:0:0:0:
448,192,299915,1,0,0:0:0:0:
320,192,300002,1,0,0:0:0:0:
448,192,300002,1,0,0:0:0:0:
192,0,300002,128,0,300174:1:0:0:0:
320,192,300174,1,0,0:0:0:0:
448,0,300174,128,0,300346:1:0:0:0:
64,192,300346,1,0,0:0:0:0:
192,192,300346,1,0,0:0:0:0:
320,0,300346,128,0,300519:1:0:0:0:
64,192,300519,1,0,0:0:0:0:
192,0,300519,128,0,300691:1:0:0:0:
64,192,300691,1,0,0:0:0:0:
448,192,300691,1,0,0:0:0:0:
320,0,300691,128,0,300864:1:0:0:0:
192,192,300864,1,0,0:0:0:0:
64,0,300864,128,0,301036:1:0:0:0:
192,192,301036,1,0,0:0:0:0:
448,192,301036,1,0,0:0:0:0:
320,0,301036,128,0,301209:1:0:0:0:
192,192,301209,1,0,0:0:0:0:
64,0,301209,128,0,301381:1:0:0:0:
448,192,301295,1,0,0:0:0:0:
192,192,301381,1,0,0:0:0:0:
448,192,301381,1,0,0:0:0:0:
320,0,301381,128,0,301553:1:0:0:0:
448,192,301553,1,0,0:0:0:0:
64,0,301553,128,0,301726:1:0:0:0:
192,192,301726,1,0,0:0:0:0:
448,192,301726,1,0,0:0:0:0:
320,0,301726,128,0,301898:1:0:0:0:
192,192,301898,1,0,0:0:0:0:
448,0,301898,128,0,302243:1:0:0:0:
64,192,302071,1,0,0:0:0:0:
192,192,302071,1,0,0:0:0:0:
192,192,302243,1,0,0:0:0:0:
64,0,302243,128,0,302416:1:0:0:0:
320,192,302416,1,0,0:0:0:0:
448,192,302416,1,0,0:0:0:0:
192,0,302416,128,0,302588:1:0:0:0:
64,192,302588,1,0,0:0:0:0:
320,0,302588,128,0,302933:1:0:0:0:
448,192,302674,1,0,0:0:0:0:
64,192,302761,1,0,0:0:0:0:
192,192,302761,1,0,0:0:0:0:
448,192,302761,1,0,0:0:0:0:
64,192,302933,1,0,0:0:0:0:
192,0,302933,128,0,303105:1:0:0:0:
64,192,303105,1,0,0:0:0:0:
448,192,303105,1,0,0:0:0:0:
320,0,303105,128,0,303278:1:0:0:0:
64,192,303278,1,0,0:0:0:0:
448,0,303278,128,0,303364:1:0:0:0:
64,192,303450,1,0,0:0:0:0:
192,192,303450,1,0,0:0:0:0:
448,0,303450,128,0,303623:1:0:0:0:
320,192,303623,1,0,0:0:0:0:
192,0,303623,128,0,303795:1:0:0:0:
64,192,303795,1,0,0:0:0:0:
320,192,303795,1,0,0:0:0:0:
448,0,303795,128,0,303968:1:0:0:0:
64,192,303968,1,0,0:0:0:0:
192,0,303968,128,0,304140:1:0:0:0:
320,192,304054,1,0,0:0:0:0:
64,192,304140,1,0,0:0:0:0:
320,192,304140,1,0,0:0:0:0:
448,0,304140,128,0,304312:1:0:0:0:
320,192,304312,1,0,0:0:0:0:
192,0,304312,128,0,304485:1:0:0:0:
64,192,304485,1,0,0:0:0:0:
320,192,304485,1,0,0:0:0:0:
448,0,304485,128,0,304657:1:0:0:0:
64,192,304657,1,0,0:0:0:0:
320,0,304657,128,0,305002:1:0:0:0:
64,192,304830,1,0,0:0:0:0:
192,192,304830,1,0,0:0:0:0:
64,192,305002,1,0,0:0:0:0:
448,0,305002,128,0,305175:1:0:0:0:
64,192,305175,1,0,0:0:0:0:
320,192,305175,1,0,0:0:0:0:
192,0,305175,128,0,305347:1:0:0:0:
320,192,305347,1,0,0:0:0:0:
64,0,305347,128,0,305520:1:0:0:0:
448,192,305433,1,0,0:0:0:0:
192,192,305520,1,0,0:0:0:0:
448,192,305520,1,0,0:0:0:0:
320,0,305520,128,0,305692:1:0:0:0:
192,192,305692,1,0,0:0:0:0:
64,0,305692,128,0,305864:1:0:0:0:
320,192,305864,1,0,0:0:0:0:
448,192,305864,1,0,0:0:0:0:
192,0,305864,128,0,306037:1:0:0:0:
448,192,306037,1,0,0:0:0:0:
320,0,306037,128,0,306209:1:0:0:0:
64,192,306209,1,0,0:0:0:0:
192,192,306209,1,0,0:0:0:0:
448,0,306209,128,0,306382:1:0:0:0:
64,192,306382,1,0,0:0:0:0:
320,0,306382,128,0,306554:1:0:0:0:
64,192,306554,1,0,0:0:0:0:
192,192,306554,1,0,0:0:0:0:
448,0,306554,128,0,306727:1:0:0:0:
64,192,306727,1,0,0:0:0:0:
320,0,306727,128,0,306899:1:0:0:0:
192,192,306813,1,0,0:0:0:0:
64,192,306899,1,0,0:0:0:0:
192,192,306899,1,0,0:0:0:0:
448,0,306899,128,0,307071:1:0:0:0:
192,192,307071,1,0,0:0:0:0:
320,0,307071,128,0,307244:1:0:0:0:
64,192,307244,1,0,0:0:0:0:
192,192,307244,1,0,0:0:0:0:
448,0,307244,128,0,307416:1:0:0:0:
320,192,307416,1,0,0:0:0:0:
192,0,307416,128,0,307761:1:0:0:0:
64,192,307503,1,0,0:0:0:0:
64,192,307589,1,0,0:0:0:0:
320,192,307589,1,0,0:0:0:0:
448,192,307589,1,0,0:0:0:0:
320,192,307761,1,0,0:0:0:0:
64,0,307761,128,0,307934:1:0:0:0:
448,192,307847,1,0,0:0:0:0:
320,192,307934,1,0,0:0:0:0:
448,192,307934,1,0,0:0:0:0:
192,0,307934,128,0,308106:1:0:0:0:
448,192,308106,1,0,0:0:0:0:
320,0,308106,128,0,308451:1:0:0:0:
64,192,308192,1,0,0:0:0:0:
64,192,308279,1,0,0:0:0:0:
192,192,308279,1,0,0:0:0:0:
448,192,308279,1,0,0:0:0:0:
64,192,308451,1,0,0:0:0:0:
192,0,308451,128,0,308623:1:0:0:0:
448,192,308537,1,0,0:0:0:0:
64,192,308623,1,0,0:0:0:0:
448,192,308623,1,0,0:0:0:0:
320,0,308623,128,0,308796:1:0:0:0:
192,192,308796,1,0,0:0:0:0:
448,0,308796,128,0,308882:1:0:0:0:
64,192,308882,1,0,0:0:0:0:
64,192,308968,1,0,0:0:0:0:
192,192,308968,1,0,0:0:0:0:
320,192,308968,1,0,0:0:0:0:
448,0,308968,128,0,309141:1:0:0:0:
320,192,309141,1,0,0:0:0:0:
192,0,309141,128,0,309313:1:0:0:0:
64,192,309313,1,0,0:0:0:0:
320,192,309313,1,0,0:0:0:0:
448,0,309313,128,0,309486:1:0:0:0:
64,192,309486,1,0,0:0:0:0:
192,0,309486,128,0,309658:1:0:0:0:
320,192,309572,1,0,0:0:0:0:
64,192,309658,1,0,0:0:0:0:
320,192,309658,1,0,0:0:0:0:
448,0,309658,128,0,309830:1:0:0:0:
64,192,309830,1,0,0:0:0:0:
192,0,309830,128,0,310003:1:0:0:0:
64,192,310003,1,0,0:0:0:0:
320,192,310003,1,0,0:0:0:0:
448,0,310003,128,0,310175:1:0:0:0:
192,192,310175,1,0,0:0:0:0:
320,0,310175,128,0,310520:1:0:0:0:
64,192,310348,1,0,0:0:0:0:
192,192,310348,1,0,0:0:0:0:
192,192,310520,1,0,0:0:0:0:
448,0,310520,128,0,310693:1:0:0:0:
64,192,310693,1,0,0:0:0:0:
320,192,310693,1,0,0:0:0:0:
192,0,310693,128,0,310865:1:0:0:0:
320,192,310865,1,0,0:0:0:0:
64,0,310865,128,0,311038:1:0:0:0:
448,192,310951,1,0,0:0:0:0:
320,192,311038,1,0,0:0:0:0:
448,192,311038,1,0,0:0:0:0:
192,0,311038,128,0,311210:1:0:0:0:
320,192,311210,1,0,0:0:0:0:
448,0,311210,128,0,311382:1:0:0:0:
64,192,311382,1,0,0:0:0:0:
192,192,311382,1,0,0:0:0:0:
320,0,311382,128,0,311555:1:0:0:0:
448,192,311555,1,0,0:0:0:0:
192,0,311555,128,0,311727:1:0:0:0:
64,192,311727,1,0,0:0:0:0:
448,192,311727,1,0,0:0:0:0:
320,0,311727,128,0,311900:1:0:0:0:
192,192,311900,1,0,0:0:0:0:
64,0,311900,128,0,312072:1:0:0:0:
192,192,312072,1,0,0:0:0:0:
448,192,312072,1,0,0:0:0:0:
320,0,312072,128,0,312245:1:0:0:0:
448,192,312245,1,0,0:0:0:0:
64,0,312245,128,0,312417:1:0:0:0:
192,192,312331,1,0,0:0:0:0:
192,192,312417,1,0,0:0:0:0:
448,192,312417,1,0,0:0:0:0:
320,0,312417,128,0,312589:1:0:0:0:
192,192,312589,1,0,0:0:0:0:
64,0,312589,128,0,312762:1:0:0:0:
192,192,312762,1,0,0:0:0:0:
448,192,312762,1,0,0:0:0:0:
320,0,312762,128,0,312934:1:0:0:0:
64,192,312934,1,0,0:0:0:0:
448,0,312934,128,0,313279:1:0:0:0:
64,192,313107,1,0,0:0:0:0:
192,192,313107,1,0,0:0:0:0:
320,192,313279,1,0,0:0:0:0:
64,0,313279,128,0,313452:1:0:0:0:
320,192,313452,1,0,0:0:0:0:
448,192,313452,1,0,0:0:0:0:
192,0,313452,128,0,313624:1:0:0:0:
64,192,313624,1,0,0:0:0:0:
320,0,313624,128,0,313969:1:0:0:0:
448,192,313710,1,0,0:0:0:0:
64,192,313797,1,0,0:0:0:0:
192,192,313797,1,0,0:0:0:0:
448,192,313797,1,0,0:0:0:0:
64,192,313969,1,0,0:0:0:0:
192,0,313969,128,0,314141:1:0:0:0:
64,192,314141,1,0,0:0:0:0:
448,192,314141,1,0,0:0:0:0:
320,0,314141,128,0,314314:1:0:0:0:
192,192,314314,1,0,0:0:0:0:
448,0,314314,128,0,314400:1:0:0:0:
64,192,314486,1,0,0:0:0:0:
192,192,314486,1,0,0:0:0:0:
320,192,314486,1,0,0:0:0:0:
448,0,314486,128,0,314659:1:0:0:0:
320,192,314659,1,0,0:0:0:0:
192,0,314659,128,0,314831:1:0:0:0:
64,192,314831,1,0,0:0:0:0:
320,192,314831,1,0,0:0:0:0:
448,0,314831,128,0,315004:1:0:0:0:
64,192,315004,1,0,0:0:0:0:
192,0,315004,128,0,315176:1:0:0:0:
320,192,315090,1,0,0:0:0:0:
64,192,315176,1,0,0:0:0:0:
320,192,315176,1,0,0:0:0:0:
448,0,315176,128,0,315348:1:0:0:0:
320,192,315348,1,0,0:0:0:0:
192,0,315348,128,0,315521:1:0:0:0:
64,192,315521,1,0,0:0:0:0:
320,192,315521,1,0,0:0:0:0:
448,0,315521,128,0,315693:1:0:0:0:
64,192,315693,1,0,0:0:0:0:
320,0,315693,128,0,316038:1:0:0:0:
64,192,315866,1,0,0:0:0:0:
192,192,315866,1,0,0:0:0:0:
64,192,316038,1,0,0:0:0:0:
448,0,316038,128,0,316211:1:0:0:0:
64,192,316211,1,0,0:0:0:0:
320,192,316211,1,0,0:0:0:0:
192,0,316211,128,0,316383:1:0:0:0:
320,192,316383,1,0,0:0:0:0:
64,0,316383,128,0,316556:1:0:0:0:
448,192,316469,1,0,0:0:0:0:
192,192,316556,1,0,0:0:0:0:
448,192,316556,1,0,0:0:0:0:
320,0,316556,128,0,316728:1:0:0:0:
192,192,316728,1,0,0:0:0:0:
64,0,316728,128,0,316900:1:0:0:0:
320,192,316900,1,0,0:0:0:0:
448,192,316900,1,0,0:0:0:0:
192,0,316900,128,0,317073:1:0:0:0:
448,192,317073,1,0,0:0:0:0:
320,0,317073,128,0,317245:1:0:0:0:
64,192,317245,1,0,0:0:0:0:
192,192,317245,1,0,0:0:0:0:
448,0,317245,128,0,317418:1:0:0:0:
64,192,317418,1,0,0:0:0:0:
320,0,317418,128,0,317590:1:0:0:0:
64,192,317590,1,0,0:0:0:0:
192,192,317590,1,0,0:0:0:0:
448,0,317590,128,0,317763:1:0:0:0:
64,192,317763,1,0,0:0:0:0:
320,0,317763,128,0,317935:1:0:0:0:
192,192,317849,1,0,0:0:0:0:
64,192,317935,1,0,0:0:0:0:
192,192,317935,1,0,0:0:0:0:
448,0,317935,128,0,318107:1:0:0:0:
192,192,318107,1,0,0:0:0:0:
320,0,318107,128,0,318280:1:0:0:0:
64,192,318280,1,0,0:0:0:0:
192,192,318280,1,0,0:0:0:0:
448,0,318280,128,0,318452:1:0:0:0:
64,192,318452,1,0,0:0:0:0:
192,0,318452,128,0,318797:1:0:0:0:
448,192,318539,1,0,0:0:0:0:
64,192,318625,1,0,0:0:0:0:
320,192,318625,1,0,0:0:0:0:
448,192,318625,1,0,0:0:0:0:
320,192,318797,1,0,0:0:0:0:
64,0,318797,128,0,318970:1:0:0:0:
448,192,318883,1,0,0:0:0:0:
320,192,318970,1,0,0:0:0:0:
448,192,318970,1,0,0:0:0:0:
192,0,318970,128,0,319142:1:0:0:0:
64,192,319142,1,0,0:0:0:0:
320,0,319142,128,0,319487:1:0:0:0:
448,192,319228,1,0,0:0:0:0:
64,192,319315,1,0,0:0:0:0:
192,192,319315,1,0,0:0:0:0:
448,192,319315,1,0,0:0:0:0:
64,192,319487,1,0,0:0:0:0:
192,0,319487,128,0,319659:1:0:0:0:
448,192,319573,1,0,0:0:0:0:
64,192,319659,1,0,0:0:0:0:
448,192,319659,1,0,0:0:0:0:
320,0,319659,128,0,319832:1:0:0:0:
64,192,319832,1,0,0:0:0:0:
448,0,319832,128,0,319918:1:0:0:0:
192,192,319918,1,0,0:0:0:0:
64,192,320004,1,0,0:0:0:0:
192,192,320004,1,0,0:0:0:0:
320,192,320004,1,0,0:0:0:0:
448,0,320004,128,0,320177:1:0:0:0:
64,192,320177,1,0,0:0:0:0:
192,0,320177,128,0,320349:1:0:0:0:
64,192,320349,1,0,0:0:0:0:
320,192,320349,1,0,0:0:0:0:
448,0,320349,128,0,320522:1:0:0:0:
320,192,320522,1,0,0:0:0:0:
192,0,320522,128,0,320694:1:0:0:0:
64,192,320608,1,0,0:0:0:0:
64,192,320694,1,0,0:0:0:0:
320,192,320694,1,0,0:0:0:0:
448,0,320694,128,0,320866:1:0:0:0:
64,192,320866,1,0,0:0:0:0:
192,0,320866,128,0,321039:1:0:0:0:
64,192,321039,1,0,0:0:0:0:
320,192,321039,1,0,0:0:0:0:
448,0,321039,128,0,321211:1:0:0:0:
64,192,321211,1,0,0:0:0:0:
320,0,321211,128,0,321556:1:0:0:0:
192,192,321298,1,0,0:0:0:0:
64,192,321384,1,0,0:0:0:0:
192,192,321384,1,0,0:0:0:0:
64,192,321556,1,0,0:0:0:0:
448,0,321556,128,0,321729:1:0:0:0:
64,192,321729,1,0,0:0:0:0:
320,192,321729,1,0,0:0:0:0:
192,0,321729,128,0,321901:1:0:0:0:
320,192,321901,1,0,0:0:0:0:
64,0,321901,128,0,322074:1:0:0:0:
448,192,321987,1,0,0:0:0:0:
320,192,322074,1,0,0:0:0:0:
448,192,322074,1,0,0:0:0:0:
192,0,322074,128,0,322246:1:0:0:0:
320,192,322246,1,0,0:0:0:0:
448,0,322246,128,0,322418:1:0:0:0:
64,192,322418,1,0,0:0:0:0:
192,192,322418,1,0,0:0:0:0:
320,0,322418,128,0,322591:1:0:0:0:
64,192,322591,1,0,0:0:0:0:
192,0,322591,128,0,322763:1:0:0:0:
448,192,322677,1,0,0:0:0:0:
64,192,322763,1,0,0:0:0:0:
448,192,322763,1,0,0:0:0:0:
320,0,322763,128,0,322936:1:0:0:0:
192,192,322936,1,0,0:0:0:0:
64,0,322936,128,0,323108:1:0:0:0:
192,192,323108,1,0,0:0:0:0:
448,192,323108,1,0,0:0:0:0:
320,0,323108,128,0,323281:1:0:0:0:
448,192,323281,1,0,0:0:0:0:
64,0,323281,128,0,323453:1:0:0:0:
192,192,323367,1,0,0:0:0:0:
192,192,323453,1,0,0:0:0:0:
448,192,323453,1,0,0:0:0:0:
320,0,323453,128,0,323625:1:0:0:0:
192,192,323625,1,0,0:0:0:0:
64,0,323625,128,0,323798:1:0:0:0:
192,192,323798,1,0,0:0:0:0:
448,192,323798,1,0,0:0:0:0:
320,0,323798,128,0,323970:1:0:0:0:
64,192,323970,1,0,0:0:0:0:
448,0,323970,128,0,324315:1:0:0:0:
192,192,324057,1,0,0:0:0:0:
64,192,324143,1,0,0:0:0:0:
192,192,324143,1,0,0:0:0:0:
320,192,324143,1,0,0:0:0:0:
192,192,324315,1,0,0:0:0:0:
64,0,324315,128,0,324488:1:0:0:0:
320,192,324401,1,0,0:0:0:0:
320,192,324488,1,0,0:0:0:0:
448,192,324488,1,0,0:0:0:0:
192,0,324488,128,0,324660:1:0:0:0:
64,192,324660,1,0,0:0:0:0:
320,0,324660,128,0,325005:1:0:0:0:
448,192,324746,1,0,0:0:0:0:
64,192,324833,1,0,0:0:0:0:
192,192,324833,1,0,0:0:0:0:
448,192,324833,1,0,0:0:0:0:
64,192,325005,1,0,0:0:0:0:
192,0,325005,128,0,325177:1:0:0:0:
448,192,325091,1,0,0:0:0:0:
64,192,325177,1,0,0:0:0:0:
448,192,325177,1,0,0:0:0:0:
320,0,325177,128,0,325350:1:0:0:0:
192,192,325350,1,0,0:0:0:0:
448,0,325350,128,0,325436:1:0:0:0:
64,192,325436,1,0,0:0:0:0:
64,192,325522,1,0,0:0:0:0:
192,192,325522,1,0,0:0:0:0:
448,0,325522,128,0,325695:1:0:0:0:
320,192,325695,1,0,0:0:0:0:
192,0,325695,128,0,325867:1:0:0:0:
64,192,325867,1,0,0:0:0:0:
320,192,325867,1,0,0:0:0:0:
448,0,325867,128,0,326040:1:0:0:0:
64,192,326040,1,0,0:0:0:0:
192,0,326040,128,0,326212:1:0:0:0:
320,192,326126,1,0,0:0:0:0:
64,192,326212,1,0,0:0:0:0:
320,192,326212,1,0,0:0:0:0:
448,0,326212,128,0,326384:1:0:0:0:
320,192,326384,1,0,0:0:0:0:
192,0,326384,128,0,326557:1:0:0:0:
64,192,326557,1,0,0:0:0:0:
320,192,326557,1,0,0:0:0:0:
448,0,326557,128,0,326729:1:0:0:0:
320,0,326729,128,0,327074:1:0:0:0:
64,192,326902,1,0,0:0:0:0:
192,192,326902,1,0,0:0:0:0:
64,192,327074,1,0,0:0:0:0:
448,0,327074,128,0,327247:1:0:0:0:
64,192,327247,1,0,0:0:0:0:
320,192,327247,1,0,0:0:0:0:
192,0,327247,128,0,327419:1:0:0:0:
320,192,327419,1,0,0:0:0:0:
64,0,327419,128,0,327592:1:0:0:0:
448,192,327505,1,0,0:0:0:0:
192,192,327592,1,0,0:0:0:0:
448,192,327592,1,0,0:0:0:0:
320,0,327592,128,0,327764:1:0:0:0:
192,192,327764,1,0,0:0:0:0:
64,0,327764,128,0,327936:1:0:0:0:
320,192,327936,1,0,0:0:0:0:
448,192,327936,1,0,0:0:0:0:
192,0,327936,128,0,328109:1:0:0:0:
448,192,328109,1,0,0:0:0:0:
320,0,328109,128,0,328281:1:0:0:0:
64,192,328281,1,0,0:0:0:0:
192,192,328281,1,0,0:0:0:0:
448,0,328281,128,0,328454:1:0:0:0:
64,192,328454,1,0,0:0:0:0:
320,0,328454,128,0,328626:1:0:0:0:
64,192,328626,1,0,0:0:0:0:
192,192,328626,1,0,0:0:0:0:
448,0,328626,128,0,328799:1:0:0:0:
192,192,328799,1,0,0:0:0:0:
320,0,328799,128,0,328971:1:0:0:0:
64,192,328885,1,0,0:0:0:0:
64,192,328971,1,0,0:0:0:0:
192,192,328971,1,0,0:0:0:0:
448,0,328971,128,0,329143:1:0:0:0:
192,192,329143,1,0,0:0:0:0:
320,0,329143,128,0,329316:1:0:0:0:
64,192,329316,1,0,0:0:0:0:
192,192,329316,1,0,0:0:0:0:
448,0,329316,128,0,329488:1:0:0:0:
320,192,329488,1,0,0:0:0:0:
192,0,329488,128,0,329833:1:0:0:0:
64,192,329575,1,0,0:0:0:0:
448,192,329575,1,0,0:0:0:0:
64,192,329661,1,0,0:0:0:0:
320,192,329661,1,0,0:0:0:0:
448,192,329661,1,0,0:0:0:0:
448,192,329833,1,0,0:0:0:0:
64,0,329833,128,0,330006:1:0:0:0:
192,192,329919,1,0,0:0:0:0:
320,192,329919,1,0,0:0:0:0:
320,192,330006,1,0,0:0:0:0:
448,192,330006,1,0,0:0:0:0:
192,0,330006,128,0,330178:1:0:0:0:
448,192,330178,1,0,0:0:0:0:
320,0,330178,128,0,330523:1:0:0:0:
192,192,330264,1,0,0:0:0:0:
64,192,330351,1,0,0:0:0:0:
448,192,330351,1,0,0:0:0:0:
64,192,330523,1,0,0:0:0:0:
192,0,330523,128,0,330695:1:0:0:0:
448,192,330609,1,0,0:0:0:0:
64,192,330695,1,0,0:0:0:0:
448,192,330695,1,0,0:0:0:0:
320,0,330695,128,0,330868:1:0:0:0:
