osu file format v14

[General]
AudioFilename: hanasaku saikyou legend days.ogg
AudioLeadIn: 2
PreviewTime: 43369
Countdown: 0
SampleSet: Normal
StackLeniency: 0.7
Mode: 3
LetterboxInBreaks: 0
SpecialStyle: 0
WidescreenStoryboard: 0

[Editor]
DistanceSpacing: 0.8
BeatDivisor: 4
GridSize: 8
TimelineZoom: 1

[Metadata]
Title:Yolomania Vol. 3B
TitleUnicode:Yolomania Vol. 3B
Artist:Various
ArtistUnicode:Various
Creator:Skwid
Version:Triple Booking - Hanasaku*Saikyou Legend Days (TV Size) [11]
Source:
Tags:Stepmania yolo3b volume
BeatmapID:661575
BeatmapSetID:275645

[Difficulty]
HPDrainRate:8
CircleSize:4
OverallDifficulty:5.5
ApproachRate:10
SliderMultiplier:1.4
SliderTickRate:1

[Events]
//Background and Video events
0,0,"hanasaku saikyou legend days.png",0,0
//Break Periods
//Storyboard Layer 0 (Background)
//Storyboard Layer 1 (Fail)
//Storyboard Layer 2 (Pass)
//Storyboard Layer 3 (Foreground)
//Storyboard Sound Samples

[TimingPoints]
-331,400,4,1,0,15,1,0

[HitObjects]
320,192,69,5,0,0:0:0:0:
448,192,69,1,0,0:0:0:0:
320,192,269,1,0,0:0:0:0:
448,192,269,1,0,0:0:0:0:
320,192,369,1,0,0:0:0:0:
448,192,369,1,0,0:0:0:0:
320,192,469,1,0,0:0:0:0:
448,192,469,1,0,0:0:0:0:
64,192,569,1,0,0:0:0:0:
320,192,669,1,0,0:0:0:0:
448,192,669,1,0,0:0:0:0:
192,192,769,1,0,0:0:0:0:
64,192,869,1,0,0:0:0:0:
320,192,869,1,0,0:0:0:0:
448,192,869,1,0,0:0:0:0:
192,192,1069,1,0,0:0:0:0:
448,192,1169,1,0,0:0:0:0:
64,192,1269,1,0,0:0:0:0:
192,192,1269,1,0,0:0:0:0:
448,192,1369,1,0,0:0:0:0:
448,192,1569,1,0,0:0:0:0:
192,192,1669,1,0,0:0:0:0:
320,192,1669,1,0,0:0:0:0:
64,192,1769,1,0,0:0:0:0:
320,192,1869,1,0,0:0:0:0:
192,192,1969,1,0,0:0:0:0:
320,192,2069,1,0,0:0:0:0:
448,192,2069,1,0,0:0:0:0:
64,192,2169,1,0,0:0:0:0:
192,192,2269,1,0,0:0:0:0:
320,192,2369,1,0,0:0:0:0:
64,192,2469,1,0,0:0:0:0:
448,192,2469,1,0,0:0:0:0:
192,192,2669,1,0,0:0:0:0:
448,192,2769,1,0,0:0:0:0:
64,192,2869,1,0,0:0:0:0:
192,192,2869,1,0,0:0:0:0:
448,192,2969,1,0,0:0:0:0:
448,192,3169,1,0,0:0:0:0:
192,192,3269,1,0,0:0:0:0:
320,192,3269,1,0,0:0:0:0:
64,192,3369,1,0,0:0:0:0:
192,192,3469,1,0,0:0:0:0:
64,192,3569,1,0,0:0:0:0:
320,192,3669,1,0,0:0:0:0:
448,192,3669,1,0,0:0:0:0:
192,192,3869,1,0,0:0:0:0:
320,192,3969,1,0,0:0:0:0:
64,192,4069,1,0,0:0:0:0:
192,192,4069,1,0,0:0:0:0:
192,192,4269,1,0,0:0:0:0:
448,192,4369,1,0,0:0:0:0:
64,192,4469,1,0,0:0:0:0:
192,192,4469,1,0,0:0:0:0:
448,192,4569,1,0,0:0:0:0:
448,192,4769,1,0,0:0:0:0:
192,192,4869,1,0,0:0:0:0:
320,192,4869,1,0,0:0:0:0:
64,192,4969,1,0,0:0:0:0:
320,192,5069,1,0,0:0:0:0:
192,192,5169,1,0,0:0:0:0:
320,192,5269,1,0,0:0:0:0:
448,192,5269,1,0,0:0:0:0:
64,192,5369,1,0,0:0:0:0:
192,192,5469,1,0,0:0:0:0:
320,192,5569,1,0,0:0:0:0:
64,192,5669,1,0,0:0:0:0:
448,192,5669,1,0,0:0:0:0:
192,192,5869,1,0,0:0:0:0:
448,192,5969,1,0,0:0:0:0:
64,192,6069,1,0,0:0:0:0:
192,192,6069,1,0,0:0:0:0:
448,192,6169,1,0,0:0:0:0:
192,192,6369,1,0,0:0:0:0:
64,192,6469,1,0,0:0:0:0:
448,192,6469,1,0,0:0:0:0:
320,192,6569,1,0,0:0:0:0:
448,192,6669,1,0,0:0:0:0:
320,192,6769,1,0,0:0:0:0:
192,192,6869,1,0,0:0:0:0:
448,192,6869,1,0,0:0:0:0:
64,192,6969,1,0,0:0:0:0:
320,192,7069,1,0,0:0:0:0:
192,192,7169,1,0,0:0:0:0:
64,192,7269,1,0,0:0:0:0:
448,192,7269,1,0,0:0:0:0:
192,192,7369,1,0,0:0:0:0:
320,192,7469,1,0,0:0:0:0:
448,192,7569,1,0,0:0:0:0:
64,192,7669,1,0,0:0:0:0:
320,192,7669,1,0,0:0:0:0:
192,192,7769,1,0,0:0:0:0:
320,192,7869,1,0,0:0:0:0:
192,192,7935,1,0,0:0:0:0:
64,192,8002,1,0,0:0:0:0:
448,192,8069,1,0,0:0:0:0:
320,192,8135,1,0,0:0:0:0:
192,192,8202,1,0,0:0:0:0:
448,192,8269,1,0,0:0:0:0:
320,192,8335,1,0,0:0:0:0:
64,192,8402,1,0,0:0:0:0:
448,192,8469,1,0,0:0:0:0:
320,192,8535,1,0,0:0:0:0:
192,192,8602,1,0,0:0:0:0:
448,192,8668,1,0,0:0:0:0:
320,192,8735,1,0,0:0:0:0:
64,192,8802,1,0,0:0:0:0:
448,0,8868,128,0,8968:1:0:0:0:
192,0,9068,128,0,9168:1:0:0:0:
64,192,9268,1,0,0:0:0:0:
192,192,9368,1,0,0:0:0:0:
320,192,9568,1,0,0:0:0:0:
192,192,9668,1,0,0:0:0:0:
448,0,9668,128,0,9768:1:0:0:0:
320,192,9718,1,0,0:0:0:0:
64,192,9768,1,0,0:0:0:0:
192,192,9818,1,0,0:0:0:0:
320,192,9868,1,0,0:0:0:0:
64,192,9968,1,0,0:0:0:0:
448,192,9968,1,0,0:0:0:0:
64,192,10168,1,0,0:0:0:0:
448,192,10168,1,0,0:0:0:0:
64,192,10368,1,0,0:0:0:0:
448,192,10368,1,0,0:0:0:0:
64,192,10468,1,0,0:0:0:0:
320,192,10468,1,0,0:0:0:0:
448,192,10468,1,0,0:0:0:0:
448,192,10668,1,0,0:0:0:0:
320,192,10768,1,0,0:0:0:0:
64,192,10868,1,0,0:0:0:0:
192,192,10868,1,0,0:0:0:0:
64,192,10968,1,0,0:0:0:0:
192,192,11068,1,0,0:0:0:0:
192,192,11168,1,0,0:0:0:0:
320,192,11268,1,0,0:0:0:0:
448,192,11268,1,0,0:0:0:0:
320,192,11468,1,0,0:0:0:0:
448,192,11468,1,0,0:0:0:0:
64,192,11568,1,0,0:0:0:0:
192,192,11668,1,0,0:0:0:0:
320,192,11668,1,0,0:0:0:0:
192,192,11868,1,0,0:0:0:0:
320,192,11868,1,0,0:0:0:0:
64,192,12068,1,0,0:0:0:0:
192,192,12068,1,0,0:0:0:0:
64,192,12268,1,0,0:0:0:0:
320,192,12268,1,0,0:0:0:0:
192,192,12468,1,0,0:0:0:0:
320,192,12468,1,0,0:0:0:0:
192,192,12668,1,0,0:0:0:0:
448,192,12668,1,0,0:0:0:0:
320,192,12868,1,0,0:0:0:0:
448,192,12868,1,0,0:0:0:0:
64,192,13068,1,0,0:0:0:0:
448,192,13068,1,0,0:0:0:0:
320,192,13168,1,0,0:0:0:0:
64,192,13268,1,0,0:0:0:0:
192,192,13268,1,0,0:0:0:0:
320,192,13468,1,0,0:0:0:0:
64,192,13568,1,0,0:0:0:0:
192,192,13568,1,0,0:0:0:0:
320,192,13668,1,0,0:0:0:0:
448,192,13668,1,0,0:0:0:0:
320,192,13868,1,0,0:0:0:0:
320,192,13968,1,0,0:0:0:0:
192,192,14068,1,0,0:0:0:0:
448,192,14068,1,0,0:0:0:0:
64,192,14168,1,0,0:0:0:0:
448,192,14268,1,0,0:0:0:0:
320,192,14368,1,0,0:0:0:0:
64,192,14468,1,0,0:0:0:0:
192,192,14468,1,0,0:0:0:0:
64,192,14568,1,0,0:0:0:0:
320,192,14668,1,0,0:0:0:0:
192,192,14768,1,0,0:0:0:0:
64,192,14868,1,0,0:0:0:0:
448,192,14868,1,0,0:0:0:0:
320,192,14968,1,0,0:0:0:0:
192,192,15068,1,0,0:0:0:0:
320,192,15168,1,0,0:0:0:0:
64,192,15268,1,0,0:0:0:0:
192,192,15268,1,0,0:0:0:0:
448,192,15268,1,0,0:0:0:0:
320,192,15468,1,0,0:0:0:0:
320,192,15568,1,0,0:0:0:0:
64,192,15668,1,0,0:0:0:0:
192,192,15668,1,0,0:0:0:0:
448,192,15668,1,0,0:0:0:0:
192,192,15868,1,0,0:0:0:0:
192,192,15968,1,0,0:0:0:0:
64,192,16068,1,0,0:0:0:0:
320,192,16068,1,0,0:0:0:0:
448,192,16068,1,0,0:0:0:0:
320,192,16268,1,0,0:0:0:0:
320,192,16368,1,0,0:0:0:0:
64,192,16468,1,0,0:0:0:0:
192,192,16468,1,0,0:0:0:0:
448,192,16468,1,0,0:0:0:0:
64,192,16568,1,0,0:0:0:0:
192,192,16568,1,0,0:0:0:0:
64,192,16668,1,0,0:0:0:0:
192,192,16668,1,0,0:0:0:0:
64,192,16768,1,0,0:0:0:0:
192,192,16768,1,0,0:0:0:0:
320,192,16868,1,0,0:0:0:0:
448,192,16868,1,0,0:0:0:0:
192,192,17068,1,0,0:0:0:0:
320,192,17068,1,0,0:0:0:0:
64,192,17268,1,0,0:0:0:0:
192,192,17268,1,0,0:0:0:0:
320,192,17468,1,0,0:0:0:0:
192,192,17668,1,0,0:0:0:0:
448,192,17668,1,0,0:0:0:0:
64,192,17868,1,0,0:0:0:0:
320,192,17868,1,0,0:0:0:0:
64,192,17968,1,0,0:0:0:0:
192,192,18068,1,0,0:0:0:0:
448,192,18068,1,0,0:0:0:0:
320,192,18268,1,0,0:0:0:0:
448,192,18268,1,0,0:0:0:0:
192,192,18368,1,0,0:0:0:0:
64,192,18468,1,0,0:0:0:0:
320,192,18468,1,0,0:0:0:0:
192,192,18668,1,0,0:0:0:0:
448,192,18668,1,0,0:0:0:0:
320,192,18868,1,0,0:0:0:0:
448,192,18868,1,0,0:0:0:0:
64,192,19068,1,0,0:0:0:0:
192,192,19068,1,0,0:0:0:0:
64,192,19268,1,0,0:0:0:0:
448,192,19268,1,0,0:0:0:0:
192,192,19468,1,0,0:0:0:0:
320,192,19468,1,0,0:0:0:0:
64,192,19668,1,0,0:0:0:0:
448,192,19668,1,0,0:0:0:0:
320,192,19868,1,0,0:0:0:0:
64,192,19968,1,0,0:0:0:0:
192,192,19968,1,0,0:0:0:0:
320,192,20068,1,0,0:0:0:0:
448,192,20068,1,0,0:0:0:0:
320,192,20268,1,0,0:0:0:0:
448,192,20268,1,0,0:0:0:0:
192,192,20468,1,0,0:0:0:0:
320,192,20468,1,0,0:0:0:0:
192,192,20668,1,0,0:0:0:0:
320,192,20668,1,0,0:0:0:0:
64,192,20868,1,0,0:0:0:0:
448,192,20868,1,0,0:0:0:0:
64,192,21068,1,0,0:0:0:0:
448,192,21068,1,0,0:0:0:0:
64,192,21268,1,0,0:0:0:0:
192,192,21268,1,0,0:0:0:0:
448,192,21368,1,0,0:0:0:0:
64,192,21468,1,0,0:0:0:0:
192,192,21468,1,0,0:0:0:0:
320,192,21568,1,0,0:0:0:0:
64,192,21668,1,0,0:0:0:0:
192,192,21668,1,0,0:0:0:0:
448,192,21668,1,0,0:0:0:0:
320,192,21868,1,0,0:0:0:0:
320,192,21968,1,0,0:0:0:0:
192,192,22068,1,0,0:0:0:0:
448,192,22068,1,0,0:0:0:0:
64,192,22268,1,0,0:0:0:0:
64,192,22368,1,0,0:0:0:0:
320,192,22468,1,0,0:0:0:0:
448,192,22468,1,0,0:0:0:0:
448,192,22668,1,0,0:0:0:0:
448,192,22768,1,0,0:0:0:0:
192,192,22868,1,0,0:0:0:0:
320,192,22868,1,0,0:0:0:0:
64,192,22968,1,0,0:0:0:0:
192,192,23068,1,0,0:0:0:0:
320,192,23168,1,0,0:0:0:0:
448,192,23168,1,0,0:0:0:0:
64,192,23268,1,0,0:0:0:0:
192,192,23268,1,0,0:0:0:0:
448,192,23268,1,0,0:0:0:0:
64,192,23468,1,0,0:0:0:0:
192,192,23468,1,0,0:0:0:0:
64,192,23568,1,0,0:0:0:0:
192,192,23568,1,0,0:0:0:0:
320,192,23668,1,0,0:0:0:0:
192,192,23768,1,0,0:0:0:0:
64,192,23868,1,0,0:0:0:0:
448,192,23868,1,0,0:0:0:0:
64,192,23968,1,0,0:0:0:0:
448,192,23968,1,0,0:0:0:0:
192,192,24068,1,0,0:0:0:0:
320,192,24268,1,0,0:0:0:0:
448,192,24268,1,0,0:0:0:0:
320,192,24368,1,0,0:0:0:0:
448,192,24368,1,0,0:0:0:0:
64,192,24468,1,0,0:0:0:0:
320,192,24568,1,0,0:0:0:0:
192,192,24668,1,0,0:0:0:0:
448,192,24668,1,0,0:0:0:0:
192,192,24768,1,0,0:0:0:0:
448,192,24768,1,0,0:0:0:0:
320,192,24868,1,0,0:0:0:0:
64,192,25068,1,0,0:0:0:0:
192,192,25068,1,0,0:0:0:0:
64,192,25168,1,0,0:0:0:0:
192,192,25168,1,0,0:0:0:0:
448,192,25268,1,0,0:0:0:0:
192,192,25368,1,0,0:0:0:0:
64,192,25468,1,0,0:0:0:0:
320,192,25468,1,0,0:0:0:0:
64,192,25568,1,0,0:0:0:0:
320,192,25568,1,0,0:0:0:0:
192,192,25668,1,0,0:0:0:0:
448,192,25768,1,0,0:0:0:0:
64,192,25868,1,0,0:0:0:0:
192,192,25868,1,0,0:0:0:0:
64,192,25968,1,0,0:0:0:0:
192,192,25968,1,0,0:0:0:0:
448,192,26068,1,0,0:0:0:0:
448,192,26168,1,0,0:0:0:0:
192,192,26268,1,0,0:0:0:0:
192,192,26368,1,0,0:0:0:0:
64,192,26468,1,0,0:0:0:0:
320,192,26468,1,0,0:0:0:0:
448,192,26468,1,0,0:0:0:0:
192,192,26768,1,0,0:0:0:0:
320,192,26868,1,0,0:0:0:0:
448,192,26868,1,0,0:0:0:0:
64,192,27068,1,0,0:0:0:0:
64,192,27168,1,0,0:0:0:0:
192,192,27268,1,0,0:0:0:0:
320,192,27268,1,0,0:0:0:0:
448,192,27268,1,0,0:0:0:0:
192,192,27468,1,0,0:0:0:0:
448,192,27468,1,0,0:0:0:0:
192,192,27668,1,0,0:0:0:0:
320,192,27668,1,0,0:0:0:0:
64,192,27868,1,0,0:0:0:0:
320,192,27868,1,0,0:0:0:0:
64,192,28068,1,0,0:0:0:0:
192,192,28068,1,0,0:0:0:0:
320,192,28368,1,0,0:0:0:0:
192,192,28468,1,0,0:0:0:0:
448,192,28468,1,0,0:0:0:0:
64,192,28668,1,0,0:0:0:0:
192,192,28668,1,0,0:0:0:0:
64,192,28868,1,0,0:0:0:0:
320,192,28868,1,0,0:0:0:0:
448,192,28868,1,0,0:0:0:0:
192,192,29068,1,0,0:0:0:0:
320,192,29068,1,0,0:0:0:0:
192,192,29268,1,0,0:0:0:0:
448,192,29268,1,0,0:0:0:0:
320,192,29468,1,0,0:0:0:0:
320,192,29568,1,0,0:0:0:0:
64,192,29668,1,0,0:0:0:0:
192,192,29668,1,0,0:0:0:0:
320,192,29968,1,0,0:0:0:0:
64,192,30068,1,0,0:0:0:0:
448,192,30068,1,0,0:0:0:0:
192,192,30268,1,0,0:0:0:0:
192,192,30368,1,0,0:0:0:0:
64,192,30468,1,0,0:0:0:0:
320,192,30468,1,0,0:0:0:0:
448,192,30468,1,0,0:0:0:0:
192,192,30668,1,0,0:0:0:0:
448,192,30668,1,0,0:0:0:0:
192,192,30868,1,0,0:0:0:0:
320,192,30868,1,0,0:0:0:0:
64,192,31068,1,0,0:0:0:0:
320,192,31068,1,0,0:0:0:0:
64,192,31268,1,0,0:0:0:0:
192,192,31268,1,0,0:0:0:0:
448,192,31568,1,0,0:0:0:0:
64,192,31668,1,0,0:0:0:0:
192,192,31668,1,0,0:0:0:0:
192,192,31868,1,0,0:0:0:0:
320,192,31868,1,0,0:0:0:0:
64,192,32069,1,0,0:0:0:0:
320,192,32069,1,0,0:0:0:0:
448,192,32069,1,0,0:0:0:0:
192,192,32269,1,0,0:0:0:0:
320,192,32269,1,0,0:0:0:0:
64,192,32469,1,0,0:0:0:0:
192,192,32469,1,0,0:0:0:0:
192,192,32669,1,0,0:0:0:0:
320,192,32669,1,0,0:0:0:0:
320,192,32769,1,0,0:0:0:0:
64,192,32869,1,0,0:0:0:0:
192,192,32869,1,0,0:0:0:0:
448,192,32869,1,0,0:0:0:0:
64,192,33668,1,0,0:0:0:0:
192,192,33668,1,0,0:0:0:0:
320,192,33668,1,0,0:0:0:0:
64,192,33968,1,0,0:0:0:0:
192,192,33968,1,0,0:0:0:0:
320,192,33968,1,0,0:0:0:0:
64,192,34268,1,0,0:0:0:0:
192,192,34268,1,0,0:0:0:0:
320,192,34268,1,0,0:0:0:0:
192,192,34468,1,0,0:0:0:0:
320,192,34468,1,0,0:0:0:0:
448,0,34468,128,0,34968:1:0:0:0:
192,192,35268,1,0,0:0:0:0:
320,192,35268,1,0,0:0:0:0:
448,192,35268,1,0,0:0:0:0:
192,192,35568,1,0,0:0:0:0:
320,192,35568,1,0,0:0:0:0:
448,192,35568,1,0,0:0:0:0:
192,192,35868,1,0,0:0:0:0:
320,192,35868,1,0,0:0:0:0:
448,192,35868,1,0,0:0:0:0:
64,192,36068,1,0,0:0:0:0:
192,192,36068,1,0,0:0:0:0:
448,192,36068,1,0,0:0:0:0:
320,192,36269,1,0,0:0:0:0:
448,192,36269,1,0,0:0:0:0:
64,192,36369,1,0,0:0:0:0:
192,192,36369,1,0,0:0:0:0:
320,192,36469,1,0,0:0:0:0:
448,192,36469,1,0,0:0:0:0:
192,192,36668,1,0,0:0:0:0:
320,192,36668,1,0,0:0:0:0:
448,192,36668,1,0,0:0:0:0:
64,192,36868,1,0,0:0:0:0:
192,192,36868,1,0,0:0:0:0:
320,192,36868,1,0,0:0:0:0:
320,192,37069,1,0,0:0:0:0:
448,192,37069,1,0,0:0:0:0:
64,192,37169,1,0,0:0:0:0:
192,192,37169,1,0,0:0:0:0:
320,192,37269,1,0,0:0:0:0:
448,192,37269,1,0,0:0:0:0:
64,192,37468,1,0,0:0:0:0:
192,192,37468,1,0,0:0:0:0:
320,192,37468,1,0,0:0:0:0:
192,192,37668,1,0,0:0:0:0:
320,192,37668,1,0,0:0:0:0:
448,192,37668,1,0,0:0:0:0:
64,192,37768,1,0,0:0:0:0:
192,192,37868,1,0,0:0:0:0:
320,192,37968,1,0,0:0:0:0:
64,192,38068,1,0,0:0:0:0:
192,192,38068,1,0,0:0:0:0:
448,192,38068,1,0,0:0:0:0:
320,192,38268,1,0,0:0:0:0:
64,192,38468,1,0,0:0:0:0:
192,192,38468,1,0,0:0:0:0:
448,192,38468,1,0,0:0:0:0:
192,192,38668,1,0,0:0:0:0:
192,192,38768,1,0,0:0:0:0:
320,192,38868,1,0,0:0:0:0:
448,192,38868,1,0,0:0:0:0:
320,192,39068,1,0,0:0:0:0:
320,192,39168,1,0,0:0:0:0:
192,192,39268,1,0,0:0:0:0:
448,192,39268,1,0,0:0:0:0:
64,0,39268,128,0,39301:1:0:0:0:
320,192,39535,1,0,0:0:0:0:
448,192,39535,1,0,0:0:0:0:
64,192,39668,1,0,0:0:0:0:
192,0,39668,128,0,39701:1:0:0:0:
320,192,39935,1,0,0:0:0:0:
448,192,39935,1,0,0:0:0:0:
64,192,40068,1,0,0:0:0:0:
320,0,40068,128,0,40101:1:0:0:0:
320,192,40201,1,0,0:0:0:0:
448,192,40201,1,0,0:0:0:0:
320,192,40335,1,0,0:0:0:0:
448,192,40335,1,0,0:0:0:0:
64,192,40468,1,0,0:0:0:0:
448,0,40468,128,0,40501:1:0:0:0:
320,192,40734,1,0,0:0:0:0:
448,192,40734,1,0,0:0:0:0:
192,192,40868,1,0,0:0:0:0:
64,0,40868,128,0,40901:1:0:0:0:
320,192,41134,1,0,0:0:0:0:
448,192,41134,1,0,0:0:0:0:
64,192,41268,1,0,0:0:0:0:
192,0,41268,128,0,41301:1:0:0:0:
320,192,41534,1,0,0:0:0:0:
448,192,41534,1,0,0:0:0:0:
64,192,41668,1,0,0:0:0:0:
320,0,41668,128,0,41701:1:0:0:0:
320,192,41801,1,0,0:0:0:0:
448,192,41801,1,0,0:0:0:0:
320,192,41934,1,0,0:0:0:0:
448,192,41934,1,0,0:0:0:0:
64,192,42068,1,0,0:0:0:0:
448,0,42068,128,0,42101:1:0:0:0:
320,192,42201,1,0,0:0:0:0:
448,192,42201,1,0,0:0:0:0:
320,192,42334,1,0,0:0:0:0:
448,192,42334,1,0,0:0:0:0:
448,0,42468,128,0,42568:1:0:0:0:
64,0,42668,128,0,42768:1:0:0:0:
64,0,42868,128,0,42968:1:0:0:0:
320,0,43068,128,0,43168:1:0:0:0:
192,192,43268,1,0,0:0:0:0:
64,192,43468,1,0,0:0:0:0:
192,192,43468,1,0,0:0:0:0:
448,192,43568,1,0,0:0:0:0:
192,192,43668,1,0,0:0:0:0:
320,192,43668,1,0,0:0:0:0:
64,192,43734,1,0,0:0:0:0:
192,192,43801,1,0,0:0:0:0:
320,192,43868,1,0,0:0:0:0:
448,192,43868,1,0,0:0:0:0:
192,192,43968,1,0,0:0:0:0:
64,192,44068,1,0,0:0:0:0:
320,192,44068,1,0,0:0:0:0:
448,192,44068,1,0,0:0:0:0:
64,192,44268,1,0,0:0:0:0:
448,192,44268,1,0,0:0:0:0:
64,192,44468,1,0,0:0:0:0:
320,192,44468,1,0,0:0:0:0:
64,192,44568,1,0,0:0:0:0:
320,192,44668,1,0,0:0:0:0:
448,192,44668,1,0,0:0:0:0:
64,192,44768,1,0,0:0:0:0:
64,192,44968,1,0,0:0:0:0:
320,192,45068,1,0,0:0:0:0:
448,192,45068,1,0,0:0:0:0:
320,192,45268,1,0,0:0:0:0:
320,192,45368,1,0,0:0:0:0:
64,192,45468,1,0,0:0:0:0:
448,192,45468,1,0,0:0:0:0:
192,192,45668,1,0,0:0:0:0:
320,192,45868,1,0,0:0:0:0:
448,192,45868,1,0,0:0:0:0:
448,192,46068,1,0,0:0:0:0:
448,192,46168,1,0,0:0:0:0:
64,192,46268,1,0,0:0:0:0:
192,192,46268,1,0,0:0:0:0:
448,192,46368,1,0,0:0:0:0:
448,192,46568,1,0,0:0:0:0:
64,192,46668,1,0,0:0:0:0:
320,192,46668,1,0,0:0:0:0:
192,192,46868,1,0,0:0:0:0:
320,192,46868,1,0,0:0:0:0:
320,192,46968,1,0,0:0:0:0:
192,192,47068,1,0,0:0:0:0:
448,192,47068,1,0,0:0:0:0:
64,192,47268,1,0,0:0:0:0:
192,192,47268,1,0,0:0:0:0:
320,192,47468,1,0,0:0:0:0:
448,192,47468,1,0,0:0:0:0:
192,192,47668,1,0,0:0:0:0:
320,192,47668,1,0,0:0:0:0:
192,192,47768,1,0,0:0:0:0:
320,192,47868,1,0,0:0:0:0:
448,192,47868,1,0,0:0:0:0:
192,192,47968,1,0,0:0:0:0:
64,192,48068,1,0,0:0:0:0:
320,192,48068,1,0,0:0:0:0:
192,192,48168,1,0,0:0:0:0:
320,192,48268,1,0,0:0:0:0:
448,192,48268,1,0,0:0:0:0:
192,192,48468,1,0,0:0:0:0:
320,192,48468,1,0,0:0:0:0:
320,192,48568,1,0,0:0:0:0:
192,192,48668,1,0,0:0:0:0:
320,192,48768,1,0,0:0:0:0:
448,192,48768,1,0,0:0:0:0:
64,192,48868,1,0,0:0:0:0:
320,192,48868,1,0,0:0:0:0:
448,192,48868,1,0,0:0:0:0:
192,192,48968,1,0,0:0:0:0:
320,192,49068,1,0,0:0:0:0:
64,192,49168,1,0,0:0:0:0:
320,192,49268,1,0,0:0:0:0:
448,192,49268,1,0,0:0:0:0:
64,192,49468,1,0,0:0:0:0:
64,192,49568,1,0,0:0:0:0:
320,192,49668,1,0,0:0:0:0:
448,192,49668,1,0,0:0:0:0:
64,192,49868,1,0,0:0:0:0:
64,192,49968,1,0,0:0:0:0:
320,192,50068,1,0,0:0:0:0:
448,192,50068,1,0,0:0:0:0:
320,192,50168,1,0,0:0:0:0:
448,192,50168,1,0,0:0:0:0:
320,192,50268,1,0,0:0:0:0:
448,192,50268,1,0,0:0:0:0:
320,192,50368,1,0,0:0:0:0:
448,192,50368,1,0,0:0:0:0:
64,192,50468,1,0,0:0:0:0:
192,192,50468,1,0,0:0:0:0:
448,192,50468,1,0,0:0:0:0:
64,192,50668,1,0,0:0:0:0:
192,192,50668,1,0,0:0:0:0:
320,192,50868,1,0,0:0:0:0:
448,192,50868,1,0,0:0:0:0:
320,192,50968,1,0,0:0:0:0:
64,192,51068,1,0,0:0:0:0:
192,192,51068,1,0,0:0:0:0:
320,192,51168,1,0,0:0:0:0:
320,192,51368,1,0,0:0:0:0:
192,192,51468,1,0,0:0:0:0:
448,192,51468,1,0,0:0:0:0:
320,192,51668,1,0,0:0:0:0:
320,192,51768,1,0,0:0:0:0:
64,192,51868,1,0,0:0:0:0:
448,192,51868,1,0,0:0:0:0:
192,192,52068,1,0,0:0:0:0:
64,192,52268,1,0,0:0:0:0:
320,192,52268,1,0,0:0:0:0:
448,192,52468,1,0,0:0:0:0:
448,192,52568,1,0,0:0:0:0:
64,192,52668,1,0,0:0:0:0:
192,192,52668,1,0,0:0:0:0:
448,192,52768,1,0,0:0:0:0:
448,192,52968,1,0,0:0:0:0:
64,192,53068,1,0,0:0:0:0:
192,192,53068,1,0,0:0:0:0:
64,192,53268,1,0,0:0:0:0:
320,192,53268,1,0,0:0:0:0:
64,192,53368,1,0,0:0:0:0:
192,192,53468,1,0,0:0:0:0:
320,192,53468,1,0,0:0:0:0:
192,192,53668,1,0,0:0:0:0:
448,192,53668,1,0,0:0:0:0:
64,192,53868,1,0,0:0:0:0:
320,192,53868,1,0,0:0:0:0:
64,192,54068,1,0,0:0:0:0:
192,192,54068,1,0,0:0:0:0:
64,192,54168,1,0,0:0:0:0:
320,192,54268,1,0,0:0:0:0:
448,192,54268,1,0,0:0:0:0:
64,192,54368,1,0,0:0:0:0:
64,192,54568,1,0,0:0:0:0:
320,192,54668,1,0,0:0:0:0:
448,192,54668,1,0,0:0:0:0:
64,192,54868,1,0,0:0:0:0:
192,192,54868,1,0,0:0:0:0:
64,192,54968,1,0,0:0:0:0:
192,192,54968,1,0,0:0:0:0:
64,192,55068,1,0,0:0:0:0:
192,192,55068,1,0,0:0:0:0:
64,192,55168,1,0,0:0:0:0:
192,192,55168,1,0,0:0:0:0:
64,192,55268,1,0,0:0:0:0:
320,192,55268,1,0,0:0:0:0:
448,192,55268,1,0,0:0:0:0:
448,192,55468,1,0,0:0:0:0:
448,192,55568,1,0,0:0:0:0:
64,192,55668,1,0,0:0:0:0:
192,192,55668,1,0,0:0:0:0:
320,192,55668,1,0,0:0:0:0:
320,192,55868,1,0,0:0:0:0:
320,192,55968,1,0,0:0:0:0:
64,192,56068,1,0,0:0:0:0:
192,192,56068,1,0,0:0:0:0:
448,192,56068,1,0,0:0:0:0:
64,192,56268,1,0,0:0:0:0:
320,192,56368,1,0,0:0:0:0:
448,192,56368,1,0,0:0:0:0:
64,192,56468,1,0,0:0:0:0:
320,192,56568,1,0,0:0:0:0:
448,192,56568,1,0,0:0:0:0:
320,192,56668,1,0,0:0:0:0:
448,192,56668,1,0,0:0:0:0:
320,192,56768,1,0,0:0:0:0:
448,192,56768,1,0,0:0:0:0:
64,192,56868,1,0,0:0:0:0:
192,192,56868,1,0,0:0:0:0:
448,192,56868,1,0,0:0:0:0:
64,192,57068,1,0,0:0:0:0:
320,192,57068,1,0,0:0:0:0:
64,192,57268,1,0,0:0:0:0:
320,192,57268,1,0,0:0:0:0:
64,192,57368,1,0,0:0:0:0:
320,192,57468,1,0,0:0:0:0:
448,192,57468,1,0,0:0:0:0:
64,192,57568,1,0,0:0:0:0:
64,192,57768,1,0,0:0:0:0:
192,192,57868,1,0,0:0:0:0:
448,192,57868,1,0,0:0:0:0:
192,192,58068,1,0,0:0:0:0:
192,192,58168,1,0,0:0:0:0:
320,192,58268,1,0,0:0:0:0:
448,192,58268,1,0,0:0:0:0:
448,192,58468,1,0,0:0:0:0:
192,192,58668,1,0,0:0:0:0:
320,192,58668,1,0,0:0:0:0:
448,192,58868,1,0,0:0:0:0:
448,192,58968,1,0,0:0:0:0:
64,192,59068,1,0,0:0:0:0:
192,192,59068,1,0,0:0:0:0:
448,192,59168,1,0,0:0:0:0:
448,192,59368,1,0,0:0:0:0:
64,192,59468,1,0,0:0:0:0:
320,192,59468,1,0,0:0:0:0:
192,192,59668,1,0,0:0:0:0:
320,192,59668,1,0,0:0:0:0:
320,192,59768,1,0,0:0:0:0:
192,192,59868,1,0,0:0:0:0:
448,192,59868,1,0,0:0:0:0:
64,192,60068,1,0,0:0:0:0:
192,192,60068,1,0,0:0:0:0:
320,192,60268,1,0,0:0:0:0:
448,192,60268,1,0,0:0:0:0:
192,192,60468,1,0,0:0:0:0:
320,192,60468,1,0,0:0:0:0:
192,192,60568,1,0,0:0:0:0:
320,192,60668,1,0,0:0:0:0:
448,192,60668,1,0,0:0:0:0:
192,192,60768,1,0,0:0:0:0:
64,192,60868,1,0,0:0:0:0:
320,192,60868,1,0,0:0:0:0:
192,192,60968,1,0,0:0:0:0:
64,192,61068,1,0,0:0:0:0:
448,192,61068,1,0,0:0:0:0:
192,192,61268,1,0,0:0:0:0:
320,192,61268,1,0,0:0:0:0:
192,192,61368,1,0,0:0:0:0:
320,192,61468,1,0,0:0:0:0:
448,192,61468,1,0,0:0:0:0:
320,192,61568,1,0,0:0:0:0:
448,192,61568,1,0,0:0:0:0:
64,192,61668,1,0,0:0:0:0:
192,192,61668,1,0,0:0:0:0:
448,192,61668,1,0,0:0:0:0:
320,192,61768,1,0,0:0:0:0:
192,192,61868,1,0,0:0:0:0:
192,192,61968,1,0,0:0:0:0:
320,192,62068,1,0,0:0:0:0:
448,192,62068,1,0,0:0:0:0:
192,192,62268,1,0,0:0:0:0:
192,192,62368,1,0,0:0:0:0:
320,192,62468,1,0,0:0:0:0:
448,192,62468,1,0,0:0:0:0:
192,192,62668,1,0,0:0:0:0:
192,192,62768,1,0,0:0:0:0:
320,192,62868,1,0,0:0:0:0:
448,192,62868,1,0,0:0:0:0:
320,192,62968,1,0,0:0:0:0:
448,192,62968,1,0,0:0:0:0:
320,192,63068,1,0,0:0:0:0:
448,192,63068,1,0,0:0:0:0:
320,192,63168,1,0,0:0:0:0:
448,192,63168,1,0,0:0:0:0:
64,192,63268,1,0,0:0:0:0:
192,192,63268,1,0,0:0:0:0:
448,192,63268,1,0,0:0:0:0:
64,192,63468,1,0,0:0:0:0:
192,192,63468,1,0,0:0:0:0:
320,192,63668,1,0,0:0:0:0:
448,192,63668,1,0,0:0:0:0:
448,192,63768,1,0,0:0:0:0:
64,192,63868,1,0,0:0:0:0:
192,192,63868,1,0,0:0:0:0:
448,192,63968,1,0,0:0:0:0:
448,192,64168,1,0,0:0:0:0:
192,192,64268,1,0,0:0:0:0:
320,192,64268,1,0,0:0:0:0:
64,192,64468,1,0,0:0:0:0:
64,192,64568,1,0,0:0:0:0:
192,192,64668,1,0,0:0:0:0:
448,192,64668,1,0,0:0:0:0:
64,192,64868,1,0,0:0:0:0:
320,192,65068,1,0,0:0:0:0:
448,192,65068,1,0,0:0:0:0:
192,192,65268,1,0,0:0:0:0:
192,192,65368,1,0,0:0:0:0:
64,192,65468,1,0,0:0:0:0:
448,192,65468,1,0,0:0:0:0:
192,192,65568,1,0,0:0:0:0:
192,192,65768,1,0,0:0:0:0:
320,192,65868,1,0,0:0:0:0:
448,192,65868,1,0,0:0:0:0:
64,192,65968,1,0,0:0:0:0:
320,192,66068,1,0,0:0:0:0:
448,192,66068,1,0,0:0:0:0:
64,192,66168,1,0,0:0:0:0:
192,192,66268,1,0,0:0:0:0:
320,192,66368,1,0,0:0:0:0:
192,192,66468,1,0,0:0:0:0:
448,192,66468,1,0,0:0:0:0:
64,192,66668,1,0,0:0:0:0:
320,192,66668,1,0,0:0:0:0:
448,192,66768,1,0,0:0:0:0:
64,192,66868,1,0,0:0:0:0:
192,192,66868,1,0,0:0:0:0:
320,192,67068,1,0,0:0:0:0:
448,192,67068,1,0,0:0:0:0:
320,192,67168,1,0,0:0:0:0:
64,192,67268,1,0,0:0:0:0:
192,192,67268,1,0,0:0:0:0:
448,192,67468,1,0,0:0:0:0:
64,192,67668,1,0,0:0:0:0:
320,192,67668,1,0,0:0:0:0:
192,192,67768,1,0,0:0:0:0:
320,192,67868,1,0,0:0:0:0:
448,192,67868,1,0,0:0:0:0:
64,192,67968,1,0,0:0:0:0:
192,192,68068,1,0,0:0:0:0:
320,192,68068,1,0,0:0:0:0:
64,192,68268,1,0,0:0:0:0:
192,192,68268,1,0,0:0:0:0:
448,192,68368,1,0,0:0:0:0:
192,192,68468,1,0,0:0:0:0:
320,192,68468,1,0,0:0:0:0:
320,192,68668,1,0,0:0:0:0:
448,192,68668,1,0,0:0:0:0:
320,192,68768,1,0,0:0:0:0:
64,192,68868,1,0,0:0:0:0:
192,192,68868,1,0,0:0:0:0:
192,192,69068,1,0,0:0:0:0:
320,192,69068,1,0,0:0:0:0:
64,192,69268,1,0,0:0:0:0:
192,192,69268,1,0,0:0:0:0:
448,192,69268,1,0,0:0:0:0:
320,192,69468,1,0,0:0:0:0:
448,192,69468,1,0,0:0:0:0:
64,192,69668,1,0,0:0:0:0:
192,192,69668,1,0,0:0:0:0:
320,192,69868,1,0,0:0:0:0:
192,192,69968,1,0,0:0:0:0:
64,192,70068,1,0,0:0:0:0:
448,192,70068,1,0,0:0:0:0:
64,192,70168,1,0,0:0:0:0:
448,192,70168,1,0,0:0:0:0:
320,192,70268,1,0,0:0:0:0:
192,192,70368,1,0,0:0:0:0:
320,192,70468,1,0,0:0:0:0:
448,192,70468,1,0,0:0:0:0:
64,192,70668,1,0,0:0:0:0:
320,192,70768,1,0,0:0:0:0:
192,192,70868,1,0,0:0:0:0:
448,192,70868,1,0,0:0:0:0:
192,192,70968,1,0,0:0:0:0:
448,192,70968,1,0,0:0:0:0:
64,192,71068,1,0,0:0:0:0:
320,192,71168,1,0,0:0:0:0:
64,192,71268,1,0,0:0:0:0:
192,192,71268,1,0,0:0:0:0:
448,192,71268,1,0,0:0:0:0:
64,192,71868,1,0,0:0:0:0:
192,192,71868,1,0,0:0:0:0:
320,192,71868,1,0,0:0:0:0:
192,192,72068,1,0,0:0:0:0:
320,192,72068,1,0,0:0:0:0:
448,192,72068,1,0,0:0:0:0:
64,192,72268,1,0,0:0:0:0:
192,192,72268,1,0,0:0:0:0:
320,192,72268,1,0,0:0:0:0:
192,192,72468,1,0,0:0:0:0:
320,192,72468,1,0,0:0:0:0:
448,192,72468,1,0,0:0:0:0:
64,192,72668,1,0,0:0:0:0:
192,192,72668,1,0,0:0:0:0:
320,192,72668,1,0,0:0:0:0:
64,192,72868,1,0,0:0:0:0:
192,192,72868,1,0,0:0:0:0:
320,192,72868,1,0,0:0:0:0:
448,192,72868,1,0,0:0:0:0:
448,192,73068,1,0,0:0:0:0:
320,192,73134,1,0,0:0:0:0:
192,192,73201,1,0,0:0:0:0:
448,192,73268,1,0,0:0:0:0:
320,192,73334,1,0,0:0:0:0:
192,192,73401,1,0,0:0:0:0:
448,192,73468,1,0,0:0:0:0:
320,192,73534,1,0,0:0:0:0:
64,192,73601,1,0,0:0:0:0:
448,192,73668,1,0,0:0:0:0:
320,192,73734,1,0,0:0:0:0:
64,192,73801,1,0,0:0:0:0:
448,192,73868,1,0,0:0:0:0:
192,192,73934,1,0,0:0:0:0:
64,192,74001,1,0,0:0:0:0:
448,192,74068,1,0,0:0:0:0:
192,192,74134,1,0,0:0:0:0:
64,192,74201,1,0,0:0:0:0:
320,192,74268,1,0,0:0:0:0:
192,192,74334,1,0,0:0:0:0:
64,192,74401,1,0,0:0:0:0:
192,192,74468,1,0,0:0:0:0:
320,192,74468,1,0,0:0:0:0:
448,192,74468,1,0,0:0:0:0:
64,192,75068,1,0,0:0:0:0:
192,192,75068,1,0,0:0:0:0:
320,192,75068,1,0,0:0:0:0:
192,192,75268,1,0,0:0:0:0:
320,192,75268,1,0,0:0:0:0:
448,192,75268,1,0,0:0:0:0:
64,192,75468,1,0,0:0:0:0:
192,192,75468,1,0,0:0:0:0:
320,192,75468,1,0,0:0:0:0:
192,192,75668,1,0,0:0:0:0:
320,192,75668,1,0,0:0:0:0:
448,192,75668,1,0,0:0:0:0:
64,192,75868,1,0,0:0:0:0:
192,192,75868,1,0,0:0:0:0:
320,192,75868,1,0,0:0:0:0:
64,192,76068,1,0,0:0:0:0:
192,192,76068,1,0,0:0:0:0:
320,192,76068,1,0,0:0:0:0:
448,192,76068,1,0,0:0:0:0:
448,192,76268,1,0,0:0:0:0:
320,192,76334,1,0,0:0:0:0:
192,192,76401,1,0,0:0:0:0:
448,192,76468,1,0,0:0:0:0:
320,192,76534,1,0,0:0:0:0:
192,192,76601,1,0,0:0:0:0:
448,192,76667,1,0,0:0:0:0:
320,192,76734,1,0,0:0:0:0:
64,192,76801,1,0,0:0:0:0:
448,192,76867,1,0,0:0:0:0:
320,192,76934,1,0,0:0:0:0:
64,192,77001,1,0,0:0:0:0:
448,192,77067,1,0,0:0:0:0:
192,192,77134,1,0,0:0:0:0:
64,192,77201,1,0,0:0:0:0:
448,192,77267,1,0,0:0:0:0:
192,192,77334,1,0,0:0:0:0:
64,192,77401,1,0,0:0:0:0:
320,192,77467,1,0,0:0:0:0:
192,192,77534,1,0,0:0:0:0:
64,192,77601,1,0,0:0:0:0:
320,0,77667,128,0,78467:1:0:0:0:
64,192,78067,1,0,0:0:0:0:
192,192,78267,1,0,0:0:0:0:
448,192,78467,1,0,0:0:0:0:
192,0,78467,128,0,79267:1:0:0:0:
64,192,78867,1,0,0:0:0:0:
320,192,79267,1,0,0:0:0:0:
448,0,79267,128,0,80667:1:0:0:0:
64,192,80867,1,0,0:0:0:0:
320,192,80867,1,0,0:0:0:0:
448,192,80867,1,0,0:0:0:0:
192,192,81067,1,0,0:0:0:0:
448,192,81167,1,0,0:0:0:0:
64,192,81267,1,0,0:0:0:0:
192,192,81267,1,0,0:0:0:0:
448,192,81367,1,0,0:0:0:0:
448,192,81567,1,0,0:0:0:0:
192,192,81667,1,0,0:0:0:0:
320,192,81667,1,0,0:0:0:0:
64,192,81767,1,0,0:0:0:0:
320,192,81867,1,0,0:0:0:0:
192,192,81967,1,0,0:0:0:0:
320,192,82067,1,0,0:0:0:0:
448,192,82067,1,0,0:0:0:0:
64,192,82167,1,0,0:0:0:0:
192,192,82267,1,0,0:0:0:0:
320,192,82367,1,0,0:0:0:0:
64,192,82467,1,0,0:0:0:0:
448,192,82467,1,0,0:0:0:0:
192,192,82667,1,0,0:0:0:0:
448,192,82767,1,0,0:0:0:0:
64,192,82867,1,0,0:0:0:0:
192,192,82867,1,0,0:0:0:0:
448,192,82967,1,0,0:0:0:0:
448,192,83167,1,0,0:0:0:0:
192,192,83267,1,0,0:0:0:0:
320,192,83267,1,0,0:0:0:0:
64,192,83367,1,0,0:0:0:0:
192,192,83467,1,0,0:0:0:0:
64,192,83567,1,0,0:0:0:0:
320,192,83667,1,0,0:0:0:0:
448,192,83667,1,0,0:0:0:0:
192,192,83867,1,0,0:0:0:0:
320,192,83967,1,0,0:0:0:0:
64,192,84067,1,0,0:0:0:0:
192,192,84067,1,0,0:0:0:0:
192,192,84267,1,0,0:0:0:0:
448,192,84367,1,0,0:0:0:0:
64,192,84467,1,0,0:0:0:0:
192,192,84467,1,0,0:0:0:0:
448,192,84567,1,0,0:0:0:0:
448,192,84767,1,0,0:0:0:0:
192,192,84867,1,0,0:0:0:0:
320,192,84867,1,0,0:0:0:0:
64,192,84967,1,0,0:0:0:0:
320,192,85067,1,0,0:0:0:0:
192,192,85167,1,0,0:0:0:0:
320,192,85267,1,0,0:0:0:0:
448,192,85267,1,0,0:0:0:0:
64,192,85367,1,0,0:0:0:0:
192,192,85467,1,0,0:0:0:0:
320,192,85567,1,0,0:0:0:0:
64,192,85667,1,0,0:0:0:0:
192,192,85667,1,0,0:0:0:0:
64,192,85767,1,0,0:0:0:0:
320,192,85767,1,0,0:0:0:0:
192,192,85867,1,0,0:0:0:0:
320,192,85867,1,0,0:0:0:0:
192,192,85967,1,0,0:0:0:0:
448,192,85967,1,0,0:0:0:0:
64,192,86067,1,0,0:0:0:0:
320,192,86067,1,0,0:0:0:0:
448,192,86067,1,0,0:0:0:0:
192,192,86267,1,0,0:0:0:0:
320,192,86267,1,0,0:0:0:0:
448,192,86267,1,0,0:0:0:0:
64,192,86467,1,0,0:0:0:0:
192,192,86467,1,0,0:0:0:0:
320,192,86467,1,0,0:0:0:0:
192,192,86867,1,0,0:0:0:0:
320,192,86867,1,0,0:0:0:0:
448,192,86867,1,0,0:0:0:0:
320,192,86967,1,0,0:0:0:0:
448,192,86967,1,0,0:0:0:0:
64,192,87067,1,0,0:0:0:0:
320,192,87067,1,0,0:0:0:0:
448,192,87067,1,0,0:0:0:0:
320,192,87167,1,0,0:0:0:0:
448,192,87167,1,0,0:0:0:0:
