osu file format v13

[General]
AudioFilename: Pentakill-Deathfire Grasp (Short).ogg
AudioLeadIn: 2
PreviewTime: 62303
Countdown: 0
SampleSet: None
StackLeniency: 0.7
Mode: 3
LetterboxInBreaks: 0
SpecialStyle: 0
WidescreenStoryboard: 0

[Editor]
DistanceSpacing: 0.8
BeatDivisor: 4
GridSize: 8
TimelineZoom: 1

[Metadata]
Title:Yolomania Vol. 3A
TitleUnicode:Yolomania Vol. 3A
Artist:Various
ArtistUnicode:Various
Creator:Fullerene-
Version:Pentakill - Deathfire Grasp [IronSheep vs. Skwid] 15
Source:
Tags:Stepmania yolo3 volume
BeatmapID:563166
BeatmapSetID:243027

[Difficulty]
HPDrainRate:8
CircleSize:4
OverallDifficulty:5
ApproachRate:10
SliderMultiplier:1.4
SliderTickRate:1

[Events]
//Background and Video events
0,0,"deathfire grasp.jpg",0,0
//Break Periods
//Storyboard Layer 0 (Background)
//Storyboard Layer 1 (Fail)
//Storyboard Layer 2 (Pass)
//Storyboard Layer 3 (Foreground)
//Storyboard Sound Samples

[TimingPoints]
6428,375,4,1,0,15,1,0

[HitObjects]
64,0,6428,128,0,6459:1:0:0:0:
192,0,6428,128,0,6459:1:0:0:0:
448,0,6428,128,0,6459:1:0:0:0:
320,192,6522,1,0,0:0:0:0:
192,192,6616,1,0,0:0:0:0:
64,192,6709,1,0,0:0:0:0:
192,192,6803,1,0,0:0:0:0:
320,192,6803,1,0,0:0:0:0:
448,192,6803,1,0,0:0:0:0:
320,192,6897,1,0,0:0:0:0:
192,192,6991,1,0,0:0:0:0:
64,192,7084,1,0,0:0:0:0:
192,192,7178,1,0,0:0:0:0:
448,192,7178,1,0,0:0:0:0:
320,192,7272,1,0,0:0:0:0:
192,192,7366,1,0,0:0:0:0:
64,192,7459,1,0,0:0:0:0:
192,192,7553,1,0,0:0:0:0:
320,192,7553,1,0,0:0:0:0:
448,192,7553,1,0,0:0:0:0:
320,192,7647,1,0,0:0:0:0:
192,192,7741,1,0,0:0:0:0:
64,192,7834,1,0,0:0:0:0:
192,192,7928,1,0,0:0:0:0:
448,192,7928,1,0,0:0:0:0:
320,192,8022,1,0,0:0:0:0:
448,192,8116,1,0,0:0:0:0:
320,192,8209,1,0,0:0:0:0:
64,192,8303,1,0,0:0:0:0:
192,192,8303,1,0,0:0:0:0:
448,192,8303,1,0,0:0:0:0:
64,192,8397,1,0,0:0:0:0:
448,192,8491,1,0,0:0:0:0:
320,192,8584,1,0,0:0:0:0:
64,192,8678,1,0,0:0:0:0:
448,192,8678,1,0,0:0:0:0:
320,192,8772,1,0,0:0:0:0:
192,192,8866,1,0,0:0:0:0:
64,192,8959,1,0,0:0:0:0:
192,192,9053,1,0,0:0:0:0:
320,192,9053,1,0,0:0:0:0:
448,192,9053,1,0,0:0:0:0:
192,192,9147,1,0,0:0:0:0:
320,192,9241,1,0,0:0:0:0:
448,192,9241,1,0,0:0:0:0:
64,192,9334,1,0,0:0:0:0:
192,192,9334,1,0,0:0:0:0:
64,0,9428,128,0,9459:1:0:0:0:
448,0,9428,128,0,9459:1:0:0:0:
320,192,9522,1,0,0:0:0:0:
192,192,9616,1,0,0:0:0:0:
64,192,9709,1,0,0:0:0:0:
192,192,9803,1,0,0:0:0:0:
320,192,9803,1,0,0:0:0:0:
448,192,9803,1,0,0:0:0:0:
320,192,9897,1,0,0:0:0:0:
192,192,9991,1,0,0:0:0:0:
64,192,10084,1,0,0:0:0:0:
192,192,10178,1,0,0:0:0:0:
448,192,10178,1,0,0:0:0:0:
320,192,10272,1,0,0:0:0:0:
192,192,10366,1,0,0:0:0:0:
64,192,10459,1,0,0:0:0:0:
192,192,10553,1,0,0:0:0:0:
320,192,10553,1,0,0:0:0:0:
448,192,10553,1,0,0:0:0:0:
320,192,10647,1,0,0:0:0:0:
192,192,10741,1,0,0:0:0:0:
64,192,10834,1,0,0:0:0:0:
192,192,10928,1,0,0:0:0:0:
448,192,10928,1,0,0:0:0:0:
320,192,11022,1,0,0:0:0:0:
448,192,11116,1,0,0:0:0:0:
320,192,11209,1,0,0:0:0:0:
64,192,11303,1,0,0:0:0:0:
192,192,11303,1,0,0:0:0:0:
448,192,11303,1,0,0:0:0:0:
64,192,11397,1,0,0:0:0:0:
448,192,11491,1,0,0:0:0:0:
320,192,11584,1,0,0:0:0:0:
64,192,11678,1,0,0:0:0:0:
448,192,11678,1,0,0:0:0:0:
320,192,11772,1,0,0:0:0:0:
64,192,11866,1,0,0:0:0:0:
192,192,11866,1,0,0:0:0:0:
64,192,11959,1,0,0:0:0:0:
192,192,11959,1,0,0:0:0:0:
320,192,12053,1,0,0:0:0:0:
448,192,12053,1,0,0:0:0:0:
320,192,12147,1,0,0:0:0:0:
448,192,12147,1,0,0:0:0:0:
320,192,12241,1,0,0:0:0:0:
448,192,12241,1,0,0:0:0:0:
320,192,12334,1,0,0:0:0:0:
448,192,12334,1,0,0:0:0:0:
64,0,12428,128,0,12459:1:0:0:0:
192,0,12428,128,0,12459:1:0:0:0:
448,0,12428,128,0,12459:1:0:0:0:
320,192,12522,1,0,0:0:0:0:
192,192,12616,1,0,0:0:0:0:
64,192,12709,1,0,0:0:0:0:
192,192,12803,1,0,0:0:0:0:
320,192,12803,1,0,0:0:0:0:
448,192,12803,1,0,0:0:0:0:
320,192,12897,1,0,0:0:0:0:
192,192,12991,1,0,0:0:0:0:
64,192,13084,1,0,0:0:0:0:
192,192,13178,1,0,0:0:0:0:
448,192,13178,1,0,0:0:0:0:
320,192,13272,1,0,0:0:0:0:
192,192,13366,1,0,0:0:0:0:
64,192,13459,1,0,0:0:0:0:
192,192,13553,1,0,0:0:0:0:
320,192,13553,1,0,0:0:0:0:
448,192,13553,1,0,0:0:0:0:
320,192,13647,1,0,0:0:0:0:
192,192,13741,1,0,0:0:0:0:
64,192,13834,1,0,0:0:0:0:
192,192,13928,1,0,0:0:0:0:
448,192,13928,1,0,0:0:0:0:
320,192,14022,1,0,0:0:0:0:
448,192,14116,1,0,0:0:0:0:
320,192,14209,1,0,0:0:0:0:
64,192,14303,1,0,0:0:0:0:
192,192,14303,1,0,0:0:0:0:
448,192,14303,1,0,0:0:0:0:
64,192,14397,1,0,0:0:0:0:
448,192,14491,1,0,0:0:0:0:
320,192,14584,1,0,0:0:0:0:
64,192,14678,1,0,0:0:0:0:
448,192,14678,1,0,0:0:0:0:
320,192,14772,1,0,0:0:0:0:
192,192,14866,1,0,0:0:0:0:
64,192,14959,1,0,0:0:0:0:
192,192,15053,1,0,0:0:0:0:
320,192,15053,1,0,0:0:0:0:
448,192,15053,1,0,0:0:0:0:
192,192,15147,1,0,0:0:0:0:
64,192,15241,1,0,0:0:0:0:
192,192,15334,1,0,0:0:0:0:
64,192,15428,1,0,0:0:0:0:
448,192,15428,1,0,0:0:0:0:
320,192,15522,1,0,0:0:0:0:
192,192,15616,1,0,0:0:0:0:
64,192,15709,1,0,0:0:0:0:
192,192,15803,1,0,0:0:0:0:
320,192,15803,1,0,0:0:0:0:
448,192,15803,1,0,0:0:0:0:
320,192,15897,1,0,0:0:0:0:
192,192,15991,1,0,0:0:0:0:
64,192,16084,1,0,0:0:0:0:
192,192,16178,1,0,0:0:0:0:
448,192,16178,1,0,0:0:0:0:
320,192,16272,1,0,0:0:0:0:
192,192,16366,1,0,0:0:0:0:
64,192,16459,1,0,0:0:0:0:
192,192,16553,1,0,0:0:0:0:
320,192,16553,1,0,0:0:0:0:
448,192,16553,1,0,0:0:0:0:
320,192,16647,1,0,0:0:0:0:
192,192,16741,1,0,0:0:0:0:
64,192,16834,1,0,0:0:0:0:
192,192,16928,1,0,0:0:0:0:
448,192,16928,1,0,0:0:0:0:
320,192,17022,1,0,0:0:0:0:
448,192,17116,1,0,0:0:0:0:
320,192,17209,1,0,0:0:0:0:
64,192,17303,1,0,0:0:0:0:
192,192,17303,1,0,0:0:0:0:
448,192,17303,1,0,0:0:0:0:
64,192,17397,1,0,0:0:0:0:
320,192,17491,1,0,0:0:0:0:
448,192,17491,1,0,0:0:0:0:
64,192,17584,1,0,0:0:0:0:
192,192,17584,1,0,0:0:0:0:
320,192,17678,1,0,0:0:0:0:
448,192,17678,1,0,0:0:0:0:
64,192,17772,1,0,0:0:0:0:
192,192,17772,1,0,0:0:0:0:
192,192,17866,1,0,0:0:0:0:
448,192,17866,1,0,0:0:0:0:
64,192,17959,1,0,0:0:0:0:
320,192,17959,1,0,0:0:0:0:
192,192,18053,1,0,0:0:0:0:
448,192,18053,1,0,0:0:0:0:
64,192,18147,1,0,0:0:0:0:
320,192,18147,1,0,0:0:0:0:
64,192,18241,1,0,0:0:0:0:
448,192,18241,1,0,0:0:0:0:
192,192,18334,1,0,0:0:0:0:
320,192,18334,1,0,0:0:0:0:
64,192,18428,1,0,0:0:0:0:
320,192,18428,1,0,0:0:0:0:
448,192,18428,1,0,0:0:0:0:
64,192,18522,1,0,0:0:0:0:
320,192,18616,1,0,0:0:0:0:
192,192,18709,1,0,0:0:0:0:
64,192,18803,1,0,0:0:0:0:
320,192,18803,1,0,0:0:0:0:
448,192,18803,1,0,0:0:0:0:
64,192,18897,1,0,0:0:0:0:
320,192,18991,1,0,0:0:0:0:
192,192,19084,1,0,0:0:0:0:
320,192,19178,1,0,0:0:0:0:
448,192,19178,1,0,0:0:0:0:
64,192,19272,1,0,0:0:0:0:
320,192,19366,1,0,0:0:0:0:
192,192,19459,1,0,0:0:0:0:
64,192,19553,1,0,0:0:0:0:
320,192,19553,1,0,0:0:0:0:
448,192,19553,1,0,0:0:0:0:
64,192,19647,1,0,0:0:0:0:
320,192,19741,1,0,0:0:0:0:
192,192,19834,1,0,0:0:0:0:
320,192,19928,1,0,0:0:0:0:
448,192,19928,1,0,0:0:0:0:
64,192,20022,1,0,0:0:0:0:
448,192,20116,1,0,0:0:0:0:
64,192,20209,1,0,0:0:0:0:
192,192,20303,1,0,0:0:0:0:
320,192,20303,1,0,0:0:0:0:
448,192,20303,1,0,0:0:0:0:
192,192,20397,1,0,0:0:0:0:
448,192,20491,1,0,0:0:0:0:
64,192,20584,1,0,0:0:0:0:
192,192,20678,1,0,0:0:0:0:
448,192,20678,1,0,0:0:0:0:
64,192,20772,1,0,0:0:0:0:
192,192,20866,1,0,0:0:0:0:
320,192,20959,1,0,0:0:0:0:
64,192,21053,1,0,0:0:0:0:
192,192,21053,1,0,0:0:0:0:
448,192,21053,1,0,0:0:0:0:
192,192,21147,1,0,0:0:0:0:
64,192,21241,1,0,0:0:0:0:
320,192,21241,1,0,0:0:0:0:
320,192,21334,1,0,0:0:0:0:
448,192,21334,1,0,0:0:0:0:
192,192,21428,1,0,0:0:0:0:
448,192,21428,1,0,0:0:0:0:
64,192,21522,1,0,0:0:0:0:
320,192,21616,1,0,0:0:0:0:
192,192,21709,1,0,0:0:0:0:
64,192,21803,1,0,0:0:0:0:
320,192,21803,1,0,0:0:0:0:
448,192,21803,1,0,0:0:0:0:
64,192,21897,1,0,0:0:0:0:
320,192,21991,1,0,0:0:0:0:
192,192,22084,1,0,0:0:0:0:
320,192,22178,1,0,0:0:0:0:
448,192,22178,1,0,0:0:0:0:
64,192,22272,1,0,0:0:0:0:
320,192,22366,1,0,0:0:0:0:
192,192,22459,1,0,0:0:0:0:
64,192,22553,1,0,0:0:0:0:
320,192,22553,1,0,0:0:0:0:
448,192,22553,1,0,0:0:0:0:
64,192,22647,1,0,0:0:0:0:
320,192,22741,1,0,0:0:0:0:
192,192,22834,1,0,0:0:0:0:
448,192,22928,1,0,0:0:0:0:
320,192,22991,1,0,0:0:0:0:
448,192,23053,1,0,0:0:0:0:
320,192,23116,1,0,0:0:0:0:
192,192,23178,1,0,0:0:0:0:
64,192,23241,1,0,0:0:0:0:
320,192,23303,1,0,0:0:0:0:
192,192,23366,1,0,0:0:0:0:
448,192,23428,1,0,0:0:0:0:
320,192,23491,1,0,0:0:0:0:
192,192,23553,1,0,0:0:0:0:
64,192,23616,1,0,0:0:0:0:
192,192,23678,1,0,0:0:0:0:
320,192,23741,1,0,0:0:0:0:
448,192,23803,1,0,0:0:0:0:
192,192,23866,1,0,0:0:0:0:
320,192,23928,1,0,0:0:0:0:
64,192,23991,1,0,0:0:0:0:
192,192,24053,1,0,0:0:0:0:
320,192,24116,1,0,0:0:0:0:
448,192,24178,1,0,0:0:0:0:
320,192,24241,1,0,0:0:0:0:
192,192,24303,1,0,0:0:0:0:
320,192,24366,1,0,0:0:0:0:
64,0,24428,128,0,24459:1:0:0:0:
192,0,24428,128,0,24459:1:0:0:0:
448,0,24428,128,0,24459:1:0:0:0:
64,192,24616,1,0,0:0:0:0:
448,192,24616,1,0,0:0:0:0:
192,192,24803,1,0,0:0:0:0:
320,192,24803,1,0,0:0:0:0:
448,192,24803,1,0,0:0:0:0:
64,192,24991,1,0,0:0:0:0:
320,192,24991,1,0,0:0:0:0:
64,192,25366,1,0,0:0:0:0:
192,192,25366,1,0,0:0:0:0:
320,192,25459,1,0,0:0:0:0:
448,192,25459,1,0,0:0:0:0:
64,192,25553,1,0,0:0:0:0:
192,192,25553,1,0,0:0:0:0:
448,192,25553,1,0,0:0:0:0:
320,192,25928,1,0,0:0:0:0:
448,192,25928,1,0,0:0:0:0:
64,192,26022,1,0,0:0:0:0:
192,192,26022,1,0,0:0:0:0:
320,192,26116,1,0,0:0:0:0:
448,192,26116,1,0,0:0:0:0:
64,192,26303,1,0,0:0:0:0:
192,192,26303,1,0,0:0:0:0:
448,192,26303,1,0,0:0:0:0:
192,192,26491,1,0,0:0:0:0:
320,192,26491,1,0,0:0:0:0:
64,192,26678,1,0,0:0:0:0:
448,192,26678,1,0,0:0:0:0:
192,192,26866,1,0,0:0:0:0:
320,192,26866,1,0,0:0:0:0:
64,192,27053,1,0,0:0:0:0:
320,192,27053,1,0,0:0:0:0:
448,192,27053,1,0,0:0:0:0:
192,192,27241,1,0,0:0:0:0:
448,192,27241,1,0,0:0:0:0:
64,192,27428,1,0,0:0:0:0:
192,192,27428,1,0,0:0:0:0:
320,192,27428,1,0,0:0:0:0:
320,192,27616,1,0,0:0:0:0:
448,192,27616,1,0,0:0:0:0:
64,192,27709,1,0,0:0:0:0:
192,192,27709,1,0,0:0:0:0:
64,192,27803,1,0,0:0:0:0:
320,192,27803,1,0,0:0:0:0:
448,192,27803,1,0,0:0:0:0:
64,192,28178,1,0,0:0:0:0:
192,192,28178,1,0,0:0:0:0:
320,192,28272,1,0,0:0:0:0:
448,192,28272,1,0,0:0:0:0:
64,192,28366,1,0,0:0:0:0:
192,192,28366,1,0,0:0:0:0:
64,192,28553,1,0,0:0:0:0:
320,192,28553,1,0,0:0:0:0:
448,192,28553,1,0,0:0:0:0:
192,192,28741,1,0,0:0:0:0:
448,192,28741,1,0,0:0:0:0:
64,192,28834,1,0,0:0:0:0:
320,192,28834,1,0,0:0:0:0:
192,192,28928,1,0,0:0:0:0:
448,192,28928,1,0,0:0:0:0:
64,192,29303,1,0,0:0:0:0:
192,192,29303,1,0,0:0:0:0:
448,192,29303,1,0,0:0:0:0:
320,192,29397,1,0,0:0:0:0:
448,192,29397,1,0,0:0:0:0:
64,192,29491,1,0,0:0:0:0:
192,192,29491,1,0,0:0:0:0:
64,192,29678,1,0,0:0:0:0:
192,192,29678,1,0,0:0:0:0:
192,192,29866,1,0,0:0:0:0:
320,192,29866,1,0,0:0:0:0:
320,192,30053,1,0,0:0:0:0:
448,192,30053,1,0,0:0:0:0:
192,192,30241,1,0,0:0:0:0:
320,192,30241,1,0,0:0:0:0:
320,192,30428,1,0,0:0:0:0:
448,0,30428,128,0,31741:1:0:0:0:
64,192,30616,1,0,0:0:0:0:
192,192,30803,1,0,0:0:0:0:
320,192,30803,1,0,0:0:0:0:
64,192,30991,1,0,0:0:0:0:
192,192,31366,1,0,0:0:0:0:
64,192,31459,1,0,0:0:0:0:
192,192,31553,1,0,0:0:0:0:
320,192,31553,1,0,0:0:0:0:
320,0,31741,128,0,31772:1:0:0:0:
192,0,31834,128,0,31866:1:0:0:0:
320,0,31928,128,0,33053:1:0:0:0:
64,192,32022,1,0,0:0:0:0:
192,192,32116,1,0,0:0:0:0:
64,192,32303,1,0,0:0:0:0:
448,192,32303,1,0,0:0:0:0:
192,192,32491,1,0,0:0:0:0:
192,192,32678,1,0,0:0:0:0:
192,192,32866,1,0,0:0:0:0:
64,192,33053,1,0,0:0:0:0:
448,0,33053,128,0,33116:1:0:0:0:
192,192,33241,1,0,0:0:0:0:
64,0,33428,128,0,33803:1:0:0:0:
192,192,33616,1,0,0:0:0:0:
320,192,33709,1,0,0:0:0:0:
192,192,33803,1,0,0:0:0:0:
448,192,33803,1,0,0:0:0:0:
320,192,34178,1,0,0:0:0:0:
192,192,34272,1,0,0:0:0:0:
320,192,34366,1,0,0:0:0:0:
448,192,34459,1,0,0:0:0:0:
320,192,34553,1,0,0:0:0:0:
192,192,34647,1,0,0:0:0:0:
64,192,34741,1,0,0:0:0:0:
192,192,34834,1,0,0:0:0:0:
448,192,34928,1,0,0:0:0:0:
320,192,35022,1,0,0:0:0:0:
192,192,35116,1,0,0:0:0:0:
64,192,35209,1,0,0:0:0:0:
448,192,35303,1,0,0:0:0:0:
320,192,35397,1,0,0:0:0:0:
192,192,35491,1,0,0:0:0:0:
64,192,35584,1,0,0:0:0:0:
320,192,35678,1,0,0:0:0:0:
192,192,35772,1,0,0:0:0:0:
320,0,35866,128,0,36241:1:0:0:0:
192,192,35959,1,0,0:0:0:0:
64,192,36053,1,0,0:0:0:0:
448,192,36147,1,0,0:0:0:0:
192,0,36241,128,0,36272:1:0:0:0:
64,0,36334,128,0,36366:1:0:0:0:
192,0,36428,128,0,37178:1:0:0:0:
64,0,37178,128,0,37209:1:0:0:0:
320,0,37178,128,0,37209:1:0:0:0:
448,0,37178,128,0,37209:1:0:0:0:
192,192,37553,1,0,0:0:0:0:
320,192,37553,1,0,0:0:0:0:
448,192,37553,1,0,0:0:0:0:
64,192,38116,1,0,0:0:0:0:
192,192,38116,1,0,0:0:0:0:
192,192,38303,1,0,0:0:0:0:
320,192,38303,1,0,0:0:0:0:
448,192,38303,1,0,0:0:0:0:
64,192,38491,1,0,0:0:0:0:
320,192,38491,1,0,0:0:0:0:
64,192,38678,1,0,0:0:0:0:
320,192,38678,1,0,0:0:0:0:
64,192,39053,1,0,0:0:0:0:
320,192,39053,1,0,0:0:0:0:
448,192,39053,1,0,0:0:0:0:
64,192,39428,1,0,0:0:0:0:
192,192,39428,1,0,0:0:0:0:
192,192,39616,1,0,0:0:0:0:
320,192,39616,1,0,0:0:0:0:
64,192,39803,1,0,0:0:0:0:
320,192,39803,1,0,0:0:0:0:
448,192,39803,1,0,0:0:0:0:
64,192,39991,1,0,0:0:0:0:
192,192,39991,1,0,0:0:0:0:
320,192,40084,1,0,0:0:0:0:
448,192,40084,1,0,0:0:0:0:
64,192,40178,1,0,0:0:0:0:
192,192,40178,1,0,0:0:0:0:
192,192,40553,1,0,0:0:0:0:
320,192,40553,1,0,0:0:0:0:
448,192,40553,1,0,0:0:0:0:
64,192,40928,1,0,0:0:0:0:
192,192,41116,1,0,0:0:0:0:
320,192,41116,1,0,0:0:0:0:
64,192,41303,1,0,0:0:0:0:
320,192,41303,1,0,0:0:0:0:
448,192,41303,1,0,0:0:0:0:
192,192,41491,1,0,0:0:0:0:
448,192,41491,1,0,0:0:0:0:
64,192,41678,1,0,0:0:0:0:
192,192,41678,1,0,0:0:0:0:
64,192,41959,1,0,0:0:0:0:
448,192,41959,1,0,0:0:0:0:
64,192,42053,1,0,0:0:0:0:
320,192,42053,1,0,0:0:0:0:
448,192,42053,1,0,0:0:0:0:
192,192,42241,1,0,0:0:0:0:
448,192,42241,1,0,0:0:0:0:
320,192,42428,1,0,0:0:0:0:
448,192,42428,1,0,0:0:0:0:
192,192,42616,1,0,0:0:0:0:
320,192,42616,1,0,0:0:0:0:
64,192,42803,1,0,0:0:0:0:
192,192,42803,1,0,0:0:0:0:
448,192,42803,1,0,0:0:0:0:
64,0,43178,128,0,43209:1:0:0:0:
192,0,43178,128,0,43209:1:0:0:0:
448,0,43178,128,0,43209:1:0:0:0:
320,192,43272,1,0,0:0:0:0:
192,192,43366,1,0,0:0:0:0:
64,192,43459,1,0,0:0:0:0:
192,192,43553,1,0,0:0:0:0:
320,192,43553,1,0,0:0:0:0:
448,192,43553,1,0,0:0:0:0:
320,192,43647,1,0,0:0:0:0:
192,192,43741,1,0,0:0:0:0:
64,192,43834,1,0,0:0:0:0:
192,192,43928,1,0,0:0:0:0:
448,192,43928,1,0,0:0:0:0:
320,192,44022,1,0,0:0:0:0:
192,192,44116,1,0,0:0:0:0:
64,192,44209,1,0,0:0:0:0:
192,192,44303,1,0,0:0:0:0:
320,192,44303,1,0,0:0:0:0:
448,192,44303,1,0,0:0:0:0:
320,192,44397,1,0,0:0:0:0:
192,192,44491,1,0,0:0:0:0:
64,192,44584,1,0,0:0:0:0:
192,192,44678,1,0,0:0:0:0:
448,192,44678,1,0,0:0:0:0:
320,192,44772,1,0,0:0:0:0:
448,192,44866,1,0,0:0:0:0:
320,192,44959,1,0,0:0:0:0:
64,192,45053,1,0,0:0:0:0:
192,192,45053,1,0,0:0:0:0:
448,192,45053,1,0,0:0:0:0:
64,192,45147,1,0,0:0:0:0:
448,192,45241,1,0,0:0:0:0:
320,192,45334,1,0,0:0:0:0:
64,192,45428,1,0,0:0:0:0:
448,192,45428,1,0,0:0:0:0:
320,192,45522,1,0,0:0:0:0:
192,192,45616,1,0,0:0:0:0:
64,192,45709,1,0,0:0:0:0:
192,192,45803,1,0,0:0:0:0:
320,192,45803,1,0,0:0:0:0:
448,192,45803,1,0,0:0:0:0:
192,192,45897,1,0,0:0:0:0:
64,192,45991,1,0,0:0:0:0:
192,192,46084,1,0,0:0:0:0:
64,0,46178,128,0,46209:1:0:0:0:
448,0,46178,128,0,46209:1:0:0:0:
320,192,46272,1,0,0:0:0:0:
192,192,46366,1,0,0:0:0:0:
64,192,46459,1,0,0:0:0:0:
192,192,46553,1,0,0:0:0:0:
320,192,46553,1,0,0:0:0:0:
448,192,46553,1,0,0:0:0:0:
320,192,46647,1,0,0:0:0:0:
192,192,46741,1,0,0:0:0:0:
64,192,46834,1,0,0:0:0:0:
192,192,46928,1,0,0:0:0:0:
448,192,46928,1,0,0:0:0:0:
320,192,47022,1,0,0:0:0:0:
192,192,47116,1,0,0:0:0:0:
64,192,47209,1,0,0:0:0:0:
192,192,47303,1,0,0:0:0:0:
320,192,47303,1,0,0:0:0:0:
448,192,47303,1,0,0:0:0:0:
320,192,47397,1,0,0:0:0:0:
192,192,47491,1,0,0:0:0:0:
64,192,47584,1,0,0:0:0:0:
192,192,47678,1,0,0:0:0:0:
448,192,47678,1,0,0:0:0:0:
320,192,47772,1,0,0:0:0:0:
448,192,47866,1,0,0:0:0:0:
320,192,47959,1,0,0:0:0:0:
64,192,48053,1,0,0:0:0:0:
192,192,48053,1,0,0:0:0:0:
448,192,48053,1,0,0:0:0:0:
64,192,48147,1,0,0:0:0:0:
448,192,48241,1,0,0:0:0:0:
320,192,48334,1,0,0:0:0:0:
64,192,48428,1,0,0:0:0:0:
448,192,48428,1,0,0:0:0:0:
320,192,48522,1,0,0:0:0:0:
64,192,48616,1,0,0:0:0:0:
192,192,48616,1,0,0:0:0:0:
64,192,48709,1,0,0:0:0:0:
192,192,48709,1,0,0:0:0:0:
320,192,48803,1,0,0:0:0:0:
448,192,48803,1,0,0:0:0:0:
320,192,48897,1,0,0:0:0:0:
448,192,48897,1,0,0:0:0:0:
64,192,48991,1,0,0:0:0:0:
192,192,48991,1,0,0:0:0:0:
320,192,49084,1,0,0:0:0:0:
64,0,49178,128,0,49209:1:0:0:0:
192,0,49178,128,0,49209:1:0:0:0:
448,0,49178,128,0,49209:1:0:0:0:
64,192,49553,1,0,0:0:0:0:
192,192,49553,1,0,0:0:0:0:
448,192,49553,1,0,0:0:0:0:
64,192,50116,1,0,0:0:0:0:
320,192,50116,1,0,0:0:0:0:
64,192,50303,1,0,0:0:0:0:
192,192,50303,1,0,0:0:0:0:
448,192,50303,1,0,0:0:0:0:
64,192,50491,1,0,0:0:0:0:
192,192,50491,1,0,0:0:0:0:
320,192,50678,1,0,0:0:0:0:
448,192,50678,1,0,0:0:0:0:
192,192,51053,1,0,0:0:0:0:
320,192,51053,1,0,0:0:0:0:
448,192,51053,1,0,0:0:0:0:
64,192,51428,1,0,0:0:0:0:
320,192,51428,1,0,0:0:0:0:
64,192,51616,1,0,0:0:0:0:
448,192,51616,1,0,0:0:0:0:
192,192,51803,1,0,0:0:0:0:
320,192,51803,1,0,0:0:0:0:
448,192,51803,1,0,0:0:0:0:
64,192,51991,1,0,0:0:0:0:
320,192,51991,1,0,0:0:0:0:
192,192,52084,1,0,0:0:0:0:
448,192,52084,1,0,0:0:0:0:
64,192,52178,1,0,0:0:0:0:
320,192,52178,1,0,0:0:0:0:
64,192,52553,1,0,0:0:0:0:
192,192,52553,1,0,0:0:0:0:
448,192,52553,1,0,0:0:0:0:
320,192,52928,1,0,0:0:0:0:
64,192,53116,1,0,0:0:0:0:
448,192,53116,1,0,0:0:0:0:
192,192,53303,1,0,0:0:0:0:
320,192,53303,1,0,0:0:0:0:
448,192,53303,1,0,0:0:0:0:
64,192,53491,1,0,0:0:0:0:
192,192,53491,1,0,0:0:0:0:
64,192,53678,1,0,0:0:0:0:
320,192,53678,1,0,0:0:0:0:
192,192,53959,1,0,0:0:0:0:
320,192,53959,1,0,0:0:0:0:
192,192,54053,1,0,0:0:0:0:
320,192,54053,1,0,0:0:0:0:
448,192,54053,1,0,0:0:0:0:
64,192,54241,1,0,0:0:0:0:
192,192,54241,1,0,0:0:0:0:
192,192,54428,1,0,0:0:0:0:
448,192,54428,1,0,0:0:0:0:
64,192,54616,1,0,0:0:0:0:
192,192,54616,1,0,0:0:0:0:
64,192,54709,1,0,0:0:0:0:
192,192,54709,1,0,0:0:0:0:
320,192,54803,1,0,0:0:0:0:
448,192,54803,1,0,0:0:0:0:
64,192,54897,1,0,0:0:0:0:
320,192,54897,1,0,0:0:0:0:
64,192,54991,1,0,0:0:0:0:
192,192,54991,1,0,0:0:0:0:
320,192,55084,1,0,0:0:0:0:
448,192,55084,1,0,0:0:0:0:
64,0,55178,128,0,55209:1:0:0:0:
448,0,55178,128,0,55209:1:0:0:0:
320,192,55272,1,0,0:0:0:0:
192,192,55366,1,0,0:0:0:0:
64,192,55459,1,0,0:0:0:0:
192,192,55553,1,0,0:0:0:0:
320,192,55553,1,0,0:0:0:0:
448,192,55553,1,0,0:0:0:0:
320,192,55647,1,0,0:0:0:0:
192,192,55741,1,0,0:0:0:0:
64,192,55834,1,0,0:0:0:0:
192,192,55928,1,0,0:0:0:0:
448,192,55928,1,0,0:0:0:0:
320,192,56022,1,0,0:0:0:0:
192,192,56116,1,0,0:0:0:0:
64,192,56209,1,0,0:0:0:0:
192,192,56303,1,0,0:0:0:0:
320,192,56303,1,0,0:0:0:0:
448,192,56303,1,0,0:0:0:0:
320,192,56397,1,0,0:0:0:0:
192,192,56491,1,0,0:0:0:0:
64,192,56584,1,0,0:0:0:0:
192,192,56678,1,0,0:0:0:0:
448,192,56678,1,0,0:0:0:0:
320,192,56772,1,0,0:0:0:0:
448,192,56866,1,0,0:0:0:0:
320,192,56959,1,0,0:0:0:0:
64,192,57053,1,0,0:0:0:0:
192,192,57053,1,0,0:0:0:0:
448,192,57053,1,0,0:0:0:0:
64,192,57147,1,0,0:0:0:0:
448,192,57241,1,0,0:0:0:0:
320,192,57334,1,0,0:0:0:0:
64,192,57428,1,0,0:0:0:0:
448,192,57428,1,0,0:0:0:0:
320,192,57522,1,0,0:0:0:0:
192,0,57616,128,0,57647:1:0:0:0:
64,192,57709,1,0,0:0:0:0:
320,192,57803,1,0,0:0:0:0:
448,192,57803,1,0,0:0:0:0:
192,0,57803,128,0,57834:1:0:0:0:
192,192,57897,1,0,0:0:0:0:
64,0,57991,128,0,58022:1:0:0:0:
192,192,58084,1,0,0:0:0:0:
448,192,58178,1,0,0:0:0:0:
320,192,58272,1,0,0:0:0:0:
192,192,58366,1,0,0:0:0:0:
64,192,58459,1,0,0:0:0:0:
192,192,58553,1,0,0:0:0:0:
320,192,58553,1,0,0:0:0:0:
448,192,58553,1,0,0:0:0:0:
320,192,58647,1,0,0:0:0:0:
192,192,58741,1,0,0:0:0:0:
64,192,58834,1,0,0:0:0:0:
192,192,58928,1,0,0:0:0:0:
448,192,58928,1,0,0:0:0:0:
320,192,59022,1,0,0:0:0:0:
192,192,59116,1,0,0:0:0:0:
64,192,59209,1,0,0:0:0:0:
192,192,59303,1,0,0:0:0:0:
320,192,59303,1,0,0:0:0:0:
448,192,59303,1,0,0:0:0:0:
320,192,59397,1,0,0:0:0:0:
192,192,59491,1,0,0:0:0:0:
64,192,59584,1,0,0:0:0:0:
192,192,59678,1,0,0:0:0:0:
448,192,59678,1,0,0:0:0:0:
320,192,59772,1,0,0:0:0:0:
64,192,59866,1,0,0:0:0:0:
448,192,59866,1,0,0:0:0:0:
64,192,59959,1,0,0:0:0:0:
448,192,59959,1,0,0:0:0:0:
192,192,60053,1,0,0:0:0:0:
320,192,60147,1,0,0:0:0:0:
64,192,60241,1,0,0:0:0:0:
192,192,60241,1,0,0:0:0:0:
64,192,60334,1,0,0:0:0:0:
192,192,60334,1,0,0:0:0:0:
320,192,60428,1,0,0:0:0:0:
448,192,60428,1,0,0:0:0:0:
320,192,60522,1,0,0:0:0:0:
448,192,60522,1,0,0:0:0:0:
64,192,60616,1,0,0:0:0:0:
192,192,60616,1,0,0:0:0:0:
192,192,60709,1,0,0:0:0:0:
320,192,60709,1,0,0:0:0:0:
64,192,60803,1,0,0:0:0:0:
448,192,60803,1,0,0:0:0:0:
320,192,60897,1,0,0:0:0:0:
448,192,60897,1,0,0:0:0:0:
64,192,60991,1,0,0:0:0:0:
192,192,60991,1,0,0:0:0:0:
64,192,61084,1,0,0:0:0:0:
448,192,61084,1,0,0:0:0:0:
64,192,62303,1,0,0:0:0:0:
192,192,62303,1,0,0:0:0:0:
320,192,62303,1,0,0:0:0:0:
448,192,62303,1,0,0:0:0:0:
192,192,62397,1,0,0:0:0:0:
64,192,62491,1,0,0:0:0:0:
192,192,62584,1,0,0:0:0:0:
64,192,62678,1,0,0:0:0:0:
320,192,62678,1,0,0:0:0:0:
448,192,62678,1,0,0:0:0:0:
320,192,62772,1,0,0:0:0:0:
448,192,62866,1,0,0:0:0:0:
320,192,62959,1,0,0:0:0:0:
64,192,63053,1,0,0:0:0:0:
192,192,63053,1,0,0:0:0:0:
320,192,63147,1,0,0:0:0:0:
192,192,63241,1,0,0:0:0:0:
448,192,63334,1,0,0:0:0:0:
64,192,63428,1,0,0:0:0:0:
192,192,63428,1,0,0:0:0:0:
320,192,63428,1,0,0:0:0:0:
192,192,63522,1,0,0:0:0:0:
64,192,63616,1,0,0:0:0:0:
320,192,63616,1,0,0:0:0:0:
448,192,63709,1,0,0:0:0:0:
192,192,63803,1,0,0:0:0:0:
320,192,63803,1,0,0:0:0:0:
448,192,63897,1,0,0:0:0:0:
64,192,63991,1,0,0:0:0:0:
320,192,63991,1,0,0:0:0:0:
448,192,64084,1,0,0:0:0:0:
64,192,64178,1,0,0:0:0:0:
192,192,64178,1,0,0:0:0:0:
320,192,64178,1,0,0:0:0:0:
320,192,64272,1,0,0:0:0:0:
192,192,64366,1,0,0:0:0:0:
448,192,64366,1,0,0:0:0:0:
320,192,64459,1,0,0:0:0:0:
64,192,64553,1,0,0:0:0:0:
448,192,64553,1,0,0:0:0:0:
320,192,64647,1,0,0:0:0:0:
64,192,64741,1,0,0:0:0:0:
192,192,64741,1,0,0:0:0:0:
448,192,64834,1,0,0:0:0:0:
64,192,64928,1,0,0:0:0:0:
192,192,64928,1,0,0:0:0:0:
320,192,64928,1,0,0:0:0:0:
192,192,65022,1,0,0:0:0:0:
320,192,65116,1,0,0:0:0:0:
448,192,65116,1,0,0:0:0:0:
192,192,65209,1,0,0:0:0:0:
64,192,65303,1,0,0:0:0:0:
320,192,65303,1,0,0:0:0:0:
320,192,65397,1,0,0:0:0:0:
448,192,65491,1,0,0:0:0:0:
320,192,65584,1,0,0:0:0:0:
64,192,65678,1,0,0:0:0:0:
192,192,65678,1,0,0:0:0:0:
448,192,65678,1,0,0:0:0:0:
192,192,65772,1,0,0:0:0:0:
64,192,65866,1,0,0:0:0:0:
192,192,65959,1,0,0:0:0:0:
320,192,66053,1,0,0:0:0:0:
448,192,66053,1,0,0:0:0:0:
192,192,66147,1,0,0:0:0:0:
320,192,66241,1,0,0:0:0:0:
64,192,66334,1,0,0:0:0:0:
192,192,66428,1,0,0:0:0:0:
320,192,66428,1,0,0:0:0:0:
448,192,66428,1,0,0:0:0:0:
320,192,66522,1,0,0:0:0:0:
192,192,66616,1,0,0:0:0:0:
64,192,66709,1,0,0:0:0:0:
320,192,66803,1,0,0:0:0:0:
448,192,66803,1,0,0:0:0:0:
64,192,66897,1,0,0:0:0:0:
320,192,66991,1,0,0:0:0:0:
448,192,66991,1,0,0:0:0:0:
64,192,67084,1,0,0:0:0:0:
192,192,67178,1,0,0:0:0:0:
320,192,67178,1,0,0:0:0:0:
448,192,67178,1,0,0:0:0:0:
192,192,67272,1,0,0:0:0:0:
64,192,67366,1,0,0:0:0:0:
320,192,67366,1,0,0:0:0:0:
192,192,67459,1,0,0:0:0:0:
64,192,67553,1,0,0:0:0:0:
448,192,67553,1,0,0:0:0:0:
192,192,67647,1,0,0:0:0:0:
320,192,67741,1,0,0:0:0:0:
448,192,67741,1,0,0:0:0:0:
64,192,67834,1,0,0:0:0:0:
192,192,67834,1,0,0:0:0:0:
320,192,67928,1,0,0:0:0:0:
448,192,67928,1,0,0:0:0:0:
64,192,68022,1,0,0:0:0:0:
448,192,68022,1,0,0:0:0:0:
192,192,68116,1,0,0:0:0:0:
320,192,68116,1,0,0:0:0:0:
192,192,68209,1,0,0:0:0:0:
448,192,68209,1,0,0:0:0:0:
64,0,68303,128,0,68334:1:0:0:0:
320,0,68303,128,0,68334:1:0:0:0:
448,0,68303,128,0,68334:1:0:0:0:
192,192,68397,1,0,0:0:0:0:
64,192,68491,1,0,0:0:0:0:
192,192,68584,1,0,0:0:0:0:
64,192,68678,1,0,0:0:0:0:
320,192,68678,1,0,0:0:0:0:
448,192,68678,1,0,0:0:0:0:
320,192,68772,1,0,0:0:0:0:
448,192,68866,1,0,0:0:0:0:
320,192,68959,1,0,0:0:0:0:
64,192,69053,1,0,0:0:0:0:
192,192,69053,1,0,0:0:0:0:
320,192,69147,1,0,0:0:0:0:
192,192,69241,1,0,0:0:0:0:
448,192,69334,1,0,0:0:0:0:
64,192,69428,1,0,0:0:0:0:
192,192,69428,1,0,0:0:0:0:
320,192,69428,1,0,0:0:0:0:
192,192,69522,1,0,0:0:0:0:
320,192,69616,1,0,0:0:0:0:
64,192,69709,1,0,0:0:0:0:
320,192,69803,1,0,0:0:0:0:
448,192,69803,1,0,0:0:0:0:
192,192,69897,1,0,0:0:0:0:
320,192,69991,1,0,0:0:0:0:
448,192,69991,1,0,0:0:0:0:
192,192,70084,1,0,0:0:0:0:
64,192,70178,1,0,0:0:0:0:
320,192,70178,1,0,0:0:0:0:
448,192,70178,1,0,0:0:0:0:
320,192,70272,1,0,0:0:0:0:
64,192,70366,1,0,0:0:0:0:
448,192,70366,1,0,0:0:0:0:
192,192,70459,1,0,0:0:0:0:
320,192,70553,1,0,0:0:0:0:
448,192,70553,1,0,0:0:0:0:
64,192,70647,1,0,0:0:0:0:
192,192,70741,1,0,0:0:0:0:
448,192,70741,1,0,0:0:0:0:
320,192,70834,1,0,0:0:0:0:
64,192,70928,1,0,0:0:0:0:
192,192,70928,1,0,0:0:0:0:
448,192,70928,1,0,0:0:0:0:
192,192,71022,1,0,0:0:0:0:
320,192,71116,1,0,0:0:0:0:
448,192,71116,1,0,0:0:0:0:
192,192,71209,1,0,0:0:0:0:
64,192,71303,1,0,0:0:0:0:
448,192,71303,1,0,0:0:0:0:
320,192,71397,1,0,0:0:0:0:
192,192,71491,1,0,0:0:0:0:
64,192,71584,1,0,0:0:0:0:
192,192,71678,1,0,0:0:0:0:
320,192,71678,1,0,0:0:0:0:
448,192,71678,1,0,0:0:0:0:
320,192,71772,1,0,0:0:0:0:
448,192,71866,1,0,0:0:0:0:
320,192,71959,1,0,0:0:0:0:
192,192,72053,1,0,0:0:0:0:
64,192,72147,1,0,0:0:0:0:
192,192,72241,1,0,0:0:0:0:
320,192,72241,1,0,0:0:0:0:
64,192,72334,1,0,0:0:0:0:
192,192,72428,1,0,0:0:0:0:
320,192,72428,1,0,0:0:0:0:
448,192,72428,1,0,0:0:0:0:
320,192,72522,1,0,0:0:0:0:
64,192,72616,1,0,0:0:0:0:
448,192,72616,1,0,0:0:0:0:
192,192,72709,1,0,0:0:0:0:
320,192,72803,1,0,0:0:0:0:
448,192,72803,1,0,0:0:0:0:
192,192,72897,1,0,0:0:0:0:
320,192,72991,1,0,0:0:0:0:
192,192,73084,1,0,0:0:0:0:
64,192,73178,1,0,0:0:0:0:
320,192,73178,1,0,0:0:0:0:
448,192,73178,1,0,0:0:0:0:
192,192,73272,1,0,0:0:0:0:
64,192,73366,1,0,0:0:0:0:
448,192,73366,1,0,0:0:0:0:
320,192,73459,1,0,0:0:0:0:
64,192,73553,1,0,0:0:0:0:
192,192,73553,1,0,0:0:0:0:
64,192,73647,1,0,0:0:0:0:
192,192,73647,1,0,0:0:0:0:
320,192,73741,1,0,0:0:0:0:
448,192,73741,1,0,0:0:0:0:
320,192,73834,1,0,0:0:0:0:
448,192,73834,1,0,0:0:0:0:
64,192,73928,1,0,0:0:0:0:
192,192,73928,1,0,0:0:0:0:
64,192,74022,1,0,0:0:0:0:
192,192,74022,1,0,0:0:0:0:
448,192,74116,1,0,0:0:0:0:
320,192,74209,1,0,0:0:0:0:
64,0,74303,128,0,74334:1:0:0:0:
192,0,74303,128,0,74334:1:0:0:0:
448,0,74303,128,0,74334:1:0:0:0:
192,192,74397,1,0,0:0:0:0:
64,192,74491,1,0,0:0:0:0:
192,192,74584,1,0,0:0:0:0:
64,192,74678,1,0,0:0:0:0:
320,192,74678,1,0,0:0:0:0:
448,192,74678,1,0,0:0:0:0:
320,192,74772,1,0,0:0:0:0:
448,192,74866,1,0,0:0:0:0:
320,192,74959,1,0,0:0:0:0:
64,192,75053,1,0,0:0:0:0:
192,192,75053,1,0,0:0:0:0:
320,192,75147,1,0,0:0:0:0:
192,192,75241,1,0,0:0:0:0:
448,192,75334,1,0,0:0:0:0:
64,192,75428,1,0,0:0:0:0:
192,192,75428,1,0,0:0:0:0:
320,192,75428,1,0,0:0:0:0:
320,192,75522,1,0,0:0:0:0:
192,192,75616,1,0,0:0:0:0:
448,192,75616,1,0,0:0:0:0:
64,192,75709,1,0,0:0:0:0:
192,192,75803,1,0,0:0:0:0:
320,192,75803,1,0,0:0:0:0:
64,192,75897,1,0,0:0:0:0:
192,192,75991,1,0,0:0:0:0:
448,192,75991,1,0,0:0:0:0:
64,192,76084,1,0,0:0:0:0:
192,192,76178,1,0,0:0:0:0:
320,192,76178,1,0,0:0:0:0:
448,192,76178,1,0,0:0:0:0:
192,192,76272,1,0,0:0:0:0:
64,192,76366,1,0,0:0:0:0:
320,192,76366,1,0,0:0:0:0:
192,192,76459,1,0,0:0:0:0:
64,192,76553,1,0,0:0:0:0:
448,192,76553,1,0,0:0:0:0:
192,192,76647,1,0,0:0:0:0:
320,192,76741,1,0,0:0:0:0:
448,192,76741,1,0,0:0:0:0:
64,192,76834,1,0,0:0:0:0:
192,192,76928,1,0,0:0:0:0:
320,192,76928,1,0,0:0:0:0:
448,192,76928,1,0,0:0:0:0:
320,192,77022,1,0,0:0:0:0:
64,192,77116,1,0,0:0:0:0:
192,192,77116,1,0,0:0:0:0:
320,192,77209,1,0,0:0:0:0:
192,192,77303,1,0,0:0:0:0:
448,192,77303,1,0,0:0:0:0:
192,192,77397,1,0,0:0:0:0:
64,192,77491,1,0,0:0:0:0:
192,192,77584,1,0,0:0:0:0:
64,192,77678,1,0,0:0:0:0:
320,192,77678,1,0,0:0:0:0:
448,192,77678,1,0,0:0:0:0:
320,192,77772,1,0,0:0:0:0:
448,192,77866,1,0,0:0:0:0:
320,192,77959,1,0,0:0:0:0:
64,192,78053,1,0,0:0:0:0:
192,192,78053,1,0,0:0:0:0:
320,192,78147,1,0,0:0:0:0:
192,192,78241,1,0,0:0:0:0:
448,192,78334,1,0,0:0:0:0:
64,192,78428,1,0,0:0:0:0:
192,192,78428,1,0,0:0:0:0:
320,192,78428,1,0,0:0:0:0:
192,192,78522,1,0,0:0:0:0:
320,192,78616,1,0,0:0:0:0:
448,192,78709,1,0,0:0:0:0:
64,192,78803,1,0,0:0:0:0:
192,192,78803,1,0,0:0:0:0:
448,192,78897,1,0,0:0:0:0:
64,192,78991,1,0,0:0:0:0:
192,192,78991,1,0,0:0:0:0:
448,192,79084,1,0,0:0:0:0:
64,192,79178,1,0,0:0:0:0:
192,192,79178,1,0,0:0:0:0:
320,192,79178,1,0,0:0:0:0:
320,192,79272,1,0,0:0:0:0:
192,192,79366,1,0,0:0:0:0:
448,192,79366,1,0,0:0:0:0:
320,192,79459,1,0,0:0:0:0:
64,192,79553,1,0,0:0:0:0:
448,192,79553,1,0,0:0:0:0:
320,192,79647,1,0,0:0:0:0:
192,192,79741,1,0,0:0:0:0:
64,192,79834,1,0,0:0:0:0:
192,192,79834,1,0,0:0:0:0:
320,192,79928,1,0,0:0:0:0:
320,192,80022,1,0,0:0:0:0:
448,192,80022,1,0,0:0:0:0:
64,192,80116,1,0,0:0:0:0:
448,192,80116,1,0,0:0:0:0:
192,192,80209,1,0,0:0:0:0:
320,192,80209,1,0,0:0:0:0:
64,0,80303,128,0,80334:1:0:0:0:
192,0,80303,128,0,80334:1:0:0:0:
448,0,80303,128,0,80334:1:0:0:0:
320,192,80397,1,0,0:0:0:0:
448,192,80491,1,0,0:0:0:0:
320,192,80584,1,0,0:0:0:0:
64,192,80678,1,0,0:0:0:0:
192,192,80678,1,0,0:0:0:0:
448,192,80678,1,0,0:0:0:0:
192,192,80772,1,0,0:0:0:0:
64,192,80866,1,0,0:0:0:0:
192,192,80959,1,0,0:0:0:0:
320,192,81053,1,0,0:0:0:0:
448,192,81053,1,0,0:0:0:0:
192,192,81147,1,0,0:0:0:0:
320,192,81241,1,0,0:0:0:0:
64,192,81334,1,0,0:0:0:0:
192,192,81428,1,0,0:0:0:0:
320,192,81428,1,0,0:0:0:0:
448,192,81428,1,0,0:0:0:0:
192,192,81522,1,0,0:0:0:0:
64,192,81616,1,0,0:0:0:0:
448,192,81616,1,0,0:0:0:0:
320,192,81709,1,0,0:0:0:0:
64,192,81803,1,0,0:0:0:0:
192,192,81803,1,0,0:0:0:0:
448,192,81897,1,0,0:0:0:0:
64,192,81991,1,0,0:0:0:0:
192,192,81991,1,0,0:0:0:0:
320,192,82084,1,0,0:0:0:0:
64,192,82178,1,0,0:0:0:0:
192,192,82178,1,0,0:0:0:0:
448,192,82178,1,0,0:0:0:0:
192,192,82272,1,0,0:0:0:0:
64,192,82366,1,0,0:0:0:0:
448,192,82366,1,0,0:0:0:0:
320,192,82459,1,0,0:0:0:0:
64,192,82553,1,0,0:0:0:0:
192,192,82553,1,0,0:0:0:0:
448,192,82647,1,0,0:0:0:0:
64,192,82741,1,0,0:0:0:0:
320,192,82741,1,0,0:0:0:0:
192,192,82834,1,0,0:0:0:0:
64,192,82928,1,0,0:0:0:0:
320,192,82928,1,0,0:0:0:0:
448,192,82928,1,0,0:0:0:0:
320,192,83022,1,0,0:0:0:0:
64,192,83116,1,0,0:0:0:0:
192,192,83116,1,0,0:0:0:0:
320,192,83209,1,0,0:0:0:0:
64,192,83303,1,0,0:0:0:0:
448,192,83303,1,0,0:0:0:0:
192,192,83397,1,0,0:0:0:0:
320,192,83491,1,0,0:0:0:0:
448,192,83584,1,0,0:0:0:0:
64,192,83678,1,0,0:0:0:0:
192,192,83678,1,0,0:0:0:0:
320,192,83678,1,0,0:0:0:0:
192,192,83772,1,0,0:0:0:0:
64,192,83866,1,0,0:0:0:0:
192,192,83959,1,0,0:0:0:0:
320,192,84053,1,0,0:0:0:0:
448,192,84147,1,0,0:0:0:0:
192,192,84241,1,0,0:0:0:0:
320,192,84241,1,0,0:0:0:0:
448,192,84334,1,0,0:0:0:0:
64,192,84428,1,0,0:0:0:0:
192,192,84428,1,0,0:0:0:0:
320,192,84428,1,0,0:0:0:0:
192,192,84522,1,0,0:0:0:0:
64,192,84616,1,0,0:0:0:0:
448,192,84616,1,0,0:0:0:0:
320,192,84709,1,0,0:0:0:0:
64,192,84803,1,0,0:0:0:0:
192,192,84803,1,0,0:0:0:0:
320,192,84897,1,0,0:0:0:0:
192,192,84991,1,0,0:0:0:0:
320,192,85084,1,0,0:0:0:0:
64,192,85178,1,0,0:0:0:0:
192,192,85178,1,0,0:0:0:0:
448,192,85178,1,0,0:0:0:0:
320,192,85272,1,0,0:0:0:0:
64,192,85366,1,0,0:0:0:0:
448,192,85366,1,0,0:0:0:0:
320,192,85459,1,0,0:0:0:0:
64,192,85553,1,0,0:0:0:0:
192,192,85553,1,0,0:0:0:0:
64,192,85647,1,0,0:0:0:0:
192,192,85647,1,0,0:0:0:0:
320,192,85741,1,0,0:0:0:0:
448,192,85741,1,0,0:0:0:0:
320,192,85834,1,0,0:0:0:0:
448,192,85834,1,0,0:0:0:0:
64,192,85928,1,0,0:0:0:0:
192,192,85928,1,0,0:0:0:0:
64,192,86022,1,0,0:0:0:0:
320,192,86022,1,0,0:0:0:0:
192,192,86116,1,0,0:0:0:0:
448,192,86116,1,0,0:0:0:0:
320,192,86163,1,0,0:0:0:0:
64,192,86209,1,0,0:0:0:0:
192,192,86209,1,0,0:0:0:0:
320,0,86303,128,0,86334:1:0:0:0:
448,0,86303,128,0,86334:1:0:0:0:
64,192,86491,1,0,0:0:0:0:
448,192,86491,1,0,0:0:0:0:
320,192,86678,1,0,0:0:0:0:
448,192,86678,1,0,0:0:0:0:
64,192,86866,1,0,0:0:0:0:
320,192,86866,1,0,0:0:0:0:
64,192,87053,1,0,0:0:0:0:
320,192,87053,1,0,0:0:0:0:
448,192,87053,1,0,0:0:0:0:
64,192,87241,1,0,0:0:0:0:
192,192,87241,1,0,0:0:0:0:
320,192,87334,1,0,0:0:0:0:
448,192,87334,1,0,0:0:0:0:
64,192,87428,1,0,0:0:0:0:
192,192,87428,1,0,0:0:0:0:
320,192,87803,1,0,0:0:0:0:
448,192,87803,1,0,0:0:0:0:
64,192,87897,1,0,0:0:0:0:
192,192,87897,1,0,0:0:0:0:
192,192,87991,1,0,0:0:0:0:
320,192,87991,1,0,0:0:0:0:
448,192,87991,1,0,0:0:0:0:
64,192,88366,1,0,0:0:0:0:
320,192,88366,1,0,0:0:0:0:
64,0,88553,128,0,88584:1:0:0:0:
320,0,88553,128,0,88584:1:0:0:0:
448,0,88553,128,0,88584:1:0:0:0:
64,192,88741,1,0,0:0:0:0:
192,192,88741,1,0,0:0:0:0:
192,192,88928,1,0,0:0:0:0:
448,192,88928,1,0,0:0:0:0:
64,192,89116,1,0,0:0:0:0:
192,192,89116,1,0,0:0:0:0:
448,192,89163,1,0,0:0:0:0:
320,192,89209,1,0,0:0:0:0:
64,192,89303,1,0,0:0:0:0:
448,192,89303,1,0,0:0:0:0:
192,192,89350,1,0,0:0:0:0:
320,192,89397,1,0,0:0:0:0:
64,192,89444,1,0,0:0:0:0:
192,192,89491,1,0,0:0:0:0:
448,192,89538,1,0,0:0:0:0:
320,192,89584,1,0,0:0:0:0:
192,192,89631,1,0,0:0:0:0:
64,192,89678,1,0,0:0:0:0:
320,192,89678,1,0,0:0:0:0:
448,192,89678,1,0,0:0:0:0:
448,192,89866,1,0,0:0:0:0:
320,192,89913,1,0,0:0:0:0:
64,192,89959,1,0,0:0:0:0:
192,192,89959,1,0,0:0:0:0:
320,192,90006,1,0,0:0:0:0:
192,192,90053,1,0,0:0:0:0:
448,192,90053,1,0,0:0:0:0:
64,192,90334,1,0,0:0:0:0:
192,192,90334,1,0,0:0:0:0:
192,192,90428,1,0,0:0:0:0:
448,192,90428,1,0,0:0:0:0:
320,192,90475,1,0,0:0:0:0:
64,192,90522,1,0,0:0:0:0:
192,192,90569,1,0,0:0:0:0:
448,192,90616,1,0,0:0:0:0:
320,192,90663,1,0,0:0:0:0:
64,192,90709,1,0,0:0:0:0:
448,192,90756,1,0,0:0:0:0:
192,192,90803,1,0,0:0:0:0:
320,192,90803,1,0,0:0:0:0:
64,192,90991,1,0,0:0:0:0:
448,192,90991,1,0,0:0:0:0:
320,192,91084,1,0,0:0:0:0:
448,192,91084,1,0,0:0:0:0:
64,192,91178,1,0,0:0:0:0:
192,192,91178,1,0,0:0:0:0:
448,192,91225,1,0,0:0:0:0:
320,192,91272,1,0,0:0:0:0:
192,192,91319,1,0,0:0:0:0:
64,192,91366,1,0,0:0:0:0:
320,192,91413,1,0,0:0:0:0:
192,192,91459,1,0,0:0:0:0:
448,192,91459,1,0,0:0:0:0:
64,192,91553,1,0,0:0:0:0:
192,192,91553,1,0,0:0:0:0:
320,192,91600,1,0,0:0:0:0:
192,192,91647,1,0,0:0:0:0:
448,192,91694,1,0,0:0:0:0:
320,192,91741,1,0,0:0:0:0:
64,192,91788,1,0,0:0:0:0:
192,192,91834,1,0,0:0:0:0:
320,192,91881,1,0,0:0:0:0:
64,192,91928,1,0,0:0:0:0:
448,192,91928,1,0,0:0:0:0:
320,192,92116,1,0,0:0:0:0:
448,192,92116,1,0,0:0:0:0:
64,0,92303,128,0,92334:1:0:0:0:
320,0,92303,128,0,92334:1:0:0:0:
448,0,92303,128,0,92334:1:0:0:0:
192,192,92491,1,0,0:0:0:0:
320,192,92491,1,0,0:0:0:0:
64,192,92678,1,0,0:0:0:0:
192,192,92678,1,0,0:0:0:0:
64,192,92866,1,0,0:0:0:0:
192,192,92866,1,0,0:0:0:0:
64,192,93053,1,0,0:0:0:0:
320,192,93053,1,0,0:0:0:0:
448,192,93053,1,0,0:0:0:0:
192,192,93241,1,0,0:0:0:0:
448,192,93241,1,0,0:0:0:0:
64,192,93334,1,0,0:0:0:0:
320,192,93334,1,0,0:0:0:0:
192,192,93428,1,0,0:0:0:0:
448,192,93428,1,0,0:0:0:0:
64,192,93803,1,0,0:0:0:0:
320,192,93803,1,0,0:0:0:0:
192,192,93897,1,0,0:0:0:0:
448,192,93897,1,0,0:0:0:0:
64,192,93991,1,0,0:0:0:0:
320,192,93991,1,0,0:0:0:0:
448,192,93991,1,0,0:0:0:0:
64,192,94366,1,0,0:0:0:0:
320,192,94366,1,0,0:0:0:0:
64,192,94553,1,0,0:0:0:0:
192,192,94553,1,0,0:0:0:0:
448,192,94553,1,0,0:0:0:0:
64,192,94741,1,0,0:0:0:0:
320,192,94741,1,0,0:0:0:0:
192,192,94928,1,0,0:0:0:0:
320,192,94928,1,0,0:0:0:0:
192,192,95116,1,0,0:0:0:0:
448,192,95116,1,0,0:0:0:0:
320,192,95209,1,0,0:0:0:0:
64,192,95303,1,0,0:0:0:0:
448,192,95303,1,0,0:0:0:0:
192,192,95327,1,0,0:0:0:0:
320,192,95366,1,0,0:0:0:0:
64,192,95428,1,0,0:0:0:0:
192,192,95491,1,0,0:0:0:0:
320,192,95553,1,0,0:0:0:0:
448,192,95616,1,0,0:0:0:0:
64,192,95678,1,0,0:0:0:0:
192,192,95741,1,0,0:0:0:0:
448,192,95803,1,0,0:0:0:0:
320,192,95866,1,0,0:0:0:0:
192,192,95928,1,0,0:0:0:0:
320,192,95991,1,0,0:0:0:0:
448,192,95991,1,0,0:0:0:0:
64,192,96053,1,0,0:0:0:0:
192,192,96053,1,0,0:0:0:0:
320,192,96116,1,0,0:0:0:0:
448,192,96116,1,0,0:0:0:0:
64,192,96178,1,0,0:0:0:0:
192,192,96241,1,0,0:0:0:0:
448,192,96303,1,0,0:0:0:0:
320,192,96366,1,0,0:0:0:0:
192,192,96428,1,0,0:0:0:0:
64,192,96491,1,0,0:0:0:0:
320,192,96616,1,0,0:0:0:0:
448,192,96616,1,0,0:0:0:0:
64,192,96678,1,0,0:0:0:0:
192,192,96678,1,0,0:0:0:0:
320,192,96741,1,0,0:0:0:0:
192,192,96803,1,0,0:0:0:0:
448,192,96866,1,0,0:0:0:0:
320,192,96928,1,0,0:0:0:0:
448,192,96991,1,0,0:0:0:0:
320,192,97053,1,0,0:0:0:0:
64,192,97178,1,0,0:0:0:0:
448,192,97241,1,0,0:0:0:0:
192,192,97303,1,0,0:0:0:0:
320,192,97366,1,0,0:0:0:0:
64,192,97428,1,0,0:0:0:0:
448,192,97491,1,0,0:0:0:0:
192,192,97553,1,0,0:0:0:0:
320,192,97616,1,0,0:0:0:0:
64,192,97678,1,0,0:0:0:0:
192,192,97741,1,0,0:0:0:0:
448,192,97741,1,0,0:0:0:0:
64,192,97928,1,0,0:0:0:0:
320,192,97928,1,0,0:0:0:0:
192,192,98116,1,0,0:0:0:0:
320,192,98116,1,0,0:0:0:0:
192,192,98303,1,0,0:0:0:0:
64,0,98303,128,0,104303:1:0:0:0:
448,0,98303,128,0,104303:1:0:0:0:
320,192,99991,1,0,0:0:0:0:
320,192,100178,1,0,0:0:0:0:
320,192,100366,1,0,0:0:0:0:
320,192,100553,1,0,0:0:0:0:
320,0,101116,128,0,101147:1:0:0:0:
192,0,101303,128,0,101334:1:0:0:0:
320,192,102428,1,0,0:0:0:0:
192,192,102522,1,0,0:0:0:0:
320,192,102616,1,0,0:0:0:0:
192,192,102709,1,0,0:0:0:0:
320,192,102803,1,0,0:0:0:0:
192,192,103741,1,0,0:0:0:0:
192,192,103928,1,0,0:0:0:0:
320,192,104116,1,0,0:0:0:0:
320,0,104303,128,0,106741:1:0:0:0:
192,192,104678,1,0,0:0:0:0:
192,192,104866,1,0,0:0:0:0:
64,192,105053,1,0,0:0:0:0:
192,192,105241,1,0,0:0:0:0:
192,192,105428,1,0,0:0:0:0:
64,192,105616,1,0,0:0:0:0:
192,192,105803,1,0,0:0:0:0:
64,192,105991,1,0,0:0:0:0:
192,192,106178,1,0,0:0:0:0:
192,192,106366,1,0,0:0:0:0:
192,192,106553,1,0,0:0:0:0:
192,192,106741,1,0,0:0:0:0:
448,192,106834,1,0,0:0:0:0:
192,0,106928,128,0,107116:1:0:0:0:
320,192,107022,1,0,0:0:0:0:
64,0,107116,128,0,107303:1:0:0:0:
320,192,107209,1,0,0:0:0:0:
192,0,107303,128,0,107678:1:0:0:0:
448,192,107491,1,0,0:0:0:0:
320,0,107678,128,0,107866:1:0:0:0:
448,0,107866,128,0,109366:1:0:0:0:
64,192,108053,1,0,0:0:0:0:
192,192,108241,1,0,0:0:0:0:
192,192,108428,1,0,0:0:0:0:
64,192,108616,1,0,0:0:0:0:
192,192,108803,1,0,0:0:0:0:
192,192,108991,1,0,0:0:0:0:
192,192,109178,1,0,0:0:0:0:
192,192,109366,1,0,0:0:0:0:
64,192,109459,1,0,0:0:0:0:
320,0,109553,128,0,111428:1:0:0:0:
64,192,109616,1,0,0:0:0:0:
448,192,109678,1,0,0:0:0:0:
64,192,109741,1,0,0:0:0:0:
448,192,109803,1,0,0:0:0:0:
64,192,109866,1,0,0:0:0:0:
448,192,109928,1,0,0:0:0:0:
64,192,109991,1,0,0:0:0:0:
448,192,110053,1,0,0:0:0:0:
64,192,110116,1,0,0:0:0:0:
448,192,110178,1,0,0:0:0:0:
64,192,110241,1,0,0:0:0:0:
448,0,110303,128,0,110334:1:0:0:0:
192,192,110678,1,0,0:0:0:0:
192,192,110866,1,0,0:0:0:0:
64,192,111053,1,0,0:0:0:0:
192,192,111241,1,0,0:0:0:0:
448,0,111428,128,0,111616:1:0:0:0:
192,0,111616,128,0,111803:1:0:0:0:
64,0,111803,128,0,112741:1:0:0:0:
448,192,111991,1,0,0:0:0:0:
448,192,112178,1,0,0:0:0:0:
448,192,112366,1,0,0:0:0:0:
448,192,112553,1,0,0:0:0:0:
320,192,112741,1,0,0:0:0:0:
192,192,112803,1,0,0:0:0:0:
320,192,112866,1,0,0:0:0:0:
448,192,112928,1,0,0:0:0:0:
320,192,112991,1,0,0:0:0:0:
192,192,113053,1,0,0:0:0:0:
64,192,113116,1,0,0:0:0:0:
320,192,113178,1,0,0:0:0:0:
192,192,113241,1,0,0:0:0:0:
448,192,113303,1,0,0:0:0:0:
320,192,113366,1,0,0:0:0:0:
192,192,113428,1,0,0:0:0:0:
64,192,113491,1,0,0:0:0:0:
448,192,113553,1,0,0:0:0:0:
320,192,113616,1,0,0:0:0:0:
192,192,113678,1,0,0:0:0:0:
64,192,113741,1,0,0:0:0:0:
320,192,113803,1,0,0:0:0:0:
192,192,113866,1,0,0:0:0:0:
448,192,113928,1,0,0:0:0:0:
320,192,113991,1,0,0:0:0:0:
192,192,114053,1,0,0:0:0:0:
64,192,114116,1,0,0:0:0:0:
320,192,114178,1,0,0:0:0:0:
192,192,114241,1,0,0:0:0:0:
448,192,114303,1,0,0:0:0:0:
320,192,114366,1,0,0:0:0:0:
192,192,114428,1,0,0:0:0:0:
64,192,114491,1,0,0:0:0:0:
320,192,114553,1,0,0:0:0:0:
192,192,114616,1,0,0:0:0:0:
64,0,114803,128,0,114834:1:0:0:0:
320,0,114991,128,0,115741:1:0:0:0:
192,192,115178,1,0,0:0:0:0:
448,0,115366,128,0,115397:1:0:0:0:
192,192,115553,1,0,0:0:0:0:
192,192,115741,1,0,0:0:0:0:
448,0,115928,128,0,115959:1:0:0:0:
64,192,116116,1,0,0:0:0:0:
320,0,116303,128,0,116334:1:0:0:0:
448,0,116303,128,0,116334:1:0:0:0:
192,0,116303,128,0,117616:1:0:0:0:
320,192,116491,1,0,0:0:0:0:
320,192,116678,1,0,0:0:0:0:
320,192,116866,1,0,0:0:0:0:
320,192,117053,1,0,0:0:0:0:
320,192,117241,1,0,0:0:0:0:
64,192,117334,1,0,0:0:0:0:
320,192,117428,1,0,0:0:0:0:
448,0,117616,128,0,118928:1:0:0:0:
64,192,117709,1,0,0:0:0:0:
192,192,117803,1,0,0:0:0:0:
64,192,117897,1,0,0:0:0:0:
192,192,117991,1,0,0:0:0:0:
64,192,118084,1,0,0:0:0:0:
192,192,118178,1,0,0:0:0:0:
64,192,118272,1,0,0:0:0:0:
192,192,118366,1,0,0:0:0:0:
64,192,118459,1,0,0:0:0:0:
192,192,118553,1,0,0:0:0:0:
64,192,118647,1,0,0:0:0:0:
192,192,118741,1,0,0:0:0:0:
64,192,118834,1,0,0:0:0:0:
192,192,118928,1,0,0:0:0:0:
64,192,119022,1,0,0:0:0:0:
448,192,119061,1,0,0:0:0:0:
192,192,119116,1,0,0:0:0:0:
320,192,119147,1,0,0:0:0:0:
64,192,119209,1,0,0:0:0:0:
64,0,119303,128,0,119334:1:0:0:0:
448,0,119303,128,0,119334:1:0:0:0:
192,0,119303,128,0,120428:1:0:0:0:
320,192,119678,1,0,0:0:0:0:
320,192,119866,1,0,0:0:0:0:
64,192,120053,1,0,0:0:0:0:
64,192,120241,1,0,0:0:0:0:
320,192,120428,1,0,0:0:0:0:
64,192,120616,1,0,0:0:0:0:
320,192,120803,1,0,0:0:0:0:
320,192,121053,1,0,0:0:0:0:
448,192,121084,1,0,0:0:0:0:
320,192,121366,1,0,0:0:0:0:
192,192,121584,1,0,0:0:0:0:
64,192,121842,1,0,0:0:0:0:
192,192,121991,1,0,0:0:0:0:
320,192,122116,1,0,0:0:0:0:
448,192,122256,1,0,0:0:0:0:
192,192,122350,1,0,0:0:0:0:
320,192,122444,1,0,0:0:0:0:
64,0,122553,128,0,123303:1:0:0:0:
448,192,123350,1,0,0:0:0:0:
192,192,123475,1,0,0:0:0:0:
320,0,123616,128,0,123647:1:0:0:0:
64,0,123616,128,0,124834:1:0:0:0:
320,0,123803,128,0,123834:1:0:0:0:
448,0,123803,128,0,123834:1:0:0:0:
320,192,124366,1,0,0:0:0:0:
320,192,124553,1,0,0:0:0:0:
320,192,124741,1,0,0:0:0:0:
192,192,124834,1,0,0:0:0:0:
320,192,125022,1,0,0:0:0:0:
448,192,125209,1,0,0:0:0:0:
448,0,125303,128,0,126428:1:0:0:0:
192,192,125678,1,0,0:0:0:0:
192,192,125866,1,0,0:0:0:0:
192,192,126053,1,0,0:0:0:0:
192,192,126241,1,0,0:0:0:0:
320,192,126428,1,0,0:0:0:0:
192,0,126616,128,0,127366:1:0:0:0:
448,0,126803,128,0,126834:1:0:0:0:
64,192,126991,1,0,0:0:0:0:
64,192,127178,1,0,0:0:0:0:
64,192,127459,1,0,0:0:0:0:
320,192,127459,1,0,0:0:0:0:
192,192,127506,1,0,0:0:0:0:
320,192,127553,1,0,0:0:0:0:
448,192,127553,1,0,0:0:0:0:
320,192,127647,1,0,0:0:0:0:
448,192,127647,1,0,0:0:0:0:
64,192,127741,1,0,0:0:0:0:
192,192,127741,1,0,0:0:0:0:
64,192,127834,1,0,0:0:0:0:
192,192,127834,1,0,0:0:0:0:
320,192,127928,1,0,0:0:0:0:
448,192,127928,1,0,0:0:0:0:
320,192,128022,1,0,0:0:0:0:
448,192,128022,1,0,0:0:0:0:
192,192,128116,1,0,0:0:0:0:
320,192,128116,1,0,0:0:0:0:
64,192,128209,1,0,0:0:0:0:
448,192,128209,1,0,0:0:0:0:
64,0,128303,128,0,128334:1:0:0:0:
320,0,128303,128,0,128334:1:0:0:0:
448,0,128303,128,0,128334:1:0:0:0:
192,192,128397,1,0,0:0:0:0:
320,192,128491,1,0,0:0:0:0:
448,192,128584,1,0,0:0:0:0:
64,192,128678,1,0,0:0:0:0:
192,192,128678,1,0,0:0:0:0:
320,192,128678,1,0,0:0:0:0:
192,192,128772,1,0,0:0:0:0:
64,192,128866,1,0,0:0:0:0:
192,192,128959,1,0,0:0:0:0:
64,192,129053,1,0,0:0:0:0:
448,192,129053,1,0,0:0:0:0:
320,192,129147,1,0,0:0:0:0:
448,192,129241,1,0,0:0:0:0:
320,192,129334,1,0,0:0:0:0:
64,192,129428,1,0,0:0:0:0:
192,192,129428,1,0,0:0:0:0:
448,192,129428,1,0,0:0:0:0:
320,192,129522,1,0,0:0:0:0:
64,192,129616,1,0,0:0:0:0:
192,192,129709,1,0,0:0:0:0:
64,192,129803,1,0,0:0:0:0:
320,192,129803,1,0,0:0:0:0:
192,192,129897,1,0,0:0:0:0:
320,192,129991,1,0,0:0:0:0:
448,192,130084,1,0,0:0:0:0:
64,192,130178,1,0,0:0:0:0:
192,192,130178,1,0,0:0:0:0:
320,192,130178,1,0,0:0:0:0:
192,192,130272,1,0,0:0:0:0:
64,192,130366,1,0,0:0:0:0:
192,192,130459,1,0,0:0:0:0:
64,192,130553,1,0,0:0:0:0:
448,192,130553,1,0,0:0:0:0:
320,192,130647,1,0,0:0:0:0:
448,192,130741,1,0,0:0:0:0:
320,192,130834,1,0,0:0:0:0:
64,192,130928,1,0,0:0:0:0:
192,192,130928,1,0,0:0:0:0:
448,192,130928,1,0,0:0:0:0:
320,192,131022,1,0,0:0:0:0:
64,192,131116,1,0,0:0:0:0:
192,192,131209,1,0,0:0:0:0:
320,192,131303,1,0,0:0:0:0:
448,192,131303,1,0,0:0:0:0:
64,192,131397,1,0,0:0:0:0:
448,192,131491,1,0,0:0:0:0:
320,192,131584,1,0,0:0:0:0:
64,192,131678,1,0,0:0:0:0:
192,192,131678,1,0,0:0:0:0:
448,192,131678,1,0,0:0:0:0:
64,192,131772,1,0,0:0:0:0:
320,192,131866,1,0,0:0:0:0:
192,192,131959,1,0,0:0:0:0:
64,192,132053,1,0,0:0:0:0:
448,192,132053,1,0,0:0:0:0:
320,192,132147,1,0,0:0:0:0:
192,192,132241,1,0,0:0:0:0:
320,192,132334,1,0,0:0:0:0:
64,192,132428,1,0,0:0:0:0:
192,192,132428,1,0,0:0:0:0:
448,192,132428,1,0,0:0:0:0:
192,192,132522,1,0,0:0:0:0:
320,192,132616,1,0,0:0:0:0:
448,192,132709,1,0,0:0:0:0:
64,192,132803,1,0,0:0:0:0:
320,192,132803,1,0,0:0:0:0:
192,192,132897,1,0,0:0:0:0:
64,192,132991,1,0,0:0:0:0:
192,192,133084,1,0,0:0:0:0:
64,192,133178,1,0,0:0:0:0:
320,192,133178,1,0,0:0:0:0:
448,192,133178,1,0,0:0:0:0:
192,192,133272,1,0,0:0:0:0:
320,192,133366,1,0,0:0:0:0:
192,192,133459,1,0,0:0:0:0:
320,192,133553,1,0,0:0:0:0:
448,192,133553,1,0,0:0:0:0:
64,192,133647,1,0,0:0:0:0:
192,192,133647,1,0,0:0:0:0:
320,192,133741,1,0,0:0:0:0:
448,192,133741,1,0,0:0:0:0:
64,192,133834,1,0,0:0:0:0:
192,192,133834,1,0,0:0:0:0:
64,192,133928,1,0,0:0:0:0:
320,192,133928,1,0,0:0:0:0:
192,192,134022,1,0,0:0:0:0:
448,192,134022,1,0,0:0:0:0:
64,192,134116,1,0,0:0:0:0:
320,192,134116,1,0,0:0:0:0:
192,192,134209,1,0,0:0:0:0:
448,192,134209,1,0,0:0:0:0:
64,0,134303,128,0,134334:1:0:0:0:
320,0,134303,128,0,134334:1:0:0:0:
192,192,134397,1,0,0:0:0:0:
320,192,134491,1,0,0:0:0:0:
448,192,134584,1,0,0:0:0:0:
64,192,134678,1,0,0:0:0:0:
192,192,134678,1,0,0:0:0:0:
320,192,134678,1,0,0:0:0:0:
192,192,134772,1,0,0:0:0:0:
64,192,134866,1,0,0:0:0:0:
192,192,134959,1,0,0:0:0:0:
64,192,135053,1,0,0:0:0:0:
448,192,135053,1,0,0:0:0:0:
320,192,135147,1,0,0:0:0:0:
448,192,135241,1,0,0:0:0:0:
320,192,135334,1,0,0:0:0:0:
64,192,135428,1,0,0:0:0:0:
192,192,135428,1,0,0:0:0:0:
448,192,135428,1,0,0:0:0:0:
320,192,135522,1,0,0:0:0:0:
64,192,135616,1,0,0:0:0:0:
192,192,135709,1,0,0:0:0:0:
64,192,135803,1,0,0:0:0:0:
320,192,135803,1,0,0:0:0:0:
192,192,135897,1,0,0:0:0:0:
320,192,135991,1,0,0:0:0:0:
448,192,136084,1,0,0:0:0:0:
64,192,136178,1,0,0:0:0:0:
192,192,136178,1,0,0:0:0:0:
320,192,136178,1,0,0:0:0:0:
192,192,136272,1,0,0:0:0:0:
64,192,136366,1,0,0:0:0:0:
192,192,136459,1,0,0:0:0:0:
64,192,136553,1,0,0:0:0:0:
448,192,136553,1,0,0:0:0:0:
320,192,136647,1,0,0:0:0:0:
448,192,136741,1,0,0:0:0:0:
320,192,136834,1,0,0:0:0:0:
64,192,136928,1,0,0:0:0:0:
192,192,136928,1,0,0:0:0:0:
448,192,136928,1,0,0:0:0:0:
320,192,137022,1,0,0:0:0:0:
64,192,137116,1,0,0:0:0:0:
192,192,137209,1,0,0:0:0:0:
64,192,137303,1,0,0:0:0:0:
320,192,137303,1,0,0:0:0:0:
192,192,137397,1,0,0:0:0:0:
320,192,137491,1,0,0:0:0:0:
448,192,137584,1,0,0:0:0:0:
64,192,137678,1,0,0:0:0:0:
192,192,137678,1,0,0:0:0:0:
320,192,137678,1,0,0:0:0:0:
320,192,137772,1,0,0:0:0:0:
64,192,137866,1,0,0:0:0:0:
192,192,137959,1,0,0:0:0:0:
64,192,138053,1,0,0:0:0:0:
320,192,138053,1,0,0:0:0:0:
448,192,138147,1,0,0:0:0:0:
64,192,138241,1,0,0:0:0:0:
192,192,138334,1,0,0:0:0:0:
64,192,138428,1,0,0:0:0:0:
320,192,138428,1,0,0:0:0:0:
448,192,138428,1,0,0:0:0:0:
192,192,138522,1,0,0:0:0:0:
320,192,138616,1,0,0:0:0:0:
448,192,138709,1,0,0:0:0:0:
192,192,138803,1,0,0:0:0:0:
320,192,138897,1,0,0:0:0:0:
64,192,138991,1,0,0:0:0:0:
192,192,138991,1,0,0:0:0:0:
64,192,139084,1,0,0:0:0:0:
192,192,139084,1,0,0:0:0:0:
320,192,139178,1,0,0:0:0:0:
448,192,139178,1,0,0:0:0:0:
320,192,139272,1,0,0:0:0:0:
448,192,139272,1,0,0:0:0:0:
64,192,139366,1,0,0:0:0:0:
192,192,139366,1,0,0:0:0:0:
320,192,139459,1,0,0:0:0:0:
448,192,139459,1,0,0:0:0:0:
64,192,139553,1,0,0:0:0:0:
192,192,139553,1,0,0:0:0:0:
64,192,139647,1,0,0:0:0:0:
192,192,139647,1,0,0:0:0:0:
320,192,139741,1,0,0:0:0:0:
448,192,139741,1,0,0:0:0:0:
320,192,139834,1,0,0:0:0:0:
448,192,139834,1,0,0:0:0:0:
64,192,139928,1,0,0:0:0:0:
192,192,139928,1,0,0:0:0:0:
64,192,140022,1,0,0:0:0:0:
192,192,140022,1,0,0:0:0:0:
320,192,140116,1,0,0:0:0:0:
192,192,140209,1,0,0:0:0:0:
64,192,140303,1,0,0:0:0:0:
448,192,140303,1,0,0:0:0:0:
192,192,140397,1,0,0:0:0:0:
64,192,140491,1,0,0:0:0:0:
192,192,140584,1,0,0:0:0:0:
64,192,140678,1,0,0:0:0:0:
320,192,140678,1,0,0:0:0:0:
448,192,140678,1,0,0:0:0:0:
320,192,140772,1,0,0:0:0:0:
448,192,140866,1,0,0:0:0:0:
320,192,140959,1,0,0:0:0:0:
64,192,141053,1,0,0:0:0:0:
192,192,141053,1,0,0:0:0:0:
320,192,141147,1,0,0:0:0:0:
192,192,141241,1,0,0:0:0:0:
448,192,141334,1,0,0:0:0:0:
64,192,141428,1,0,0:0:0:0:
192,192,141428,1,0,0:0:0:0:
320,192,141428,1,0,0:0:0:0:
192,192,141522,1,0,0:0:0:0:
64,192,141616,1,0,0:0:0:0:
320,192,141616,1,0,0:0:0:0:
448,192,141709,1,0,0:0:0:0:
192,192,141803,1,0,0:0:0:0:
320,192,141803,1,0,0:0:0:0:
448,192,141897,1,0,0:0:0:0:
64,192,141991,1,0,0:0:0:0:
320,192,141991,1,0,0:0:0:0:
448,192,142084,1,0,0:0:0:0:
64,192,142178,1,0,0:0:0:0:
192,192,142178,1,0,0:0:0:0:
320,192,142178,1,0,0:0:0:0:
320,192,142272,1,0,0:0:0:0:
192,192,142366,1,0,0:0:0:0:
448,192,142366,1,0,0:0:0:0:
320,192,142459,1,0,0:0:0:0:
64,192,142553,1,0,0:0:0:0:
448,192,142553,1,0,0:0:0:0:
320,192,142647,1,0,0:0:0:0:
64,192,142741,1,0,0:0:0:0:
192,192,142741,1,0,0:0:0:0:
448,192,142834,1,0,0:0:0:0:
64,192,142928,1,0,0:0:0:0:
192,192,142928,1,0,0:0:0:0:
320,192,142928,1,0,0:0:0:0:
192,192,143022,1,0,0:0:0:0:
320,192,143116,1,0,0:0:0:0:
448,192,143116,1,0,0:0:0:0:
320,192,143209,1,0,0:0:0:0:
448,192,143209,1,0,0:0:0:0:
64,192,143303,1,0,0:0:0:0:
192,192,143303,1,0,0:0:0:0:
320,192,143397,1,0,0:0:0:0:
448,192,143491,1,0,0:0:0:0:
320,192,143584,1,0,0:0:0:0:
64,192,143678,1,0,0:0:0:0:
192,192,143678,1,0,0:0:0:0:
448,192,143678,1,0,0:0:0:0:
192,192,143772,1,0,0:0:0:0:
64,192,143866,1,0,0:0:0:0:
192,192,143959,1,0,0:0:0:0:
320,192,144053,1,0,0:0:0:0:
448,192,144053,1,0,0:0:0:0:
192,192,144147,1,0,0:0:0:0:
320,192,144241,1,0,0:0:0:0:
64,192,144334,1,0,0:0:0:0:
192,192,144428,1,0,0:0:0:0:
320,192,144428,1,0,0:0:0:0:
448,192,144428,1,0,0:0:0:0:
320,192,144522,1,0,0:0:0:0:
192,192,144616,1,0,0:0:0:0:
64,192,144709,1,0,0:0:0:0:
320,192,144803,1,0,0:0:0:0:
448,192,144803,1,0,0:0:0:0:
64,192,144897,1,0,0:0:0:0:
320,192,144991,1,0,0:0:0:0:
448,192,144991,1,0,0:0:0:0:
64,192,145084,1,0,0:0:0:0:
192,192,145178,1,0,0:0:0:0:
320,192,145178,1,0,0:0:0:0:
448,192,145178,1,0,0:0:0:0:
192,192,145272,1,0,0:0:0:0:
64,192,145366,1,0,0:0:0:0:
320,192,145366,1,0,0:0:0:0:
192,192,145459,1,0,0:0:0:0:
64,192,145553,1,0,0:0:0:0:
448,192,145553,1,0,0:0:0:0:
192,192,145647,1,0,0:0:0:0:
320,192,145741,1,0,0:0:0:0:
448,192,145741,1,0,0:0:0:0:
64,192,145834,1,0,0:0:0:0:
192,192,145834,1,0,0:0:0:0:
320,192,145928,1,0,0:0:0:0:
448,192,145928,1,0,0:0:0:0:
64,192,146022,1,0,0:0:0:0:
192,192,146022,1,0,0:0:0:0:
64,192,146116,1,0,0:0:0:0:
320,192,146116,1,0,0:0:0:0:
192,192,146209,1,0,0:0:0:0:
448,192,146209,1,0,0:0:0:0:
64,0,146303,128,0,146334:1:0:0:0:
320,0,146303,128,0,146334:1:0:0:0:
448,0,146303,128,0,146334:1:0:0:0:
192,192,146397,1,0,0:0:0:0:
64,192,146491,1,0,0:0:0:0:
192,192,146584,1,0,0:0:0:0:
64,192,146678,1,0,0:0:0:0:
320,192,146678,1,0,0:0:0:0:
448,192,146678,1,0,0:0:0:0:
320,192,146772,1,0,0:0:0:0:
448,192,146866,1,0,0:0:0:0:
320,192,146959,1,0,0:0:0:0:
64,192,147053,1,0,0:0:0:0:
192,192,147053,1,0,0:0:0:0:
320,192,147147,1,0,0:0:0:0:
192,192,147241,1,0,0:0:0:0:
448,192,147334,1,0,0:0:0:0:
64,192,147428,1,0,0:0:0:0:
192,192,147428,1,0,0:0:0:0:
320,192,147428,1,0,0:0:0:0:
192,192,147522,1,0,0:0:0:0:
320,192,147616,1,0,0:0:0:0:
64,192,147709,1,0,0:0:0:0:
320,192,147803,1,0,0:0:0:0:
448,192,147803,1,0,0:0:0:0:
192,192,147897,1,0,0:0:0:0:
320,192,147991,1,0,0:0:0:0:
448,192,147991,1,0,0:0:0:0:
192,192,148084,1,0,0:0:0:0:
64,192,148178,1,0,0:0:0:0:
320,192,148178,1,0,0:0:0:0:
448,192,148178,1,0,0:0:0:0:
320,192,148272,1,0,0:0:0:0:
64,192,148366,1,0,0:0:0:0:
448,192,148366,1,0,0:0:0:0:
192,192,148459,1,0,0:0:0:0:
320,192,148553,1,0,0:0:0:0:
448,192,148553,1,0,0:0:0:0:
64,192,148647,1,0,0:0:0:0:
192,192,148741,1,0,0:0:0:0:
448,192,148741,1,0,0:0:0:0:
320,192,148834,1,0,0:0:0:0:
64,192,148928,1,0,0:0:0:0:
192,192,148928,1,0,0:0:0:0:
448,192,148928,1,0,0:0:0:0:
192,192,149022,1,0,0:0:0:0:
320,192,149116,1,0,0:0:0:0:
448,192,149116,1,0,0:0:0:0:
320,192,149209,1,0,0:0:0:0:
448,192,149209,1,0,0:0:0:0:
64,192,149303,1,0,0:0:0:0:
192,192,149303,1,0,0:0:0:0:
320,192,149397,1,0,0:0:0:0:
192,192,149491,1,0,0:0:0:0:
64,192,149584,1,0,0:0:0:0:
192,192,149678,1,0,0:0:0:0:
320,192,149678,1,0,0:0:0:0:
448,192,149678,1,0,0:0:0:0:
320,192,149772,1,0,0:0:0:0:
448,192,149866,1,0,0:0:0:0:
320,192,149959,1,0,0:0:0:0:
192,192,150053,1,0,0:0:0:0:
64,192,150147,1,0,0:0:0:0:
192,192,150241,1,0,0:0:0:0:
320,192,150241,1,0,0:0:0:0:
64,192,150334,1,0,0:0:0:0:
192,192,150428,1,0,0:0:0:0:
320,192,150428,1,0,0:0:0:0:
448,192,150428,1,0,0:0:0:0:
320,192,150522,1,0,0:0:0:0:
64,192,150616,1,0,0:0:0:0:
448,192,150616,1,0,0:0:0:0:
192,192,150709,1,0,0:0:0:0:
320,192,150803,1,0,0:0:0:0:
448,192,150803,1,0,0:0:0:0:
192,192,150897,1,0,0:0:0:0:
320,192,150991,1,0,0:0:0:0:
448,192,150991,1,0,0:0:0:0:
320,192,151084,1,0,0:0:0:0:
448,192,151084,1,0,0:0:0:0:
64,192,151178,1,0,0:0:0:0:
192,192,151178,1,0,0:0:0:0:
64,192,151272,1,0,0:0:0:0:
192,192,151272,1,0,0:0:0:0:
320,192,151366,1,0,0:0:0:0:
448,192,151459,1,0,0:0:0:0:
64,192,151553,1,0,0:0:0:0:
192,192,151553,1,0,0:0:0:0:
64,192,151647,1,0,0:0:0:0:
192,192,151647,1,0,0:0:0:0:
320,192,151741,1,0,0:0:0:0:
448,192,151741,1,0,0:0:0:0:
320,192,151834,1,0,0:0:0:0:
448,192,151834,1,0,0:0:0:0:
64,192,151928,1,0,0:0:0:0:
192,192,151928,1,0,0:0:0:0:
320,192,152022,1,0,0:0:0:0:
192,192,152116,1,0,0:0:0:0:
320,192,152209,1,0,0:0:0:0:
64,0,152303,128,0,152334:1:0:0:0:
192,0,152303,128,0,152334:1:0:0:0:
448,0,152303,128,0,152334:1:0:0:0:
192,192,152397,1,0,0:0:0:0:
64,192,152491,1,0,0:0:0:0:
192,192,152584,1,0,0:0:0:0:
64,192,152678,1,0,0:0:0:0:
320,192,152678,1,0,0:0:0:0:
448,192,152678,1,0,0:0:0:0:
320,192,152772,1,0,0:0:0:0:
448,192,152866,1,0,0:0:0:0:
320,192,152959,1,0,0:0:0:0:
64,192,153053,1,0,0:0:0:0:
192,192,153053,1,0,0:0:0:0:
320,192,153147,1,0,0:0:0:0:
192,192,153241,1,0,0:0:0:0:
448,192,153334,1,0,0:0:0:0:
64,192,153428,1,0,0:0:0:0:
192,192,153428,1,0,0:0:0:0:
320,192,153428,1,0,0:0:0:0:
320,192,153522,1,0,0:0:0:0:
192,192,153616,1,0,0:0:0:0:
448,192,153616,1,0,0:0:0:0:
64,192,153709,1,0,0:0:0:0:
192,192,153803,1,0,0:0:0:0:
320,192,153803,1,0,0:0:0:0:
64,192,153897,1,0,0:0:0:0:
192,192,153991,1,0,0:0:0:0:
448,192,153991,1,0,0:0:0:0:
64,192,154084,1,0,0:0:0:0:
192,192,154178,1,0,0:0:0:0:
320,192,154178,1,0,0:0:0:0:
448,192,154178,1,0,0:0:0:0:
192,192,154272,1,0,0:0:0:0:
64,192,154366,1,0,0:0:0:0:
320,192,154366,1,0,0:0:0:0:
192,192,154459,1,0,0:0:0:0:
64,192,154553,1,0,0:0:0:0:
448,192,154553,1,0,0:0:0:0:
192,192,154647,1,0,0:0:0:0:
320,192,154741,1,0,0:0:0:0:
448,192,154741,1,0,0:0:0:0:
64,192,154834,1,0,0:0:0:0:
192,192,154928,1,0,0:0:0:0:
320,192,154928,1,0,0:0:0:0:
448,192,154928,1,0,0:0:0:0:
320,192,155022,1,0,0:0:0:0:
64,192,155116,1,0,0:0:0:0:
192,192,155116,1,0,0:0:0:0:
64,192,155209,1,0,0:0:0:0:
192,192,155209,1,0,0:0:0:0:
320,192,155303,1,0,0:0:0:0:
448,192,155303,1,0,0:0:0:0:
192,192,155397,1,0,0:0:0:0:
64,192,155491,1,0,0:0:0:0:
192,192,155584,1,0,0:0:0:0:
64,192,155678,1,0,0:0:0:0:
320,192,155678,1,0,0:0:0:0:
448,192,155678,1,0,0:0:0:0:
320,192,155772,1,0,0:0:0:0:
448,192,155866,1,0,0:0:0:0:
320,192,155959,1,0,0:0:0:0:
64,192,156053,1,0,0:0:0:0:
192,192,156053,1,0,0:0:0:0:
320,192,156147,1,0,0:0:0:0:
192,192,156241,1,0,0:0:0:0:
448,192,156334,1,0,0:0:0:0:
64,192,156428,1,0,0:0:0:0:
192,192,156428,1,0,0:0:0:0:
320,192,156428,1,0,0:0:0:0:
192,192,156522,1,0,0:0:0:0:
320,192,156616,1,0,0:0:0:0:
448,192,156709,1,0,0:0:0:0:
64,192,156803,1,0,0:0:0:0:
192,192,156803,1,0,0:0:0:0:
448,192,156897,1,0,0:0:0:0:
64,192,156991,1,0,0:0:0:0:
320,192,156991,1,0,0:0:0:0:
64,192,157084,1,0,0:0:0:0:
320,192,157084,1,0,0:0:0:0:
192,192,157178,1,0,0:0:0:0:
320,192,157272,1,0,0:0:0:0:
192,192,157366,1,0,0:0:0:0:
448,192,157366,1,0,0:0:0:0:
320,192,157459,1,0,0:0:0:0:
64,192,157553,1,0,0:0:0:0:
448,192,157553,1,0,0:0:0:0:
64,192,157647,1,0,0:0:0:0:
448,192,157647,1,0,0:0:0:0:
320,192,157741,1,0,0:0:0:0:
192,192,157834,1,0,0:0:0:0:
64,192,157928,1,0,0:0:0:0:
320,192,157928,1,0,0:0:0:0:
192,192,158022,1,0,0:0:0:0:
320,192,158116,1,0,0:0:0:0:
448,192,158116,1,0,0:0:0:0:
320,192,158209,1,0,0:0:0:0:
448,192,158209,1,0,0:0:0:0:
64,192,158303,1,0,0:0:0:0:
192,192,158303,1,0,0:0:0:0:
320,192,158397,1,0,0:0:0:0:
448,192,158491,1,0,0:0:0:0:
320,192,158584,1,0,0:0:0:0:
64,192,158678,1,0,0:0:0:0:
192,192,158678,1,0,0:0:0:0:
448,192,158678,1,0,0:0:0:0:
192,192,158772,1,0,0:0:0:0:
64,192,158866,1,0,0:0:0:0:
192,192,158959,1,0,0:0:0:0:
320,192,159053,1,0,0:0:0:0:
448,192,159053,1,0,0:0:0:0:
192,192,159147,1,0,0:0:0:0:
320,192,159241,1,0,0:0:0:0:
64,192,159334,1,0,0:0:0:0:
192,192,159428,1,0,0:0:0:0:
320,192,159428,1,0,0:0:0:0:
448,192,159428,1,0,0:0:0:0:
320,192,159522,1,0,0:0:0:0:
192,192,159616,1,0,0:0:0:0:
448,192,159709,1,0,0:0:0:0:
64,192,159803,1,0,0:0:0:0:
192,192,159803,1,0,0:0:0:0:
320,192,159897,1,0,0:0:0:0:
64,192,159991,1,0,0:0:0:0:
192,192,159991,1,0,0:0:0:0:
320,192,160084,1,0,0:0:0:0:
64,192,160178,1,0,0:0:0:0:
192,192,160178,1,0,0:0:0:0:
448,192,160178,1,0,0:0:0:0:
192,192,160272,1,0,0:0:0:0:
64,192,160366,1,0,0:0:0:0:
448,192,160366,1,0,0:0:0:0:
320,192,160459,1,0,0:0:0:0:
64,192,160553,1,0,0:0:0:0:
192,192,160553,1,0,0:0:0:0:
448,192,160647,1,0,0:0:0:0:
64,192,160741,1,0,0:0:0:0:
320,192,160741,1,0,0:0:0:0:
192,192,160834,1,0,0:0:0:0:
64,192,160928,1,0,0:0:0:0:
320,192,160928,1,0,0:0:0:0:
448,192,160928,1,0,0:0:0:0:
320,192,161022,1,0,0:0:0:0:
64,192,161116,1,0,0:0:0:0:
192,192,161116,1,0,0:0:0:0:
192,192,161209,1,0,0:0:0:0:
320,192,161209,1,0,0:0:0:0:
64,192,161303,1,0,0:0:0:0:
448,192,161303,1,0,0:0:0:0:
192,192,161397,1,0,0:0:0:0:
320,192,161491,1,0,0:0:0:0:
448,192,161584,1,0,0:0:0:0:
64,192,161678,1,0,0:0:0:0:
192,192,161678,1,0,0:0:0:0:
320,192,161678,1,0,0:0:0:0:
192,192,161772,1,0,0:0:0:0:
64,192,161866,1,0,0:0:0:0:
192,192,161959,1,0,0:0:0:0:
320,192,162053,1,0,0:0:0:0:
448,192,162147,1,0,0:0:0:0:
192,192,162241,1,0,0:0:0:0:
320,192,162241,1,0,0:0:0:0:
448,192,162334,1,0,0:0:0:0:
64,192,162428,1,0,0:0:0:0:
192,192,162428,1,0,0:0:0:0:
320,192,162428,1,0,0:0:0:0:
320,192,162522,1,0,0:0:0:0:
64,192,162616,1,0,0:0:0:0:
448,192,162616,1,0,0:0:0:0:
192,192,162709,1,0,0:0:0:0:
320,192,162803,1,0,0:0:0:0:
448,192,162803,1,0,0:0:0:0:
320,192,162897,1,0,0:0:0:0:
64,192,162991,1,0,0:0:0:0:
192,192,162991,1,0,0:0:0:0:
64,192,163084,1,0,0:0:0:0:
192,192,163084,1,0,0:0:0:0:
320,192,163178,1,0,0:0:0:0:
448,192,163178,1,0,0:0:0:0:
320,192,163272,1,0,0:0:0:0:
448,192,163272,1,0,0:0:0:0:
64,192,163366,1,0,0:0:0:0:
192,192,163459,1,0,0:0:0:0:
320,192,163553,1,0,0:0:0:0:
448,192,163553,1,0,0:0:0:0:
320,192,163647,1,0,0:0:0:0:
448,192,163647,1,0,0:0:0:0:
192,192,163741,1,0,0:0:0:0:
64,192,163834,1,0,0:0:0:0:
320,192,163928,1,0,0:0:0:0:
448,192,163928,1,0,0:0:0:0:
320,192,164022,1,0,0:0:0:0:
448,192,164022,1,0,0:0:0:0:
64,192,164116,1,0,0:0:0:0:
192,192,164209,1,0,0:0:0:0:
64,0,164303,128,0,164334:1:0:0:0:
448,0,164303,128,0,164334:1:0:0:0:
320,192,164397,1,0,0:0:0:0:
192,192,164491,1,0,0:0:0:0:
64,192,164584,1,0,0:0:0:0:
192,192,164678,1,0,0:0:0:0:
320,192,164678,1,0,0:0:0:0:
448,192,164678,1,0,0:0:0:0:
320,192,164772,1,0,0:0:0:0:
192,192,164866,1,0,0:0:0:0:
64,192,164959,1,0,0:0:0:0:
192,192,165053,1,0,0:0:0:0:
448,192,165053,1,0,0:0:0:0:
320,192,165147,1,0,0:0:0:0:
192,192,165241,1,0,0:0:0:0:
64,192,165334,1,0,0:0:0:0:
192,192,165428,1,0,0:0:0:0:
320,192,165428,1,0,0:0:0:0:
448,192,165428,1,0,0:0:0:0:
320,192,165522,1,0,0:0:0:0:
192,192,165616,1,0,0:0:0:0:
64,192,165709,1,0,0:0:0:0:
192,192,165803,1,0,0:0:0:0:
448,192,165803,1,0,0:0:0:0:
320,192,165897,1,0,0:0:0:0:
448,192,165991,1,0,0:0:0:0:
320,192,166084,1,0,0:0:0:0:
64,192,166178,1,0,0:0:0:0:
192,192,166178,1,0,0:0:0:0:
448,192,166178,1,0,0:0:0:0:
64,192,166272,1,0,0:0:0:0:
448,192,166366,1,0,0:0:0:0:
320,192,166459,1,0,0:0:0:0:
64,192,166553,1,0,0:0:0:0:
448,192,166553,1,0,0:0:0:0:
320,192,166647,1,0,0:0:0:0:
192,192,166741,1,0,0:0:0:0:
64,192,166834,1,0,0:0:0:0:
320,192,166928,1,0,0:0:0:0:
448,192,166928,1,0,0:0:0:0:
64,192,167022,1,0,0:0:0:0:
192,192,167022,1,0,0:0:0:0:
64,192,167116,1,0,0:0:0:0:
192,192,167116,1,0,0:0:0:0:
320,192,167209,1,0,0:0:0:0:
448,192,167209,1,0,0:0:0:0:
64,0,167303,128,0,167334:1:0:0:0:
448,0,167303,128,0,167334:1:0:0:0:
320,192,167397,1,0,0:0:0:0:
192,192,167491,1,0,0:0:0:0:
64,192,167584,1,0,0:0:0:0:
192,192,167678,1,0,0:0:0:0:
320,192,167678,1,0,0:0:0:0:
448,192,167678,1,0,0:0:0:0:
320,192,167772,1,0,0:0:0:0:
192,192,167866,1,0,0:0:0:0:
64,192,167959,1,0,0:0:0:0:
192,192,168053,1,0,0:0:0:0:
448,192,168053,1,0,0:0:0:0:
320,192,168147,1,0,0:0:0:0:
192,192,168241,1,0,0:0:0:0:
64,192,168334,1,0,0:0:0:0:
192,192,168428,1,0,0:0:0:0:
320,192,168428,1,0,0:0:0:0:
448,192,168428,1,0,0:0:0:0:
320,192,168522,1,0,0:0:0:0:
192,192,168616,1,0,0:0:0:0:
64,192,168709,1,0,0:0:0:0:
192,192,168803,1,0,0:0:0:0:
448,192,168803,1,0,0:0:0:0:
320,192,168897,1,0,0:0:0:0:
64,192,168991,1,0,0:0:0:0:
192,192,168991,1,0,0:0:0:0:
64,192,169084,1,0,0:0:0:0:
192,192,169084,1,0,0:0:0:0:
320,192,169178,1,0,0:0:0:0:
448,192,169178,1,0,0:0:0:0:
64,192,169272,1,0,0:0:0:0:
448,192,169366,1,0,0:0:0:0:
320,192,169459,1,0,0:0:0:0:
64,192,169553,1,0,0:0:0:0:
448,192,169553,1,0,0:0:0:0:
64,192,169647,1,0,0:0:0:0:
448,192,169647,1,0,0:0:0:0:
192,192,169741,1,0,0:0:0:0:
64,192,169834,1,0,0:0:0:0:
320,192,169928,1,0,0:0:0:0:
192,192,170022,1,0,0:0:0:0:
320,192,170116,1,0,0:0:0:0:
448,192,170116,1,0,0:0:0:0:
320,192,170209,1,0,0:0:0:0:
448,192,170209,1,0,0:0:0:0:
64,0,170303,128,0,170334:1:0:0:0:
448,0,170303,128,0,170334:1:0:0:0:
320,192,170397,1,0,0:0:0:0:
192,192,170491,1,0,0:0:0:0:
64,192,170584,1,0,0:0:0:0:
192,192,170678,1,0,0:0:0:0:
320,192,170678,1,0,0:0:0:0:
448,192,170678,1,0,0:0:0:0:
320,192,170772,1,0,0:0:0:0:
192,192,170866,1,0,0:0:0:0:
64,192,170959,1,0,0:0:0:0:
192,192,171053,1,0,0:0:0:0:
448,192,171053,1,0,0:0:0:0:
320,192,171147,1,0,0:0:0:0:
192,192,171241,1,0,0:0:0:0:
64,192,171334,1,0,0:0:0:0:
192,192,171428,1,0,0:0:0:0:
320,192,171428,1,0,0:0:0:0:
448,192,171428,1,0,0:0:0:0:
320,192,171522,1,0,0:0:0:0:
192,192,171616,1,0,0:0:0:0:
64,192,171709,1,0,0:0:0:0:
192,192,171803,1,0,0:0:0:0:
448,192,171803,1,0,0:0:0:0:
320,192,171897,1,0,0:0:0:0:
448,192,171991,1,0,0:0:0:0:
320,192,172084,1,0,0:0:0:0:
64,192,172178,1,0,0:0:0:0:
192,192,172178,1,0,0:0:0:0:
448,192,172178,1,0,0:0:0:0:
64,192,172272,1,0,0:0:0:0:
448,192,172366,1,0,0:0:0:0:
320,192,172459,1,0,0:0:0:0:
64,192,172553,1,0,0:0:0:0:
448,192,172553,1,0,0:0:0:0:
320,192,172647,1,0,0:0:0:0:
64,192,172741,1,0,0:0:0:0:
192,192,172741,1,0,0:0:0:0:
64,192,172834,1,0,0:0:0:0:
192,192,172834,1,0,0:0:0:0:
320,192,172928,1,0,0:0:0:0:
448,192,172928,1,0,0:0:0:0:
320,192,173022,1,0,0:0:0:0:
448,192,173022,1,0,0:0:0:0:
192,192,173116,1,0,0:0:0:0:
320,192,173209,1,0,0:0:0:0:
64,0,173303,128,0,173334:1:0:0:0:
448,0,173303,128,0,173334:1:0:0:0:
320,192,173397,1,0,0:0:0:0:
192,192,173491,1,0,0:0:0:0:
64,192,173584,1,0,0:0:0:0:
192,192,173678,1,0,0:0:0:0:
320,192,173678,1,0,0:0:0:0:
448,192,173678,1,0,0:0:0:0:
320,192,173772,1,0,0:0:0:0:
192,192,173866,1,0,0:0:0:0:
64,192,173959,1,0,0:0:0:0:
192,192,174053,1,0,0:0:0:0:
448,192,174053,1,0,0:0:0:0:
320,192,174147,1,0,0:0:0:0:
192,192,174241,1,0,0:0:0:0:
64,192,174334,1,0,0:0:0:0:
320,192,174428,1,0,0:0:0:0:
448,192,174428,1,0,0:0:0:0:
320,192,174522,1,0,0:0:0:0:
448,192,174522,1,0,0:0:0:0:
64,192,174616,1,0,0:0:0:0:
192,192,174616,1,0,0:0:0:0:
64,192,174709,1,0,0:0:0:0:
192,192,174709,1,0,0:0:0:0:
320,192,174803,1,0,0:0:0:0:
448,192,174803,1,0,0:0:0:0:
192,192,174897,1,0,0:0:0:0:
448,192,174991,1,0,0:0:0:0:
320,192,175084,1,0,0:0:0:0:
64,192,175178,1,0,0:0:0:0:
192,192,175178,1,0,0:0:0:0:
64,192,175272,1,0,0:0:0:0:
320,192,175272,1,0,0:0:0:0:
192,192,175366,1,0,0:0:0:0:
448,192,175366,1,0,0:0:0:0:
320,192,175459,1,0,0:0:0:0:
448,192,175459,1,0,0:0:0:0:
64,192,175553,1,0,0:0:0:0:
192,192,175553,1,0,0:0:0:0:
192,192,175647,1,0,0:0:0:0:
448,192,175647,1,0,0:0:0:0:
64,192,175741,1,0,0:0:0:0:
320,192,175741,1,0,0:0:0:0:
192,192,175834,1,0,0:0:0:0:
448,192,175834,1,0,0:0:0:0:
64,192,175928,1,0,0:0:0:0:
192,192,175928,1,0,0:0:0:0:
320,192,175928,1,0,0:0:0:0:
448,192,175928,1,0,0:0:0:0:
64,192,176022,1,0,0:0:0:0:
192,192,176022,1,0,0:0:0:0:
320,192,176022,1,0,0:0:0:0:
448,192,176022,1,0,0:0:0:0:
64,192,176116,1,0,0:0:0:0:
192,192,176116,1,0,0:0:0:0:
320,192,176116,1,0,0:0:0:0:
448,192,176116,1,0,0:0:0:0:
64,192,176209,1,0,0:0:0:0:
192,192,176209,1,0,0:0:0:0:
320,192,176209,1,0,0:0:0:0:
448,192,176209,1,0,0:0:0:0:
