osu file format v13

[General]
AudioFilename: Usagi11 Cut Speed.ogg
AudioLeadIn: 2
PreviewTime: 23367
Countdown: 0
SampleSet: None
StackLeniency: 0.7
Mode: 3
LetterboxInBreaks: 0
SpecialStyle: 0
WidescreenStoryboard: 0

[Editor]
DistanceSpacing: 0.8
BeatDivisor: 4
GridSize: 8
TimelineZoom: 1

[Metadata]
Title:Yolomania Vol. 3A
TitleUnicode:Yolomania Vol. 3A
Artist:Various
ArtistUnicode:Various
Creator:Fullerene-
Version:Japanese People - Do you even squeak? [BilliumMoto] 15
Source:
Tags:Stepmania yolo3 volume
BeatmapID:563162
BeatmapSetID:243027

[Difficulty]
HPDrainRate:8
CircleSize:4
OverallDifficulty:5
ApproachRate:10
SliderMultiplier:1.4
SliderTickRate:1

[Events]
//Background and Video events
0,0,"do you even squeak.jpg",0,0
//Break Periods
//Storyboard Layer 0 (Background)
//Storyboard Layer 1 (Fail)
//Storyboard Layer 2 (Pass)
//Storyboard Layer 3 (Foreground)
//Storyboard Sound Samples

[TimingPoints]
168,229.146,4,1,0,15,1,0

[HitObjects]
64,192,226,5,0,0:0:0:0:
192,192,264,1,0,0:0:0:0:
448,192,278,1,0,0:0:0:0:
320,0,340,128,0,474:1:0:0:0:
320,192,741,1,0,0:0:0:0:
448,192,741,1,0,0:0:0:0:
192,192,846,1,0,0:0:0:0:
448,0,932,128,0,1008:1:0:0:0:
448,0,1070,128,0,1171:1:0:0:0:
320,192,1290,1,0,0:0:0:0:
192,0,1400,128,0,1414:1:0:0:0:
320,0,1610,128,0,1915:1:0:0:0:
320,192,2087,1,0,0:0:0:0:
192,192,2231,1,0,0:0:0:0:
448,192,2302,1,0,0:0:0:0:
448,192,2374,1,0,0:0:0:0:
192,192,2460,1,0,0:0:0:0:
320,192,2517,1,0,0:0:0:0:
64,192,2555,1,0,0:0:0:0:
320,0,2660,128,0,2746:1:0:0:0:
448,192,2784,1,0,0:0:0:0:
320,0,2803,128,0,2842:1:0:0:0:
64,192,2899,1,0,0:0:0:0:
192,192,2947,1,0,0:0:0:0:
448,192,3037,1,0,0:0:0:0:
192,192,3090,1,0,0:0:0:0:
448,0,3204,128,0,3319:1:0:0:0:
448,192,3663,1,0,0:0:0:0:
448,0,3749,128,0,3806:1:0:0:0:
320,0,3882,128,0,3949:1:0:0:0:
64,0,3997,128,0,4064:1:0:0:0:
192,192,4169,1,0,0:0:0:0:
64,192,4369,1,0,0:0:0:0:
448,192,4479,1,0,0:0:0:0:
320,192,4551,1,0,0:0:0:0:
192,192,4622,1,0,0:0:0:0:
64,192,4789,1,0,0:0:0:0:
320,192,4885,1,0,0:0:0:0:
64,192,4995,1,0,0:0:0:0:
448,192,5038,1,0,0:0:0:0:
320,192,5081,1,0,0:0:0:0:
192,192,5124,1,0,0:0:0:0:
448,192,5195,1,0,0:0:0:0:
320,192,5295,1,0,0:0:0:0:
448,192,5362,1,0,0:0:0:0:
64,192,5391,1,0,0:0:0:0:
192,192,5429,1,0,0:0:0:0:
320,192,5467,1,0,0:0:0:0:
448,192,5544,1,0,0:0:0:0:
192,192,5610,1,0,0:0:0:0:
448,192,5668,1,0,0:0:0:0:
320,192,5754,1,0,0:0:0:0:
64,192,5811,1,0,0:0:0:0:
192,192,5897,1,0,0:0:0:0:
448,192,5926,1,0,0:0:0:0:
320,192,5983,1,0,0:0:0:0:
64,192,6031,1,0,0:0:0:0:
448,192,6069,1,0,0:0:0:0:
320,192,6107,1,0,0:0:0:0:
64,192,6183,1,0,0:0:0:0:
192,192,6241,1,0,0:0:0:0:
320,192,6298,1,0,0:0:0:0:
64,192,6355,1,0,0:0:0:0:
448,0,6441,128,0,6556:1:0:0:0:
64,192,6575,1,0,0:0:0:0:
192,192,6613,1,0,0:0:0:0:
320,192,6642,1,0,0:0:0:0:
448,0,6699,128,0,6871:1:0:0:0:
192,0,7329,128,0,7386:1:0:0:0:
320,0,7463,128,0,7558:1:0:0:0:
448,0,7539,128,0,7615:1:0:0:0:
320,192,7716,1,0,0:0:0:0:
192,192,7845,1,0,0:0:0:0:
64,192,7950,1,0,0:0:0:0:
192,192,8064,1,0,0:0:0:0:
448,192,8174,1,0,0:0:0:0:
320,192,8341,1,0,0:0:0:0:
64,192,8475,1,0,0:0:0:0:
320,192,8647,1,0,0:0:0:0:
448,192,8647,1,0,0:0:0:0:
192,0,8647,128,0,8675:1:0:0:0:
64,192,8761,1,0,0:0:0:0:
320,192,8876,1,0,0:0:0:0:
64,192,8990,1,0,0:0:0:0:
448,192,8990,1,0,0:0:0:0:
192,0,8990,128,0,9019:1:0:0:0:
64,192,9219,1,0,0:0:0:0:
448,192,9219,1,0,0:0:0:0:
192,0,9219,128,0,9248:1:0:0:0:
320,192,9334,1,0,0:0:0:0:
64,192,9449,1,0,0:0:0:0:
448,192,9449,1,0,0:0:0:0:
192,0,9449,128,0,9477:1:0:0:0:
64,192,9678,1,0,0:0:0:0:
448,192,9678,1,0,0:0:0:0:
320,0,9678,128,0,9706:1:0:0:0:
192,192,9792,1,0,0:0:0:0:
64,192,9907,1,0,0:0:0:0:
448,192,9907,1,0,0:0:0:0:
320,0,9907,128,0,9936:1:0:0:0:
192,192,9964,1,0,0:0:0:0:
64,192,10021,1,0,0:0:0:0:
448,192,10098,1,0,0:0:0:0:
320,192,10174,1,0,0:0:0:0:
64,192,10251,1,0,0:0:0:0:
192,192,10251,1,0,0:0:0:0:
192,192,10365,1,0,0:0:0:0:
448,192,10365,1,0,0:0:0:0:
320,0,10365,128,0,10394:1:0:0:0:
64,192,10480,1,0,0:0:0:0:
448,0,10480,128,0,10518:1:0:0:0:
192,0,10594,128,0,10633:1:0:0:0:
320,0,10594,128,0,10633:1:0:0:0:
448,0,10594,128,0,10633:1:0:0:0:
64,0,10824,128,0,10862:1:0:0:0:
192,0,10824,128,0,10862:1:0:0:0:
448,0,10824,128,0,10862:1:0:0:0:
64,0,11053,128,0,11091:1:0:0:0:
320,0,11053,128,0,11091:1:0:0:0:
448,0,11053,128,0,11091:1:0:0:0:
192,192,11167,1,0,0:0:0:0:
64,0,11282,128,0,11320:1:0:0:0:
320,0,11282,128,0,11320:1:0:0:0:
448,0,11282,128,0,11320:1:0:0:0:
192,0,11511,128,0,11549:1:0:0:0:
320,0,11511,128,0,11549:1:0:0:0:
448,0,11511,128,0,11549:1:0:0:0:
192,0,11740,128,0,11759:1:0:0:0:
320,0,11740,128,0,11759:1:0:0:0:
448,0,11740,128,0,11759:1:0:0:0:
64,192,11797,1,0,0:0:0:0:
192,192,11855,1,0,0:0:0:0:
320,192,11912,1,0,0:0:0:0:
448,192,11969,1,0,0:0:0:0:
64,192,12027,1,0,0:0:0:0:
192,192,12084,1,0,0:0:0:0:
320,192,12141,1,0,0:0:0:0:
448,192,12198,1,0,0:0:0:0:
192,192,12256,1,0,0:0:0:0:
64,0,12313,128,0,12342:1:0:0:0:
320,0,12313,128,0,12370:1:0:0:0:
448,0,12313,128,0,12370:1:0:0:0:
192,0,12542,128,0,12571:1:0:0:0:
448,0,12542,128,0,12571:1:0:0:0:
64,192,12657,1,0,0:0:0:0:
192,192,12657,1,0,0:0:0:0:
320,0,12771,128,0,12800:1:0:0:0:
448,0,12771,128,0,12800:1:0:0:0:
64,192,12886,1,0,0:0:0:0:
192,192,12886,1,0,0:0:0:0:
64,0,13000,128,0,13029:1:0:0:0:
192,0,13000,128,0,13029:1:0:0:0:
448,0,13000,128,0,13029:1:0:0:0:
320,0,13115,128,0,13144:1:0:0:0:
448,0,13115,128,0,13144:1:0:0:0:
192,192,13172,1,0,0:0:0:0:
64,192,13230,1,0,0:0:0:0:
64,0,13344,128,0,13373:1:0:0:0:
320,0,13344,128,0,13373:1:0:0:0:
448,0,13344,128,0,13373:1:0:0:0:
192,192,13459,1,0,0:0:0:0:
192,0,13573,128,0,13602:1:0:0:0:
320,0,13573,128,0,13602:1:0:0:0:
448,0,13573,128,0,13602:1:0:0:0:
448,192,13688,1,0,0:0:0:0:
64,0,13802,128,0,13888:1:0:0:0:
192,0,13802,128,0,13888:1:0:0:0:
192,0,13917,128,0,14003:1:0:0:0:
448,0,13917,128,0,14003:1:0:0:0:
320,0,14032,128,0,14117:1:0:0:0:
448,0,14032,128,0,14117:1:0:0:0:
64,0,14146,128,0,14404:1:0:0:0:
320,0,14146,128,0,14404:1:0:0:0:
192,192,14261,1,0,0:0:0:0:
64,0,14490,128,0,14776:1:0:0:0:
192,0,14490,128,0,14776:1:0:0:0:
448,192,14719,1,0,0:0:0:0:
64,192,14834,1,0,0:0:0:0:
192,192,14891,1,0,0:0:0:0:
448,192,14948,1,0,0:0:0:0:
320,192,15005,1,0,0:0:0:0:
64,192,15063,1,0,0:0:0:0:
192,192,15063,1,0,0:0:0:0:
320,192,15177,1,0,0:0:0:0:
448,192,15177,1,0,0:0:0:0:
192,192,15292,1,0,0:0:0:0:
192,192,15406,1,0,0:0:0:0:
320,192,15406,1,0,0:0:0:0:
448,192,15406,1,0,0:0:0:0:
64,192,15636,1,0,0:0:0:0:
192,192,15636,1,0,0:0:0:0:
448,192,15636,1,0,0:0:0:0:
320,192,15750,1,0,0:0:0:0:
64,192,15865,1,0,0:0:0:0:
320,192,15922,1,0,0:0:0:0:
192,0,15979,128,0,16008:1:0:0:0:
448,0,15979,128,0,16008:1:0:0:0:
64,0,16208,128,0,16237:1:0:0:0:
320,0,16208,128,0,16237:1:0:0:0:
64,192,16323,1,0,0:0:0:0:
192,192,16323,1,0,0:0:0:0:
192,0,16438,128,0,16466:1:0:0:0:
448,0,16438,128,0,16466:1:0:0:0:
320,192,16552,1,0,0:0:0:0:
448,192,16552,1,0,0:0:0:0:
64,0,16667,128,0,16695:1:0:0:0:
320,0,16667,128,0,16705:1:0:0:0:
192,0,16781,128,0,16810:1:0:0:0:
448,0,16781,128,0,16810:1:0:0:0:
320,192,16839,1,0,0:0:0:0:
64,192,16896,1,0,0:0:0:0:
192,0,17010,128,0,17039:1:0:0:0:
320,0,17010,128,0,17039:1:0:0:0:
192,0,17240,128,0,17268:1:0:0:0:
448,0,17240,128,0,17268:1:0:0:0:
64,0,17469,128,0,17555:1:0:0:0:
320,0,17469,128,0,17555:1:0:0:0:
192,0,17583,128,0,17669:1:0:0:0:
448,0,17583,128,0,17669:1:0:0:0:
320,0,17698,128,0,17784:1:0:0:0:
448,0,17698,128,0,17784:1:0:0:0:
320,0,17812,128,0,17927:1:0:0:0:
64,0,17812,128,0,18099:1:0:0:0:
192,192,17927,1,0,0:0:0:0:
320,192,17984,1,0,0:0:0:0:
448,192,18042,1,0,0:0:0:0:
64,192,18156,1,0,0:0:0:0:
192,192,18156,1,0,0:0:0:0:
320,192,18156,1,0,0:0:0:0:
448,192,18271,1,0,0:0:0:0:
64,192,18385,1,0,0:0:0:0:
192,192,18385,1,0,0:0:0:0:
320,192,18385,1,0,0:0:0:0:
448,192,18500,1,0,0:0:0:0:
192,0,18614,128,0,18653:1:0:0:0:
320,0,18672,128,0,18700:1:0:0:0:
64,0,18729,128,0,18758:1:0:0:0:
448,0,18729,128,0,18758:1:0:0:0:
64,0,18844,128,0,18872:1:0:0:0:
320,0,18844,128,0,18872:1:0:0:0:
192,0,18958,128,0,18987:1:0:0:0:
448,0,18958,128,0,18987:1:0:0:0:
320,0,19073,128,0,19359:1:0:0:0:
448,0,19073,128,0,19359:1:0:0:0:
64,192,19302,1,0,0:0:0:0:
320,192,19416,1,0,0:0:0:0:
448,192,19416,1,0,0:0:0:0:
64,192,19531,1,0,0:0:0:0:
192,192,19531,1,0,0:0:0:0:
192,192,19646,1,0,0:0:0:0:
320,192,19646,1,0,0:0:0:0:
448,0,19646,128,0,20161:1:0:0:0:
64,192,19760,1,0,0:0:0:0:
320,192,19875,1,0,0:0:0:0:
64,192,19989,1,0,0:0:0:0:
192,192,19989,1,0,0:0:0:0:
192,192,20218,1,0,0:0:0:0:
320,0,20218,128,0,20333:1:0:0:0:
64,0,20333,128,0,20448:1:0:0:0:
192,0,20448,128,0,21020:1:0:0:0:
64,192,20562,1,0,0:0:0:0:
320,192,20562,1,0,0:0:0:0:
448,192,20562,1,0,0:0:0:0:
64,192,20906,1,0,0:0:0:0:
448,192,20906,1,0,0:0:0:0:
320,0,21020,128,0,21250:1:0:0:0:
64,192,21135,1,0,0:0:0:0:
192,192,21135,1,0,0:0:0:0:
448,0,21250,128,0,21479:1:0:0:0:
192,192,21364,1,0,0:0:0:0:
64,192,21479,1,0,0:0:0:0:
192,192,21479,1,0,0:0:0:0:
320,0,21479,128,0,22052:1:0:0:0:
64,192,21823,1,0,0:0:0:0:
192,192,21823,1,0,0:0:0:0:
64,192,22052,1,0,0:0:0:0:
448,0,22052,128,0,22166:1:0:0:0:
320,0,22166,128,0,22281:1:0:0:0:
192,0,22281,128,0,22796:1:0:0:0:
64,192,22395,1,0,0:0:0:0:
320,192,22395,1,0,0:0:0:0:
448,192,22395,1,0,0:0:0:0:
320,192,22739,1,0,0:0:0:0:
448,192,22739,1,0,0:0:0:0:
64,0,22854,128,0,23083:1:0:0:0:
320,192,22968,1,0,0:0:0:0:
448,192,22968,1,0,0:0:0:0:
320,192,23083,1,0,0:0:0:0:
192,0,23083,128,0,23255:1:0:0:0:
448,192,23197,1,0,0:0:0:0:
64,192,23312,1,0,0:0:0:0:
448,192,23312,1,0,0:0:0:0:
320,0,23312,128,0,24515:1:0:0:0:
192,192,23427,1,0,0:0:0:0:
64,192,23541,1,0,0:0:0:0:
64,192,23656,1,0,0:0:0:0:
192,192,23656,1,0,0:0:0:0:
448,192,23656,1,0,0:0:0:0:
192,192,23885,1,0,0:0:0:0:
448,192,23885,1,0,0:0:0:0:
64,192,24114,1,0,0:0:0:0:
192,192,24114,1,0,0:0:0:0:
448,192,24114,1,0,0:0:0:0:
64,192,24343,1,0,0:0:0:0:
192,192,24343,1,0,0:0:0:0:
64,192,24572,1,0,0:0:0:0:
320,192,24572,1,0,0:0:0:0:
192,0,24572,128,0,24859:1:0:0:0:
64,192,24801,1,0,0:0:0:0:
448,192,24801,1,0,0:0:0:0:
320,0,24916,128,0,25145:1:0:0:0:
64,192,25145,1,0,0:0:0:0:
192,192,25145,1,0,0:0:0:0:
448,0,25145,128,0,25374:1:0:0:0:
320,192,25374,1,0,0:0:0:0:
64,192,25489,1,0,0:0:0:0:
192,192,25489,1,0,0:0:0:0:
448,192,25489,1,0,0:0:0:0:
320,192,25718,1,0,0:0:0:0:
448,192,25718,1,0,0:0:0:0:
64,192,25833,1,0,0:0:0:0:
192,192,25871,1,0,0:0:0:0:
320,192,25909,1,0,0:0:0:0:
64,192,25947,1,0,0:0:0:0:
448,192,25947,1,0,0:0:0:0:
192,192,26004,1,0,0:0:0:0:
320,0,26062,128,0,26081:1:0:0:0:
448,0,26062,128,0,26081:1:0:0:0:
320,0,26176,128,0,26195:1:0:0:0:
448,0,26176,128,0,26195:1:0:0:0:
64,0,26291,128,0,26310:1:0:0:0:
320,0,26291,128,0,26310:1:0:0:0:
448,0,26405,128,0,26577:1:0:0:0:
192,0,26405,128,0,26635:1:0:0:0:
320,192,26635,1,0,0:0:0:0:
448,192,26635,1,0,0:0:0:0:
192,192,26692,1,0,0:0:0:0:
64,192,26749,1,0,0:0:0:0:
448,192,26806,1,0,0:0:0:0:
320,192,26864,1,0,0:0:0:0:
192,0,26864,128,0,26921:1:0:0:0:
64,192,26978,1,0,0:0:0:0:
320,192,26978,1,0,0:0:0:0:
448,0,26978,128,0,27265:1:0:0:0:
64,192,27207,1,0,0:0:0:0:
192,192,27322,1,0,0:0:0:0:
448,192,27322,1,0,0:0:0:0:
320,0,27322,128,0,27494:1:0:0:0:
64,192,27551,1,0,0:0:0:0:
192,192,27551,1,0,0:0:0:0:
64,192,27780,1,0,0:0:0:0:
320,192,27780,1,0,0:0:0:0:
192,0,27780,128,0,28124:1:0:0:0:
448,0,27971,128,0,28430:1:0:0:0:
64,0,28239,128,0,28582:1:0:0:0:
320,0,28582,128,0,28811:1:0:0:0:
64,0,28811,128,0,29041:1:0:0:0:
448,192,28888,1,0,0:0:0:0:
320,192,28983,1,0,0:0:0:0:
192,0,29079,128,0,29652:1:0:0:0:
320,0,29155,128,0,29652:1:0:0:0:
192,192,29900,1,0,0:0:0:0:
320,192,29972,1,0,0:0:0:0:
320,0,30057,128,0,30115:1:0:0:0:
448,192,30205,1,0,0:0:0:0:
192,192,30339,1,0,0:0:0:0:
64,192,30645,1,0,0:0:0:0:
192,192,30721,1,0,0:0:0:0:
448,0,30797,128,0,30874:1:0:0:0:
320,192,30874,1,0,0:0:0:0:
448,192,31017,1,0,0:0:0:0:
448,192,31103,1,0,0:0:0:0:
192,192,31217,1,0,0:0:0:0:
64,192,31580,1,0,0:0:0:0:
192,192,31657,1,0,0:0:0:0:
320,192,31733,1,0,0:0:0:0:
64,0,31833,128,0,31862:1:0:0:0:
192,192,31962,1,0,0:0:0:0:
320,192,32077,1,0,0:0:0:0:
320,192,32191,1,0,0:0:0:0:
64,192,32420,1,0,0:0:0:0:
192,0,32478,128,0,32822:1:0:0:0:
448,0,32822,128,0,32936:1:0:0:0:
192,0,32936,128,0,33012:1:0:0:0:
320,0,33051,128,0,33165:1:0:0:0:
448,0,33165,128,0,33280:1:0:0:0:
64,0,33280,128,0,33394:1:0:0:0:
448,0,33356,128,0,34005:1:0:0:0:
320,0,33394,128,0,33738:1:0:0:0:
192,0,33738,128,0,34082:1:0:0:0:
64,0,34082,128,0,34196:1:0:0:0:
192,0,34196,128,0,34311:1:0:0:0:
320,0,34311,128,0,34426:1:0:0:0:
448,0,34540,128,0,34559:1:0:0:0:
320,0,34655,128,0,34998:1:0:0:0:
64,192,34722,1,0,0:0:0:0:
192,192,34960,1,0,0:0:0:0:
64,0,34998,128,0,35113:1:0:0:0:
448,0,35075,128,0,35228:1:0:0:0:
192,0,35113,128,0,35228:1:0:0:0:
320,0,35228,128,0,35800:1:0:0:0:
192,192,35867,1,0,0:0:0:0:
320,192,36182,1,0,0:0:0:0:
448,192,36335,1,0,0:0:0:0:
320,192,36526,1,0,0:0:0:0:
64,0,36660,128,0,36688:1:0:0:0:
192,0,36717,128,0,36832:1:0:0:0:
320,192,37328,1,0,0:0:0:0:
320,192,37476,1,0,0:0:0:0:
64,192,37533,1,0,0:0:0:0:
192,192,37619,1,0,0:0:0:0:
448,192,37719,1,0,0:0:0:0:
192,0,37777,128,0,37891:1:0:0:0:
320,192,37977,1,0,0:0:0:0:
320,192,38101,1,0,0:0:0:0:
192,192,38159,1,0,0:0:0:0:
64,192,38245,1,0,0:0:0:0:
192,192,38302,1,0,0:0:0:0:
320,192,38350,1,0,0:0:0:0:
448,192,38397,1,0,0:0:0:0:
320,192,38474,1,0,0:0:0:0:
192,0,38550,128,0,38722:1:0:0:0:
320,192,39123,1,0,0:0:0:0:
192,192,39218,1,0,0:0:0:0:
320,192,39324,1,0,0:0:0:0:
448,0,39352,128,0,39495:1:0:0:0:
64,192,39753,1,0,0:0:0:0:
320,192,39839,1,0,0:0:0:0:
192,192,39925,1,0,0:0:0:0:
192,192,40078,1,0,0:0:0:0:
320,192,40135,1,0,0:0:0:0:
320,0,40240,128,0,40460:1:0:0:0:
192,192,40469,1,0,0:0:0:0:
448,192,40536,1,0,0:0:0:0:
320,0,40632,128,0,40823:1:0:0:0:
320,192,40956,1,0,0:0:0:0:
448,0,40994,128,0,41147:1:0:0:0:
192,192,41682,1,0,0:0:0:0:
320,192,41758,1,0,0:0:0:0:
448,192,41825,1,0,0:0:0:0:
192,0,41916,128,0,42030:1:0:0:0:
64,192,42059,1,0,0:0:0:0:
192,192,42135,1,0,0:0:0:0:
320,192,42178,1,0,0:0:0:0:
64,192,42255,1,0,0:0:0:0:
448,192,42331,1,0,0:0:0:0:
320,0,42379,128,0,42589:1:0:0:0:
320,192,42904,1,0,0:0:0:0:
448,192,42904,1,0,0:0:0:0:
192,192,43018,1,0,0:0:0:0:
320,192,43133,1,0,0:0:0:0:
448,192,43133,1,0,0:0:0:0:
64,192,43248,1,0,0:0:0:0:
192,192,43305,1,0,0:0:0:0:
320,192,43362,1,0,0:0:0:0:
448,192,43419,1,0,0:0:0:0:
64,192,43477,1,0,0:0:0:0:
192,192,43477,1,0,0:0:0:0:
320,192,43477,1,0,0:0:0:0:
448,192,43591,1,0,0:0:0:0:
64,192,43706,1,0,0:0:0:0:
192,192,43821,1,0,0:0:0:0:
320,192,43821,1,0,0:0:0:0:
448,192,43821,1,0,0:0:0:0:
320,192,44050,1,0,0:0:0:0:
192,192,44164,1,0,0:0:0:0:
64,192,44279,1,0,0:0:0:0:
320,192,44279,1,0,0:0:0:0:
448,192,44279,1,0,0:0:0:0:
320,192,44508,1,0,0:0:0:0:
448,192,44508,1,0,0:0:0:0:
192,192,44623,1,0,0:0:0:0:
320,192,44623,1,0,0:0:0:0:
64,192,44737,1,0,0:0:0:0:
192,192,44737,1,0,0:0:0:0:
64,192,44966,1,0,0:0:0:0:
192,192,44966,1,0,0:0:0:0:
448,192,44966,1,0,0:0:0:0:
320,192,45004,1,0,0:0:0:0:
192,192,45043,1,0,0:0:0:0:
64,192,45081,1,0,0:0:0:0:
192,192,45109,1,0,0:0:0:0:
320,192,45138,1,0,0:0:0:0:
448,192,45167,1,0,0:0:0:0:
64,192,45195,1,0,0:0:0:0:
192,192,45224,1,0,0:0:0:0:
320,192,45253,1,0,0:0:0:0:
448,192,45281,1,0,0:0:0:0:
64,0,45310,128,0,45339:1:0:0:0:
192,0,45310,128,0,45339:1:0:0:0:
64,192,45482,1,0,0:0:0:0:
192,0,45539,128,0,45568:1:0:0:0:
320,0,45539,128,0,45568:1:0:0:0:
64,192,45654,1,0,0:0:0:0:
320,0,45768,128,0,45797:1:0:0:0:
448,0,45768,128,0,45797:1:0:0:0:
64,192,45883,1,0,0:0:0:0:
192,0,45997,128,0,46026:1:0:0:0:
320,0,45997,128,0,46026:1:0:0:0:
320,0,46112,128,0,46141:1:0:0:0:
448,0,46112,128,0,46141:1:0:0:0:
64,192,46227,1,0,0:0:0:0:
192,0,46341,128,0,46370:1:0:0:0:
320,0,46341,128,0,46370:1:0:0:0:
448,192,46398,1,0,0:0:0:0:
64,192,46456,1,0,0:0:0:0:
320,0,46570,128,0,46599:1:0:0:0:
448,0,46570,128,0,46599:1:0:0:0:
64,0,46799,128,0,46828:1:0:0:0:
192,0,46799,128,0,46828:1:0:0:0:
192,0,46914,128,0,46943:1:0:0:0:
320,0,46914,128,0,46943:1:0:0:0:
320,0,47029,128,0,47057:1:0:0:0:
448,0,47029,128,0,47057:1:0:0:0:
192,0,47143,128,0,47258:1:0:0:0:
448,0,47143,128,0,47315:1:0:0:0:
64,192,47258,1,0,0:0:0:0:
320,192,47315,1,0,0:0:0:0:
192,192,47372,1,0,0:0:0:0:
64,0,47487,128,0,47716:1:0:0:0:
320,0,47487,128,0,47716:1:0:0:0:
448,0,47487,128,0,47716:1:0:0:0:
192,192,47716,1,0,0:0:0:0:
320,192,47831,1,0,0:0:0:0:
448,192,47831,1,0,0:0:0:0:
64,192,47945,1,0,0:0:0:0:
192,192,48060,1,0,0:0:0:0:
320,192,48060,1,0,0:0:0:0:
320,192,48174,1,0,0:0:0:0:
448,192,48174,1,0,0:0:0:0:
192,192,48403,1,0,0:0:0:0:
320,192,48403,1,0,0:0:0:0:
448,192,48403,1,0,0:0:0:0:
64,192,48633,1,0,0:0:0:0:
192,192,48633,1,0,0:0:0:0:
320,192,48633,1,0,0:0:0:0:
320,192,48747,1,0,0:0:0:0:
448,192,48804,1,0,0:0:0:0:
64,192,48862,1,0,0:0:0:0:
192,192,48919,1,0,0:0:0:0:
320,0,48976,128,0,49005:1:0:0:0:
448,0,48976,128,0,49005:1:0:0:0:
192,192,49148,1,0,0:0:0:0:
64,0,49205,128,0,49234:1:0:0:0:
320,0,49205,128,0,49234:1:0:0:0:
320,0,49435,128,0,49463:1:0:0:0:
448,0,49435,128,0,49463:1:0:0:0:
192,192,49549,1,0,0:0:0:0:
64,0,49664,128,0,49692:1:0:0:0:
320,0,49664,128,0,49692:1:0:0:0:
320,0,49778,128,0,49807:1:0:0:0:
448,0,49778,128,0,49807:1:0:0:0:
192,192,49893,1,0,0:0:0:0:
64,0,50007,128,0,50036:1:0:0:0:
320,0,50007,128,0,50036:1:0:0:0:
320,0,50237,128,0,50265:1:0:0:0:
448,0,50237,128,0,50265:1:0:0:0:
64,0,50466,128,0,50494:1:0:0:0:
320,0,50466,128,0,50494:1:0:0:0:
192,0,50580,128,0,50609:1:0:0:0:
448,0,50580,128,0,50609:1:0:0:0:
320,0,50695,128,0,50724:1:0:0:0:
448,0,50695,128,0,50724:1:0:0:0:
64,0,50809,128,0,50981:1:0:0:0:
192,0,50809,128,0,50981:1:0:0:0:
448,192,50924,1,0,0:0:0:0:
320,192,50981,1,0,0:0:0:0:
64,192,51039,1,0,0:0:0:0:
192,192,51153,1,0,0:0:0:0:
320,192,51153,1,0,0:0:0:0:
448,192,51153,1,0,0:0:0:0:
320,192,51382,1,0,0:0:0:0:
64,0,51382,128,0,51440:1:0:0:0:
192,0,51497,128,0,51554:1:0:0:0:
64,192,51611,1,0,0:0:0:0:
448,0,51611,128,0,51669:1:0:0:0:
320,0,51726,128,0,51898:1:0:0:0:
64,192,51841,1,0,0:0:0:0:
448,192,51841,1,0,0:0:0:0:
192,192,52070,1,0,0:0:0:0:
448,192,52070,1,0,0:0:0:0:
64,0,52070,128,0,52356:1:0:0:0:
320,192,52299,1,0,0:0:0:0:
64,192,52528,1,0,0:0:0:0:
192,192,52585,1,0,0:0:0:0:
448,192,52643,1,0,0:0:0:0:
320,0,52643,128,0,53158:1:0:0:0:
64,192,52986,1,0,0:0:0:0:
192,192,52986,1,0,0:0:0:0:
320,192,53215,1,0,0:0:0:0:
192,0,53215,128,0,53330:1:0:0:0:
64,0,53330,128,0,53387:1:0:0:0:
320,192,53445,1,0,0:0:0:0:
448,192,53445,1,0,0:0:0:0:
192,0,53445,128,0,53960:1:0:0:0:
64,192,53903,1,0,0:0:0:0:
448,192,53903,1,0,0:0:0:0:
320,0,54017,128,0,54189:1:0:0:0:
64,192,54132,1,0,0:0:0:0:
192,192,54132,1,0,0:0:0:0:
448,0,54247,128,0,54418:1:0:0:0:
64,192,54476,1,0,0:0:0:0:
192,192,54476,1,0,0:0:0:0:
320,0,54476,128,0,54934:1:0:0:0:
448,192,54820,1,0,0:0:0:0:
64,0,55049,128,0,55106:1:0:0:0:
192,0,55049,128,0,55106:1:0:0:0:
192,0,55163,128,0,55221:1:0:0:0:
320,0,55163,128,0,55221:1:0:0:0:
320,0,55278,128,0,55507:1:0:0:0:
448,0,55278,128,0,55507:1:0:0:0:
64,192,55736,1,0,0:0:0:0:
320,192,55851,1,0,0:0:0:0:
448,0,55851,128,0,56023:1:0:0:0:
64,192,55965,1,0,0:0:0:0:
192,0,56080,128,0,56252:1:0:0:0:
64,192,56194,1,0,0:0:0:0:
448,192,56252,1,0,0:0:0:0:
192,192,56309,1,0,0:0:0:0:
320,0,56309,128,0,57913:1:0:0:0:
448,192,56424,1,0,0:0:0:0:
192,192,56538,1,0,0:0:0:0:
192,192,56653,1,0,0:0:0:0:
448,192,56653,1,0,0:0:0:0:
64,192,56882,1,0,0:0:0:0:
448,192,56882,1,0,0:0:0:0:
192,192,56996,1,0,0:0:0:0:
192,192,57111,1,0,0:0:0:0:
448,192,57111,1,0,0:0:0:0:
192,192,57340,1,0,0:0:0:0:
448,192,57340,1,0,0:0:0:0:
64,192,57455,1,0,0:0:0:0:
64,192,57569,1,0,0:0:0:0:
448,192,57569,1,0,0:0:0:0:
192,192,57798,1,0,0:0:0:0:
192,0,57913,128,0,57970:1:0:0:0:
448,0,58028,128,0,58085:1:0:0:0:
320,192,58142,1,0,0:0:0:0:
64,0,58142,128,0,59632:1:0:0:0:
448,192,58257,1,0,0:0:0:0:
192,192,58371,1,0,0:0:0:0:
192,192,58486,1,0,0:0:0:0:
320,192,58486,1,0,0:0:0:0:
320,192,58715,1,0,0:0:0:0:
448,192,58715,1,0,0:0:0:0:
192,192,58830,1,0,0:0:0:0:
192,192,58944,1,0,0:0:0:0:
448,192,58944,1,0,0:0:0:0:
192,192,59173,1,0,0:0:0:0:
448,192,59173,1,0,0:0:0:0:
320,192,59288,1,0,0:0:0:0:
192,192,59402,1,0,0:0:0:0:
320,192,59402,1,0,0:0:0:0:
320,192,59632,1,0,0:0:0:0:
448,192,59632,1,0,0:0:0:0:
192,0,59746,128,0,59823:1:0:0:0:
448,192,59861,1,0,0:0:0:0:
320,0,59861,128,0,59918:1:0:0:0:
64,192,59975,1,0,0:0:0:0:
192,192,59975,1,0,0:0:0:0:
448,0,59975,128,0,60204:1:0:0:0:
320,192,60204,1,0,0:0:0:0:
64,192,60319,1,0,0:0:0:0:
448,192,60319,1,0,0:0:0:0:
320,0,60319,128,0,60548:1:0:0:0:
192,192,60548,1,0,0:0:0:0:
448,192,60548,1,0,0:0:0:0:
64,192,60777,1,0,0:0:0:0:
320,192,60777,1,0,0:0:0:0:
192,0,60777,128,0,61006:1:0:0:0:
64,192,61236,1,0,0:0:0:0:
192,0,61293,128,0,61751:1:0:0:0:
448,0,61293,128,0,61751:1:0:0:0:
64,0,61770,128,0,62992:1:0:0:0:
320,0,61808,128,0,62992:1:0:0:0:
192,192,62744,1,0,0:0:0:0:
448,192,62859,1,0,0:0:0:0:
320,192,63107,1,0,0:0:0:0:
64,0,63126,128,0,63470:1:0:0:0:
448,0,63145,128,0,63489:1:0:0:0:
192,192,63241,1,0,0:0:0:0:
320,192,63412,1,0,0:0:0:0:
192,192,63527,1,0,0:0:0:0:
448,192,63599,1,0,0:0:0:0:
192,192,63670,1,0,0:0:0:0:
320,192,63775,1,0,0:0:0:0:
64,192,63890,1,0,0:0:0:0:
320,192,63909,1,0,0:0:0:0:
448,192,63947,1,0,0:0:0:0:
448,192,64138,1,0,0:0:0:0:
320,192,64243,1,0,0:0:0:0:
192,192,64386,1,0,0:0:0:0:
192,192,64482,1,0,0:0:0:0:
64,192,64558,1,0,0:0:0:0:
320,192,64635,1,0,0:0:0:0:
192,192,64692,1,0,0:0:0:0:
320,192,64816,1,0,0:0:0:0:
320,192,64911,1,0,0:0:0:0:
192,192,65045,1,0,0:0:0:0:
448,192,65174,1,0,0:0:0:0:
64,192,65303,1,0,0:0:0:0:
448,0,65446,128,0,65589:1:0:0:0:
192,0,67518,128,0,67671:1:0:0:0:
448,192,67709,1,0,0:0:0:0:
192,192,67843,1,0,0:0:0:0:
64,192,67919,1,0,0:0:0:0:
192,192,68697,1,0,0:0:0:0:
320,192,68812,1,0,0:0:0:0:
448,192,68950,1,0,0:0:0:0:
448,192,69065,1,0,0:0:0:0:
192,0,69638,128,0,69829:1:0:0:0:
448,0,69714,128,0,69829:1:0:0:0:
448,0,71662,128,0,72082:1:0:0:0:
320,0,71700,128,0,72082:1:0:0:0:
192,0,71738,128,0,72082:1:0:0:0:
64,0,71776,128,0,72082:1:0:0:0:
64,192,72177,1,0,0:0:0:0:
64,192,72349,1,0,0:0:0:0:
64,192,72516,1,0,0:0:0:0:
