osu file format v13

[General]
AudioFilename: 11. Elektrick U-Phoria.ogg
AudioLeadIn: 2
PreviewTime: 98184
Countdown: 0
SampleSet: None
StackLeniency: 0.7
Mode: 3
LetterboxInBreaks: 0
SpecialStyle: 0
WidescreenStoryboard: 0

[Editor]
DistanceSpacing: 0.8
BeatDivisor: 4
GridSize: 8
TimelineZoom: 1

[Metadata]
Title:Yolomania Vol. 3A
TitleUnicode:Yolomania Vol. 3A
Artist:Various
ArtistUnicode:Various
Creator:Fullerene-
Version:DJ Noriken - Elektrick U-Phoria [IcyWorld] 15
Source:
Tags:Stepmania yolo3 volume
BeatmapID:563160
BeatmapSetID:243027

[Difficulty]
HPDrainRate:8
CircleSize:4
OverallDifficulty:5
ApproachRate:10
SliderMultiplier:1.4
SliderTickRate:1

[Events]
//Background and Video events
0,0,"elektrick u-phoria.jpg",0,0
//Break Periods
//Storyboard Layer 0 (Background)
//Storyboard Layer 1 (Fail)
//Storyboard Layer 2 (Pass)
//Storyboard Layer 3 (Foreground)
//Storyboard Sound Samples

[TimingPoints]
517.991,333.3333,4,1,0,15,1,0

[HitObjects]
64,192,517,5,0,0:0:0:0:
320,192,517,1,0,0:0:0:0:
448,192,517,1,0,0:0:0:0:
192,192,601,1,0,0:0:0:0:
320,192,684,1,0,0:0:0:0:
192,192,767,1,0,0:0:0:0:
64,192,851,1,0,0:0:0:0:
320,192,851,1,0,0:0:0:0:
448,192,851,1,0,0:0:0:0:
192,192,934,1,0,0:0:0:0:
320,192,1017,1,0,0:0:0:0:
320,192,1184,1,0,0:0:0:0:
64,192,1267,1,0,0:0:0:0:
192,192,1351,1,0,0:0:0:0:
320,192,1434,1,0,0:0:0:0:
64,192,1517,1,0,0:0:0:0:
448,192,1517,1,0,0:0:0:0:
320,192,1573,1,0,0:0:0:0:
192,192,1629,1,0,0:0:0:0:
64,192,1684,1,0,0:0:0:0:
320,192,1851,1,0,0:0:0:0:
448,192,1851,1,0,0:0:0:0:
192,192,2017,1,0,0:0:0:0:
320,192,2101,1,0,0:0:0:0:
64,192,2184,1,0,0:0:0:0:
192,192,2184,1,0,0:0:0:0:
448,192,2184,1,0,0:0:0:0:
320,192,2351,1,0,0:0:0:0:
192,192,2434,1,0,0:0:0:0:
320,192,2517,1,0,0:0:0:0:
448,192,2517,1,0,0:0:0:0:
192,192,2684,1,0,0:0:0:0:
320,192,2767,1,0,0:0:0:0:
64,192,2851,1,0,0:0:0:0:
192,192,2851,1,0,0:0:0:0:
448,192,2851,1,0,0:0:0:0:
320,192,3017,1,0,0:0:0:0:
192,192,3101,1,0,0:0:0:0:
64,192,3184,1,0,0:0:0:0:
448,192,3184,1,0,0:0:0:0:
64,192,3351,1,0,0:0:0:0:
320,192,3434,1,0,0:0:0:0:
64,192,3517,1,0,0:0:0:0:
192,192,3517,1,0,0:0:0:0:
448,192,3517,1,0,0:0:0:0:
320,192,3684,1,0,0:0:0:0:
192,192,3767,1,0,0:0:0:0:
320,192,3851,1,0,0:0:0:0:
448,192,3851,1,0,0:0:0:0:
192,192,4017,1,0,0:0:0:0:
320,192,4101,1,0,0:0:0:0:
64,192,4184,1,0,0:0:0:0:
192,192,4184,1,0,0:0:0:0:
448,192,4184,1,0,0:0:0:0:
320,192,4351,1,0,0:0:0:0:
192,192,4434,1,0,0:0:0:0:
64,192,4517,1,0,0:0:0:0:
320,192,4517,1,0,0:0:0:0:
192,192,4684,1,0,0:0:0:0:
320,192,4767,1,0,0:0:0:0:
64,192,4851,1,0,0:0:0:0:
192,192,4851,1,0,0:0:0:0:
448,192,4851,1,0,0:0:0:0:
320,192,5017,1,0,0:0:0:0:
64,192,5101,1,0,0:0:0:0:
192,192,5184,1,0,0:0:0:0:
448,192,5184,1,0,0:0:0:0:
64,192,5351,1,0,0:0:0:0:
320,192,5434,1,0,0:0:0:0:
64,192,5517,1,0,0:0:0:0:
192,192,5517,1,0,0:0:0:0:
448,192,5517,1,0,0:0:0:0:
320,0,5684,128,0,5726:1:0:0:0:
192,0,5767,128,0,5809:1:0:0:0:
64,192,5851,1,0,0:0:0:0:
448,192,5851,1,0,0:0:0:0:
320,192,6017,1,0,0:0:0:0:
192,192,6101,1,0,0:0:0:0:
320,192,6184,1,0,0:0:0:0:
448,192,6184,1,0,0:0:0:0:
64,192,6267,1,0,0:0:0:0:
192,192,6267,1,0,0:0:0:0:
320,192,6351,1,0,0:0:0:0:
448,192,6351,1,0,0:0:0:0:
64,192,6434,1,0,0:0:0:0:
192,192,6434,1,0,0:0:0:0:
320,192,6517,1,0,0:0:0:0:
448,192,6517,1,0,0:0:0:0:
64,192,6601,1,0,0:0:0:0:
192,192,6601,1,0,0:0:0:0:
320,192,6684,1,0,0:0:0:0:
448,192,6684,1,0,0:0:0:0:
64,192,6767,1,0,0:0:0:0:
192,192,6767,1,0,0:0:0:0:
320,192,6851,1,0,0:0:0:0:
448,192,6851,1,0,0:0:0:0:
64,192,6934,1,0,0:0:0:0:
192,192,6934,1,0,0:0:0:0:
320,192,7017,1,0,0:0:0:0:
448,192,7017,1,0,0:0:0:0:
64,192,7101,1,0,0:0:0:0:
192,192,7101,1,0,0:0:0:0:
320,192,7184,1,0,0:0:0:0:
448,192,7184,1,0,0:0:0:0:
64,192,7351,1,0,0:0:0:0:
192,192,7434,1,0,0:0:0:0:
320,192,7517,1,0,0:0:0:0:
448,192,7517,1,0,0:0:0:0:
192,192,7684,1,0,0:0:0:0:
320,192,7767,1,0,0:0:0:0:
64,192,7851,1,0,0:0:0:0:
192,192,7851,1,0,0:0:0:0:
448,192,8017,1,0,0:0:0:0:
192,192,8101,1,0,0:0:0:0:
64,192,8184,1,0,0:0:0:0:
448,192,8184,1,0,0:0:0:0:
192,192,8351,1,0,0:0:0:0:
448,192,8351,1,0,0:0:0:0:
320,192,8434,1,0,0:0:0:0:
64,192,8517,1,0,0:0:0:0:
192,192,8517,1,0,0:0:0:0:
448,192,8517,1,0,0:0:0:0:
192,192,8684,1,0,0:0:0:0:
320,192,8767,1,0,0:0:0:0:
64,192,8851,1,0,0:0:0:0:
448,192,8851,1,0,0:0:0:0:
192,192,9017,1,0,0:0:0:0:
320,192,9101,1,0,0:0:0:0:
64,192,9184,1,0,0:0:0:0:
192,192,9184,1,0,0:0:0:0:
448,192,9351,1,0,0:0:0:0:
192,192,9434,1,0,0:0:0:0:
64,192,9517,1,0,0:0:0:0:
448,192,9517,1,0,0:0:0:0:
192,192,9684,1,0,0:0:0:0:
320,192,9684,1,0,0:0:0:0:
448,192,9767,1,0,0:0:0:0:
64,192,9851,1,0,0:0:0:0:
192,192,9851,1,0,0:0:0:0:
320,192,9851,1,0,0:0:0:0:
320,192,10017,1,0,0:0:0:0:
448,192,10017,1,0,0:0:0:0:
192,192,10101,1,0,0:0:0:0:
64,192,10184,1,0,0:0:0:0:
448,192,10184,1,0,0:0:0:0:
192,192,10351,1,0,0:0:0:0:
448,192,10351,1,0,0:0:0:0:
320,192,10434,1,0,0:0:0:0:
64,192,10517,1,0,0:0:0:0:
192,192,10517,1,0,0:0:0:0:
320,192,10601,1,0,0:0:0:0:
448,192,10601,1,0,0:0:0:0:
64,192,10684,1,0,0:0:0:0:
192,192,10684,1,0,0:0:0:0:
320,192,10767,1,0,0:0:0:0:
448,192,10767,1,0,0:0:0:0:
64,192,10851,1,0,0:0:0:0:
192,192,10851,1,0,0:0:0:0:
320,192,10934,1,0,0:0:0:0:
448,192,10934,1,0,0:0:0:0:
64,192,11017,1,0,0:0:0:0:
192,192,11017,1,0,0:0:0:0:
320,192,11101,1,0,0:0:0:0:
448,192,11101,1,0,0:0:0:0:
64,192,11184,1,0,0:0:0:0:
192,192,11184,1,0,0:0:0:0:
320,192,11351,1,0,0:0:0:0:
448,192,11434,1,0,0:0:0:0:
320,192,11517,1,0,0:0:0:0:
192,192,11684,1,0,0:0:0:0:
320,192,11879,1,0,0:0:0:0:
64,192,12184,1,0,0:0:0:0:
320,192,12184,1,0,0:0:0:0:
448,192,12184,1,0,0:0:0:0:
448,192,12351,1,0,0:0:0:0:
192,192,12517,1,0,0:0:0:0:
320,192,12517,1,0,0:0:0:0:
448,192,12517,1,0,0:0:0:0:
64,192,12601,1,0,0:0:0:0:
192,192,12684,1,0,0:0:0:0:
320,192,12767,1,0,0:0:0:0:
448,192,12851,1,0,0:0:0:0:
192,192,12934,1,0,0:0:0:0:
64,192,13017,1,0,0:0:0:0:
320,192,13017,1,0,0:0:0:0:
448,192,13017,1,0,0:0:0:0:
192,192,13101,1,0,0:0:0:0:
320,192,13184,1,0,0:0:0:0:
64,192,13267,1,0,0:0:0:0:
192,192,13351,1,0,0:0:0:0:
320,192,13434,1,0,0:0:0:0:
64,192,13517,1,0,0:0:0:0:
192,192,13517,1,0,0:0:0:0:
448,192,13517,1,0,0:0:0:0:
320,192,13601,1,0,0:0:0:0:
64,192,13684,1,0,0:0:0:0:
192,192,13767,1,0,0:0:0:0:
448,192,13851,1,0,0:0:0:0:
320,192,13934,1,0,0:0:0:0:
64,192,14017,1,0,0:0:0:0:
192,192,14017,1,0,0:0:0:0:
448,192,14017,1,0,0:0:0:0:
320,192,14101,1,0,0:0:0:0:
192,192,14184,1,0,0:0:0:0:
64,192,14267,1,0,0:0:0:0:
192,192,14351,1,0,0:0:0:0:
448,192,14434,1,0,0:0:0:0:
320,192,14517,1,0,0:0:0:0:
64,192,14601,1,0,0:0:0:0:
192,192,14684,1,0,0:0:0:0:
320,192,14767,1,0,0:0:0:0:
448,192,14851,1,0,0:0:0:0:
320,192,14934,1,0,0:0:0:0:
192,192,15017,1,0,0:0:0:0:
64,192,15101,1,0,0:0:0:0:
192,192,15184,1,0,0:0:0:0:
320,192,15184,1,0,0:0:0:0:
448,192,15184,1,0,0:0:0:0:
64,192,15267,1,0,0:0:0:0:
320,192,15351,1,0,0:0:0:0:
192,192,15434,1,0,0:0:0:0:
448,192,15517,1,0,0:0:0:0:
320,192,15601,1,0,0:0:0:0:
64,192,15684,1,0,0:0:0:0:
192,192,15684,1,0,0:0:0:0:
448,192,15684,1,0,0:0:0:0:
320,192,15767,1,0,0:0:0:0:
192,192,15851,1,0,0:0:0:0:
64,192,15934,1,0,0:0:0:0:
320,192,16017,1,0,0:0:0:0:
192,192,16101,1,0,0:0:0:0:
64,192,16184,1,0,0:0:0:0:
320,192,16184,1,0,0:0:0:0:
448,192,16184,1,0,0:0:0:0:
192,192,16267,1,0,0:0:0:0:
448,192,16351,1,0,0:0:0:0:
320,192,16434,1,0,0:0:0:0:
192,192,16517,1,0,0:0:0:0:
64,192,16601,1,0,0:0:0:0:
192,192,16684,1,0,0:0:0:0:
320,192,16684,1,0,0:0:0:0:
448,192,16684,1,0,0:0:0:0:
64,192,16767,1,0,0:0:0:0:
192,192,16851,1,0,0:0:0:0:
320,192,16934,1,0,0:0:0:0:
192,192,17017,1,0,0:0:0:0:
320,192,17101,1,0,0:0:0:0:
64,0,17184,128,0,17226:1:0:0:0:
320,0,17267,128,0,17309:1:0:0:0:
192,0,17351,128,0,17392:1:0:0:0:
448,0,17434,128,0,17476:1:0:0:0:
64,0,17517,128,0,17559:1:0:0:0:
192,0,17601,128,0,17642:1:0:0:0:
320,0,17684,128,0,17726:1:0:0:0:
448,0,17767,128,0,17809:1:0:0:0:
64,192,17851,1,0,0:0:0:0:
192,192,17851,1,0,0:0:0:0:
320,192,17851,1,0,0:0:0:0:
448,192,17934,1,0,0:0:0:0:
192,192,18017,1,0,0:0:0:0:
320,192,18101,1,0,0:0:0:0:
192,192,18184,1,0,0:0:0:0:
320,192,18267,1,0,0:0:0:0:
64,192,18351,1,0,0:0:0:0:
192,192,18351,1,0,0:0:0:0:
448,192,18351,1,0,0:0:0:0:
320,192,18434,1,0,0:0:0:0:
64,192,18517,1,0,0:0:0:0:
192,192,18601,1,0,0:0:0:0:
320,192,18684,1,0,0:0:0:0:
192,192,18767,1,0,0:0:0:0:
64,192,18851,1,0,0:0:0:0:
320,192,18851,1,0,0:0:0:0:
448,192,18851,1,0,0:0:0:0:
192,192,18934,1,0,0:0:0:0:
320,192,19017,1,0,0:0:0:0:
64,192,19101,1,0,0:0:0:0:
192,192,19184,1,0,0:0:0:0:
448,192,19267,1,0,0:0:0:0:
64,192,19351,1,0,0:0:0:0:
192,192,19351,1,0,0:0:0:0:
320,192,19351,1,0,0:0:0:0:
448,192,19434,1,0,0:0:0:0:
320,192,19517,1,0,0:0:0:0:
192,192,19601,1,0,0:0:0:0:
64,192,19684,1,0,0:0:0:0:
448,192,19767,1,0,0:0:0:0:
320,192,19851,1,0,0:0:0:0:
64,192,19934,1,0,0:0:0:0:
192,192,20017,1,0,0:0:0:0:
320,192,20101,1,0,0:0:0:0:
448,192,20184,1,0,0:0:0:0:
320,192,20267,1,0,0:0:0:0:
192,192,20351,1,0,0:0:0:0:
448,192,20434,1,0,0:0:0:0:
64,192,20517,1,0,0:0:0:0:
192,192,20517,1,0,0:0:0:0:
320,192,20517,1,0,0:0:0:0:
448,192,20601,1,0,0:0:0:0:
64,192,20684,1,0,0:0:0:0:
192,192,20767,1,0,0:0:0:0:
448,192,20851,1,0,0:0:0:0:
320,192,20934,1,0,0:0:0:0:
64,192,21017,1,0,0:0:0:0:
192,192,21017,1,0,0:0:0:0:
448,192,21017,1,0,0:0:0:0:
320,192,21101,1,0,0:0:0:0:
192,192,21184,1,0,0:0:0:0:
64,192,21267,1,0,0:0:0:0:
320,192,21351,1,0,0:0:0:0:
192,192,21434,1,0,0:0:0:0:
64,192,21517,1,0,0:0:0:0:
320,192,21517,1,0,0:0:0:0:
448,192,21517,1,0,0:0:0:0:
192,192,21601,1,0,0:0:0:0:
448,192,21684,1,0,0:0:0:0:
320,192,21767,1,0,0:0:0:0:
192,192,21851,1,0,0:0:0:0:
64,192,21934,1,0,0:0:0:0:
192,192,22017,1,0,0:0:0:0:
320,192,22017,1,0,0:0:0:0:
448,192,22017,1,0,0:0:0:0:
64,192,22101,1,0,0:0:0:0:
320,192,22184,1,0,0:0:0:0:
192,192,22267,1,0,0:0:0:0:
448,192,22351,1,0,0:0:0:0:
320,192,22434,1,0,0:0:0:0:
192,192,22517,1,0,0:0:0:0:
64,192,22601,1,0,0:0:0:0:
192,192,22684,1,0,0:0:0:0:
320,192,22767,1,0,0:0:0:0:
448,192,22851,1,0,0:0:0:0:
320,192,22934,1,0,0:0:0:0:
192,192,23017,1,0,0:0:0:0:
320,192,23101,1,0,0:0:0:0:
64,192,23184,1,0,0:0:0:0:
192,192,23184,1,0,0:0:0:0:
448,192,23184,1,0,0:0:0:0:
320,192,23267,1,0,0:0:0:0:
64,192,23351,1,0,0:0:0:0:
192,192,23434,1,0,0:0:0:0:
320,192,23517,1,0,0:0:0:0:
448,192,23517,1,0,0:0:0:0:
192,192,23601,1,0,0:0:0:0:
64,192,23684,1,0,0:0:0:0:
448,192,23767,1,0,0:0:0:0:
192,192,23851,1,0,0:0:0:0:
320,192,23851,1,0,0:0:0:0:
64,192,23934,1,0,0:0:0:0:
192,192,24017,1,0,0:0:0:0:
320,192,24101,1,0,0:0:0:0:
64,192,24184,1,0,0:0:0:0:
448,192,24184,1,0,0:0:0:0:
320,192,24267,1,0,0:0:0:0:
192,192,24351,1,0,0:0:0:0:
64,192,24434,1,0,0:0:0:0:
192,192,24517,1,0,0:0:0:0:
320,192,24517,1,0,0:0:0:0:
448,192,24601,1,0,0:0:0:0:
64,192,24684,1,0,0:0:0:0:
192,192,24767,1,0,0:0:0:0:
320,192,24851,1,0,0:0:0:0:
448,192,24851,1,0,0:0:0:0:
192,192,24934,1,0,0:0:0:0:
64,192,25017,1,0,0:0:0:0:
448,192,25101,1,0,0:0:0:0:
192,192,25184,1,0,0:0:0:0:
320,192,25184,1,0,0:0:0:0:
64,192,25267,1,0,0:0:0:0:
192,192,25351,1,0,0:0:0:0:
320,192,25434,1,0,0:0:0:0:
64,192,25517,1,0,0:0:0:0:
448,192,25517,1,0,0:0:0:0:
320,192,25601,1,0,0:0:0:0:
192,192,25684,1,0,0:0:0:0:
64,192,25767,1,0,0:0:0:0:
192,192,25851,1,0,0:0:0:0:
320,192,25851,1,0,0:0:0:0:
448,192,25851,1,0,0:0:0:0:
64,192,25934,1,0,0:0:0:0:
192,192,26017,1,0,0:0:0:0:
320,192,26101,1,0,0:0:0:0:
64,192,26184,1,0,0:0:0:0:
448,192,26184,1,0,0:0:0:0:
320,192,26267,1,0,0:0:0:0:
192,192,26351,1,0,0:0:0:0:
64,192,26434,1,0,0:0:0:0:
192,192,26517,1,0,0:0:0:0:
320,192,26517,1,0,0:0:0:0:
448,192,26601,1,0,0:0:0:0:
64,192,26684,1,0,0:0:0:0:
192,192,26767,1,0,0:0:0:0:
320,192,26851,1,0,0:0:0:0:
448,192,26851,1,0,0:0:0:0:
192,192,26934,1,0,0:0:0:0:
64,192,27017,1,0,0:0:0:0:
448,192,27101,1,0,0:0:0:0:
192,192,27184,1,0,0:0:0:0:
320,192,27184,1,0,0:0:0:0:
64,192,27267,1,0,0:0:0:0:
192,192,27351,1,0,0:0:0:0:
320,192,27434,1,0,0:0:0:0:
64,192,27517,1,0,0:0:0:0:
448,192,27517,1,0,0:0:0:0:
320,192,27601,1,0,0:0:0:0:
192,192,27684,1,0,0:0:0:0:
64,192,27767,1,0,0:0:0:0:
192,0,27851,128,0,27892:1:0:0:0:
448,0,27851,128,0,27892:1:0:0:0:
320,0,27934,128,0,27976:1:0:0:0:
192,0,28017,128,0,28059:1:0:0:0:
320,0,28101,128,0,28142:1:0:0:0:
64,0,28184,128,0,28226:1:0:0:0:
448,0,28184,128,0,28226:1:0:0:0:
192,0,28267,128,0,28309:1:0:0:0:
320,0,28351,128,0,28392:1:0:0:0:
448,0,28434,128,0,28476:1:0:0:0:
64,192,28517,1,0,0:0:0:0:
192,192,28517,1,0,0:0:0:0:
320,192,28517,1,0,0:0:0:0:
448,192,28601,1,0,0:0:0:0:
192,192,28684,1,0,0:0:0:0:
320,192,28767,1,0,0:0:0:0:
64,192,28851,1,0,0:0:0:0:
448,192,28851,1,0,0:0:0:0:
320,192,28934,1,0,0:0:0:0:
192,192,29017,1,0,0:0:0:0:
64,192,29101,1,0,0:0:0:0:
192,192,29184,1,0,0:0:0:0:
320,192,29184,1,0,0:0:0:0:
448,192,29267,1,0,0:0:0:0:
320,192,29351,1,0,0:0:0:0:
192,192,29434,1,0,0:0:0:0:
64,192,29517,1,0,0:0:0:0:
320,192,29517,1,0,0:0:0:0:
448,192,29517,1,0,0:0:0:0:
192,192,29601,1,0,0:0:0:0:
320,192,29684,1,0,0:0:0:0:
448,192,29767,1,0,0:0:0:0:
64,192,29851,1,0,0:0:0:0:
192,192,29851,1,0,0:0:0:0:
320,192,29851,1,0,0:0:0:0:
448,192,29934,1,0,0:0:0:0:
192,192,30017,1,0,0:0:0:0:
320,192,30101,1,0,0:0:0:0:
64,192,30184,1,0,0:0:0:0:
448,192,30184,1,0,0:0:0:0:
320,192,30267,1,0,0:0:0:0:
192,192,30351,1,0,0:0:0:0:
64,192,30434,1,0,0:0:0:0:
192,192,30517,1,0,0:0:0:0:
320,192,30517,1,0,0:0:0:0:
448,192,30601,1,0,0:0:0:0:
320,192,30684,1,0,0:0:0:0:
192,192,30767,1,0,0:0:0:0:
64,192,30851,1,0,0:0:0:0:
320,192,30851,1,0,0:0:0:0:
448,192,30851,1,0,0:0:0:0:
192,192,30934,1,0,0:0:0:0:
320,192,31017,1,0,0:0:0:0:
448,192,31101,1,0,0:0:0:0:
64,192,31184,1,0,0:0:0:0:
192,192,31184,1,0,0:0:0:0:
320,192,31184,1,0,0:0:0:0:
448,192,31267,1,0,0:0:0:0:
64,192,31351,1,0,0:0:0:0:
192,192,31351,1,0,0:0:0:0:
320,192,31434,1,0,0:0:0:0:
64,192,31518,1,0,0:0:0:0:
448,192,31518,1,0,0:0:0:0:
320,192,31601,1,0,0:0:0:0:
64,192,31684,1,0,0:0:0:0:
448,192,31684,1,0,0:0:0:0:
192,192,31768,1,0,0:0:0:0:
320,192,31851,1,0,0:0:0:0:
448,192,31851,1,0,0:0:0:0:
64,192,31934,1,0,0:0:0:0:
192,192,31934,1,0,0:0:0:0:
320,192,32018,1,0,0:0:0:0:
448,192,32018,1,0,0:0:0:0:
64,192,32101,1,0,0:0:0:0:
192,192,32101,1,0,0:0:0:0:
320,192,32184,1,0,0:0:0:0:
448,192,32184,1,0,0:0:0:0:
64,192,32268,1,0,0:0:0:0:
192,192,32268,1,0,0:0:0:0:
320,192,32351,1,0,0:0:0:0:
448,192,32351,1,0,0:0:0:0:
64,192,32434,1,0,0:0:0:0:
192,192,32434,1,0,0:0:0:0:
320,192,32518,1,0,0:0:0:0:
448,192,32518,1,0,0:0:0:0:
192,192,32684,1,0,0:0:0:0:
448,0,32684,128,0,33184:1:0:0:0:
320,192,32768,1,0,0:0:0:0:
192,192,32851,1,0,0:0:0:0:
64,192,33018,1,0,0:0:0:0:
64,0,33184,128,0,33518:1:0:0:0:
320,192,33212,1,0,0:0:0:0:
448,192,33518,1,0,0:0:0:0:
448,0,33684,128,0,33726:1:0:0:0:
64,0,33768,128,0,33809:1:0:0:0:
192,192,33851,1,0,0:0:0:0:
320,192,33851,1,0,0:0:0:0:
448,192,33851,1,0,0:0:0:0:
64,192,33934,1,0,0:0:0:0:
192,192,34018,1,0,0:0:0:0:
320,192,34101,1,0,0:0:0:0:
448,192,34101,1,0,0:0:0:0:
64,192,34184,1,0,0:0:0:0:
192,192,34184,1,0,0:0:0:0:
448,192,34268,1,0,0:0:0:0:
192,192,34351,1,0,0:0:0:0:
320,192,34351,1,0,0:0:0:0:
64,192,34434,1,0,0:0:0:0:
320,192,34518,1,0,0:0:0:0:
448,192,34518,1,0,0:0:0:0:
192,192,34601,1,0,0:0:0:0:
64,192,34684,1,0,0:0:0:0:
192,192,34768,1,0,0:0:0:0:
320,192,34768,1,0,0:0:0:0:
64,192,34851,1,0,0:0:0:0:
448,192,34851,1,0,0:0:0:0:
320,192,34934,1,0,0:0:0:0:
64,192,35018,1,0,0:0:0:0:
448,192,35018,1,0,0:0:0:0:
192,192,35101,1,0,0:0:0:0:
320,192,35184,1,0,0:0:0:0:
448,192,35184,1,0,0:0:0:0:
64,192,35268,1,0,0:0:0:0:
192,192,35351,1,0,0:0:0:0:
320,192,35434,1,0,0:0:0:0:
448,192,35434,1,0,0:0:0:0:
64,192,35518,1,0,0:0:0:0:
192,192,35518,1,0,0:0:0:0:
448,192,35601,1,0,0:0:0:0:
64,192,35684,1,0,0:0:0:0:
192,192,35684,1,0,0:0:0:0:
320,192,35768,1,0,0:0:0:0:
64,192,35851,1,0,0:0:0:0:
448,192,35851,1,0,0:0:0:0:
192,192,35934,1,0,0:0:0:0:
320,192,36018,1,0,0:0:0:0:
64,192,36101,1,0,0:0:0:0:
448,192,36101,1,0,0:0:0:0:
192,192,36184,1,0,0:0:0:0:
320,192,36184,1,0,0:0:0:0:
448,192,36268,1,0,0:0:0:0:
64,192,36351,1,0,0:0:0:0:
192,192,36351,1,0,0:0:0:0:
320,192,36434,1,0,0:0:0:0:
64,192,36518,1,0,0:0:0:0:
192,192,36518,1,0,0:0:0:0:
448,192,36518,1,0,0:0:0:0:
320,192,36601,1,0,0:0:0:0:
192,192,36684,1,0,0:0:0:0:
64,192,36768,1,0,0:0:0:0:
448,192,36768,1,0,0:0:0:0:
192,192,36851,1,0,0:0:0:0:
320,192,36851,1,0,0:0:0:0:
448,192,36934,1,0,0:0:0:0:
64,192,37018,1,0,0:0:0:0:
192,192,37018,1,0,0:0:0:0:
320,192,37101,1,0,0:0:0:0:
64,192,37184,1,0,0:0:0:0:
448,192,37184,1,0,0:0:0:0:
192,192,37268,1,0,0:0:0:0:
320,192,37351,1,0,0:0:0:0:
64,192,37434,1,0,0:0:0:0:
448,192,37434,1,0,0:0:0:0:
192,192,37518,1,0,0:0:0:0:
320,192,37518,1,0,0:0:0:0:
448,192,37601,1,0,0:0:0:0:
64,192,37684,1,0,0:0:0:0:
192,192,37684,1,0,0:0:0:0:
320,192,37768,1,0,0:0:0:0:
192,192,37851,1,0,0:0:0:0:
448,192,37851,1,0,0:0:0:0:
64,192,37934,1,0,0:0:0:0:
448,192,38018,1,0,0:0:0:0:
64,192,38101,1,0,0:0:0:0:
192,192,38101,1,0,0:0:0:0:
320,192,38184,1,0,0:0:0:0:
448,192,38184,1,0,0:0:0:0:
64,192,38268,1,0,0:0:0:0:
192,192,38351,1,0,0:0:0:0:
320,192,38351,1,0,0:0:0:0:
448,192,38434,1,0,0:0:0:0:
64,192,38518,1,0,0:0:0:0:
192,192,38518,1,0,0:0:0:0:
320,192,38601,1,0,0:0:0:0:
448,192,38684,1,0,0:0:0:0:
64,192,38768,1,0,0:0:0:0:
192,192,38768,1,0,0:0:0:0:
320,192,38851,1,0,0:0:0:0:
448,192,38851,1,0,0:0:0:0:
192,192,38934,1,0,0:0:0:0:
64,192,39018,1,0,0:0:0:0:
448,192,39018,1,0,0:0:0:0:
320,192,39101,1,0,0:0:0:0:
64,192,39184,1,0,0:0:0:0:
192,192,39184,1,0,0:0:0:0:
448,192,39184,1,0,0:0:0:0:
320,192,39268,1,0,0:0:0:0:
192,192,39351,1,0,0:0:0:0:
64,192,39434,1,0,0:0:0:0:
448,192,39434,1,0,0:0:0:0:
192,192,39518,1,0,0:0:0:0:
320,192,39518,1,0,0:0:0:0:
448,192,39601,1,0,0:0:0:0:
64,192,39684,1,0,0:0:0:0:
192,192,39684,1,0,0:0:0:0:
320,192,39768,1,0,0:0:0:0:
64,192,39851,1,0,0:0:0:0:
448,192,39851,1,0,0:0:0:0:
192,192,39934,1,0,0:0:0:0:
320,192,40018,1,0,0:0:0:0:
64,192,40101,1,0,0:0:0:0:
448,192,40101,1,0,0:0:0:0:
192,192,40184,1,0,0:0:0:0:
320,192,40184,1,0,0:0:0:0:
64,192,40268,1,0,0:0:0:0:
320,192,40351,1,0,0:0:0:0:
448,192,40351,1,0,0:0:0:0:
192,192,40434,1,0,0:0:0:0:
64,192,40518,1,0,0:0:0:0:
320,192,40518,1,0,0:0:0:0:
448,192,40518,1,0,0:0:0:0:
192,192,40601,1,0,0:0:0:0:
448,192,40684,1,0,0:0:0:0:
64,192,40768,1,0,0:0:0:0:
192,192,40768,1,0,0:0:0:0:
320,192,40851,1,0,0:0:0:0:
448,192,40851,1,0,0:0:0:0:
64,192,40934,1,0,0:0:0:0:
192,192,41018,1,0,0:0:0:0:
320,192,41018,1,0,0:0:0:0:
448,192,41101,1,0,0:0:0:0:
64,192,41184,1,0,0:0:0:0:
320,192,41184,1,0,0:0:0:0:
192,192,41268,1,0,0:0:0:0:
448,192,41351,1,0,0:0:0:0:
64,192,41434,1,0,0:0:0:0:
192,192,41434,1,0,0:0:0:0:
320,192,41518,1,0,0:0:0:0:
448,192,41518,1,0,0:0:0:0:
64,192,41601,1,0,0:0:0:0:
192,192,41684,1,0,0:0:0:0:
320,192,41684,1,0,0:0:0:0:
448,192,41768,1,0,0:0:0:0:
64,192,41851,1,0,0:0:0:0:
192,192,41851,1,0,0:0:0:0:
320,192,41851,1,0,0:0:0:0:
448,192,41934,1,0,0:0:0:0:
64,192,42018,1,0,0:0:0:0:
192,192,42018,1,0,0:0:0:0:
320,192,42101,1,0,0:0:0:0:
448,192,42101,1,0,0:0:0:0:
64,192,42184,1,0,0:0:0:0:
192,192,42184,1,0,0:0:0:0:
320,192,42268,1,0,0:0:0:0:
64,192,42351,1,0,0:0:0:0:
448,192,42351,1,0,0:0:0:0:
192,192,42434,1,0,0:0:0:0:
320,192,42518,1,0,0:0:0:0:
448,192,42518,1,0,0:0:0:0:
64,192,42601,1,0,0:0:0:0:
192,192,42601,1,0,0:0:0:0:
320,192,42684,1,0,0:0:0:0:
448,192,42684,1,0,0:0:0:0:
64,192,42768,1,0,0:0:0:0:
192,192,42768,1,0,0:0:0:0:
320,192,42851,1,0,0:0:0:0:
448,192,42851,1,0,0:0:0:0:
64,192,42934,1,0,0:0:0:0:
192,192,42934,1,0,0:0:0:0:
320,0,43018,128,0,43059:1:0:0:0:
448,0,43018,128,0,43059:1:0:0:0:
64,0,43101,128,0,43143:1:0:0:0:
192,0,43101,128,0,43143:1:0:0:0:
320,0,43184,128,0,43226:1:0:0:0:
448,0,43184,128,0,43226:1:0:0:0:
192,0,43268,128,0,43288:1:0:0:0:
320,0,43351,128,0,43372:1:0:0:0:
64,0,43434,128,0,43455:1:0:0:0:
448,0,43518,128,0,43538:1:0:0:0:
192,0,43601,128,0,43622:1:0:0:0:
320,0,43684,128,0,43851:1:0:0:0:
64,0,43851,128,0,43934:1:0:0:0:
192,0,43934,128,0,44018:1:0:0:0:
320,0,44018,128,0,44101:1:0:0:0:
448,0,44101,128,0,44184:1:0:0:0:
64,192,44184,1,0,0:0:0:0:
320,0,44184,128,0,44267:1:0:0:0:
192,0,44267,128,0,44351:1:0:0:0:
64,0,44351,128,0,44517:1:0:0:0:
192,192,44517,1,0,0:0:0:0:
320,192,44517,1,0,0:0:0:0:
448,192,44517,1,0,0:0:0:0:
64,192,44601,1,0,0:0:0:0:
320,192,44684,1,0,0:0:0:0:
448,192,44684,1,0,0:0:0:0:
192,192,44767,1,0,0:0:0:0:
64,192,44851,1,0,0:0:0:0:
448,192,44851,1,0,0:0:0:0:
192,192,44934,1,0,0:0:0:0:
320,192,44934,1,0,0:0:0:0:
448,192,45017,1,0,0:0:0:0:
64,192,45101,1,0,0:0:0:0:
192,192,45101,1,0,0:0:0:0:
320,192,45184,1,0,0:0:0:0:
448,192,45184,1,0,0:0:0:0:
192,192,45267,1,0,0:0:0:0:
64,192,45351,1,0,0:0:0:0:
320,192,45351,1,0,0:0:0:0:
192,192,45434,1,0,0:0:0:0:
448,192,45434,1,0,0:0:0:0:
320,192,45517,1,0,0:0:0:0:
64,192,45601,1,0,0:0:0:0:
192,192,45601,1,0,0:0:0:0:
320,192,45684,1,0,0:0:0:0:
448,192,45684,1,0,0:0:0:0:
64,192,45767,1,0,0:0:0:0:
192,192,45767,1,0,0:0:0:0:
448,192,45851,1,0,0:0:0:0:
192,192,45934,1,0,0:0:0:0:
320,192,45934,1,0,0:0:0:0:
64,192,46017,1,0,0:0:0:0:
448,192,46017,1,0,0:0:0:0:
192,192,46101,1,0,0:0:0:0:
320,192,46184,1,0,0:0:0:0:
448,192,46184,1,0,0:0:0:0:
64,192,46267,1,0,0:0:0:0:
192,192,46267,1,0,0:0:0:0:
448,192,46351,1,0,0:0:0:0:
192,192,46434,1,0,0:0:0:0:
320,192,46434,1,0,0:0:0:0:
64,192,46517,1,0,0:0:0:0:
448,192,46517,1,0,0:0:0:0:
192,192,46601,1,0,0:0:0:0:
320,192,46684,1,0,0:0:0:0:
448,192,46684,1,0,0:0:0:0:
64,192,46767,1,0,0:0:0:0:
192,192,46767,1,0,0:0:0:0:
448,192,46851,1,0,0:0:0:0:
64,192,46934,1,0,0:0:0:0:
320,192,46934,1,0,0:0:0:0:
192,192,47017,1,0,0:0:0:0:
448,192,47017,1,0,0:0:0:0:
64,192,47101,1,0,0:0:0:0:
320,192,47101,1,0,0:0:0:0:
192,192,47184,1,0,0:0:0:0:
320,192,47267,1,0,0:0:0:0:
448,192,47267,1,0,0:0:0:0:
64,192,47351,1,0,0:0:0:0:
192,192,47351,1,0,0:0:0:0:
448,192,47434,1,0,0:0:0:0:
64,192,47517,1,0,0:0:0:0:
192,192,47517,1,0,0:0:0:0:
320,192,47601,1,0,0:0:0:0:
448,192,47601,1,0,0:0:0:0:
64,192,47684,1,0,0:0:0:0:
192,192,47767,1,0,0:0:0:0:
320,192,47767,1,0,0:0:0:0:
64,192,47851,1,0,0:0:0:0:
448,192,47851,1,0,0:0:0:0:
192,192,47934,1,0,0:0:0:0:
320,192,48017,1,0,0:0:0:0:
448,192,48017,1,0,0:0:0:0:
64,192,48101,1,0,0:0:0:0:
192,192,48101,1,0,0:0:0:0:
448,192,48184,1,0,0:0:0:0:
192,192,48267,1,0,0:0:0:0:
320,192,48267,1,0,0:0:0:0:
64,192,48351,1,0,0:0:0:0:
448,192,48351,1,0,0:0:0:0:
192,192,48434,1,0,0:0:0:0:
320,192,48434,1,0,0:0:0:0:
448,192,48517,1,0,0:0:0:0:
64,192,48601,1,0,0:0:0:0:
320,192,48601,1,0,0:0:0:0:
192,192,48684,1,0,0:0:0:0:
448,192,48684,1,0,0:0:0:0:
64,192,48767,1,0,0:0:0:0:
320,192,48851,1,0,0:0:0:0:
448,192,48851,1,0,0:0:0:0:
64,192,48934,1,0,0:0:0:0:
192,192,48934,1,0,0:0:0:0:
448,192,49017,1,0,0:0:0:0:
192,192,49101,1,0,0:0:0:0:
320,192,49101,1,0,0:0:0:0:
64,0,49184,128,0,49205:1:0:0:0:
448,0,49184,128,0,49205:1:0:0:0:
192,0,49267,128,0,49288:1:0:0:0:
320,0,49267,128,0,49288:1:0:0:0:
64,0,49351,128,0,49372:1:0:0:0:
448,0,49351,128,0,49372:1:0:0:0:
192,0,49434,128,0,49455:1:0:0:0:
320,0,49434,128,0,49455:1:0:0:0:
64,0,49517,128,0,49538:1:0:0:0:
448,0,49517,128,0,49538:1:0:0:0:
320,0,49601,128,0,49622:1:0:0:0:
192,0,49684,128,0,49705:1:0:0:0:
64,0,49767,128,0,49788:1:0:0:0:
192,192,49851,1,0,0:0:0:0:
320,192,49851,1,0,0:0:0:0:
448,192,49851,1,0,0:0:0:0:
64,192,49934,1,0,0:0:0:0:
320,192,50017,1,0,0:0:0:0:
448,192,50017,1,0,0:0:0:0:
192,192,50101,1,0,0:0:0:0:
64,192,50184,1,0,0:0:0:0:
448,192,50184,1,0,0:0:0:0:
192,192,50267,1,0,0:0:0:0:
320,192,50267,1,0,0:0:0:0:
448,192,50351,1,0,0:0:0:0:
64,192,50434,1,0,0:0:0:0:
192,192,50434,1,0,0:0:0:0:
320,192,50517,1,0,0:0:0:0:
448,192,50517,1,0,0:0:0:0:
192,192,50601,1,0,0:0:0:0:
64,192,50684,1,0,0:0:0:0:
448,192,50684,1,0,0:0:0:0:
192,192,50767,1,0,0:0:0:0:
320,192,50767,1,0,0:0:0:0:
64,192,50851,1,0,0:0:0:0:
320,192,50934,1,0,0:0:0:0:
448,192,50934,1,0,0:0:0:0:
64,192,51017,1,0,0:0:0:0:
192,192,51017,1,0,0:0:0:0:
320,192,51101,1,0,0:0:0:0:
448,192,51101,1,0,0:0:0:0:
192,192,51184,1,0,0:0:0:0:
64,192,51267,1,0,0:0:0:0:
320,192,51267,1,0,0:0:0:0:
192,192,51351,1,0,0:0:0:0:
448,192,51351,1,0,0:0:0:0:
320,192,51434,1,0,0:0:0:0:
64,192,51517,1,0,0:0:0:0:
192,192,51517,1,0,0:0:0:0:
320,192,51601,1,0,0:0:0:0:
448,192,51601,1,0,0:0:0:0:
64,192,51684,1,0,0:0:0:0:
192,192,51767,1,0,0:0:0:0:
320,192,51767,1,0,0:0:0:0:
64,192,51851,1,0,0:0:0:0:
448,192,51851,1,0,0:0:0:0:
320,192,51934,1,0,0:0:0:0:
192,192,52017,1,0,0:0:0:0:
448,192,52017,1,0,0:0:0:0:
64,192,52101,1,0,0:0:0:0:
320,192,52101,1,0,0:0:0:0:
192,192,52184,1,0,0:0:0:0:
320,192,52267,1,0,0:0:0:0:
448,192,52267,1,0,0:0:0:0:
64,192,52351,1,0,0:0:0:0:
192,192,52351,1,0,0:0:0:0:
320,192,52434,1,0,0:0:0:0:
448,192,52434,1,0,0:0:0:0:
64,192,52517,1,0,0:0:0:0:
192,192,52601,1,0,0:0:0:0:
320,192,52601,1,0,0:0:0:0:
64,192,52684,1,0,0:0:0:0:
448,192,52684,1,0,0:0:0:0:
192,192,52767,1,0,0:0:0:0:
64,192,52851,1,0,0:0:0:0:
320,192,52851,1,0,0:0:0:0:
192,192,52934,1,0,0:0:0:0:
448,192,52934,1,0,0:0:0:0:
320,192,53017,1,0,0:0:0:0:
64,192,53101,1,0,0:0:0:0:
448,192,53101,1,0,0:0:0:0:
192,192,53184,1,0,0:0:0:0:
320,192,53184,1,0,0:0:0:0:
64,192,53267,1,0,0:0:0:0:
320,192,53351,1,0,0:0:0:0:
448,192,53351,1,0,0:0:0:0:
64,192,53434,1,0,0:0:0:0:
192,192,53434,1,0,0:0:0:0:
448,192,53517,1,0,0:0:0:0:
64,192,53601,1,0,0:0:0:0:
320,192,53601,1,0,0:0:0:0:
192,192,53684,1,0,0:0:0:0:
448,192,53684,1,0,0:0:0:0:
64,192,53767,1,0,0:0:0:0:
320,192,53767,1,0,0:0:0:0:
448,192,53851,1,0,0:0:0:0:
64,192,53934,1,0,0:0:0:0:
192,192,53934,1,0,0:0:0:0:
320,192,54017,1,0,0:0:0:0:
448,192,54017,1,0,0:0:0:0:
64,192,54101,1,0,0:0:0:0:
192,192,54184,1,0,0:0:0:0:
320,192,54184,1,0,0:0:0:0:
64,192,54267,1,0,0:0:0:0:
448,192,54267,1,0,0:0:0:0:
320,192,54351,1,0,0:0:0:0:
64,192,54434,1,0,0:0:0:0:
192,192,54434,1,0,0:0:0:0:
320,192,54517,1,0,0:0:0:0:
448,192,54517,1,0,0:0:0:0:
192,192,54601,1,0,0:0:0:0:
320,0,54684,128,0,54726:1:0:0:0:
448,0,54684,128,0,54726:1:0:0:0:
64,0,54767,128,0,54809:1:0:0:0:
192,0,54767,128,0,54809:1:0:0:0:
320,0,54851,128,0,54892:1:0:0:0:
448,0,54851,128,0,54892:1:0:0:0:
64,0,54934,128,0,54976:1:0:0:0:
192,0,54934,128,0,54976:1:0:0:0:
320,0,55017,128,0,55059:1:0:0:0:
448,0,55017,128,0,55059:1:0:0:0:
64,0,55101,128,0,55142:1:0:0:0:
192,0,55101,128,0,55142:1:0:0:0:
320,192,55184,1,0,0:0:0:0:
448,192,55184,1,0,0:0:0:0:
64,192,55267,1,0,0:0:0:0:
192,192,55351,1,0,0:0:0:0:
320,192,55434,1,0,0:0:0:0:
64,192,55517,1,0,0:0:0:0:
192,192,55517,1,0,0:0:0:0:
448,192,55517,1,0,0:0:0:0:
320,192,55601,1,0,0:0:0:0:
64,192,55684,1,0,0:0:0:0:
192,192,55684,1,0,0:0:0:0:
448,192,55767,1,0,0:0:0:0:
64,192,55851,1,0,0:0:0:0:
192,192,55851,1,0,0:0:0:0:
320,192,55934,1,0,0:0:0:0:
448,192,55934,1,0,0:0:0:0:
192,192,56017,1,0,0:0:0:0:
64,192,56101,1,0,0:0:0:0:
192,192,56184,1,0,0:0:0:0:
320,192,56184,1,0,0:0:0:0:
448,192,56184,1,0,0:0:0:0:
64,192,56267,1,0,0:0:0:0:
448,192,56351,1,0,0:0:0:0:
192,192,56434,1,0,0:0:0:0:
320,192,56517,1,0,0:0:0:0:
448,192,56517,1,0,0:0:0:0:
64,192,56601,1,0,0:0:0:0:
192,192,56684,1,0,0:0:0:0:
320,192,56767,1,0,0:0:0:0:
64,192,56851,1,0,0:0:0:0:
192,192,56851,1,0,0:0:0:0:
448,192,56851,1,0,0:0:0:0:
320,192,56934,1,0,0:0:0:0:
64,192,57017,1,0,0:0:0:0:
448,192,57017,1,0,0:0:0:0:
192,192,57101,1,0,0:0:0:0:
320,192,57184,1,0,0:0:0:0:
448,192,57184,1,0,0:0:0:0:
64,192,57267,1,0,0:0:0:0:
192,192,57267,1,0,0:0:0:0:
448,192,57351,1,0,0:0:0:0:
64,192,57434,1,0,0:0:0:0:
192,192,57517,1,0,0:0:0:0:
320,192,57517,1,0,0:0:0:0:
448,192,57517,1,0,0:0:0:0:
64,192,57601,1,0,0:0:0:0:
448,192,57684,1,0,0:0:0:0:
320,192,57767,1,0,0:0:0:0:
64,192,57851,1,0,0:0:0:0:
192,192,57851,1,0,0:0:0:0:
320,192,57934,1,0,0:0:0:0:
448,192,58017,1,0,0:0:0:0:
64,192,58101,1,0,0:0:0:0:
192,192,58184,1,0,0:0:0:0:
320,192,58184,1,0,0:0:0:0:
448,192,58184,1,0,0:0:0:0:
64,192,58267,1,0,0:0:0:0:
320,192,58351,1,0,0:0:0:0:
448,192,58351,1,0,0:0:0:0:
192,192,58434,1,0,0:0:0:0:
64,192,58517,1,0,0:0:0:0:
448,192,58517,1,0,0:0:0:0:
192,192,58601,1,0,0:0:0:0:
320,192,58601,1,0,0:0:0:0:
448,192,58684,1,0,0:0:0:0:
192,192,58767,1,0,0:0:0:0:
64,192,58851,1,0,0:0:0:0:
320,192,58851,1,0,0:0:0:0:
448,192,58851,1,0,0:0:0:0:
192,192,58934,1,0,0:0:0:0:
448,192,59017,1,0,0:0:0:0:
64,192,59101,1,0,0:0:0:0:
192,192,59184,1,0,0:0:0:0:
320,192,59184,1,0,0:0:0:0:
448,192,59267,1,0,0:0:0:0:
64,192,59351,1,0,0:0:0:0:
192,192,59434,1,0,0:0:0:0:
320,192,59434,1,0,0:0:0:0:
448,192,59517,1,0,0:0:0:0:
64,192,59601,1,0,0:0:0:0:
192,192,59684,1,0,0:0:0:0:
320,192,59684,1,0,0:0:0:0:
448,192,59767,1,0,0:0:0:0:
64,192,59851,1,0,0:0:0:0:
192,192,59934,1,0,0:0:0:0:
320,192,59934,1,0,0:0:0:0:
448,192,60017,1,0,0:0:0:0:
320,192,60101,1,0,0:0:0:0:
64,192,60184,1,0,0:0:0:0:
192,192,60184,1,0,0:0:0:0:
320,192,60267,1,0,0:0:0:0:
448,192,60267,1,0,0:0:0:0:
64,192,60351,1,0,0:0:0:0:
192,192,60351,1,0,0:0:0:0:
320,192,60434,1,0,0:0:0:0:
448,192,60434,1,0,0:0:0:0:
64,192,60517,1,0,0:0:0:0:
192,192,60517,1,0,0:0:0:0:
448,192,60601,1,0,0:0:0:0:
192,192,60684,1,0,0:0:0:0:
320,192,60767,1,0,0:0:0:0:
448,192,60767,1,0,0:0:0:0:
64,192,60851,1,0,0:0:0:0:
192,192,60934,1,0,0:0:0:0:
320,192,61017,1,0,0:0:0:0:
448,192,61017,1,0,0:0:0:0:
192,192,61101,1,0,0:0:0:0:
64,192,61184,1,0,0:0:0:0:
320,192,61184,1,0,0:0:0:0:
448,192,61184,1,0,0:0:0:0:
192,192,61267,1,0,0:0:0:0:
320,192,61351,1,0,0:0:0:0:
64,192,61434,1,0,0:0:0:0:
320,192,61517,1,0,0:0:0:0:
448,192,61517,1,0,0:0:0:0:
64,192,61601,1,0,0:0:0:0:
192,192,61601,1,0,0:0:0:0:
320,192,61684,1,0,0:0:0:0:
448,192,61684,1,0,0:0:0:0:
64,192,61767,1,0,0:0:0:0:
192,192,61767,1,0,0:0:0:0:
320,192,61851,1,0,0:0:0:0:
448,192,61851,1,0,0:0:0:0:
192,192,61934,1,0,0:0:0:0:
64,192,62017,1,0,0:0:0:0:
320,192,62101,1,0,0:0:0:0:
448,192,62101,1,0,0:0:0:0:
192,192,62184,1,0,0:0:0:0:
64,192,62267,1,0,0:0:0:0:
192,192,62351,1,0,0:0:0:0:
320,192,62351,1,0,0:0:0:0:
448,192,62434,1,0,0:0:0:0:
64,192,62517,1,0,0:0:0:0:
192,192,62517,1,0,0:0:0:0:
320,192,62601,1,0,0:0:0:0:
448,192,62601,1,0,0:0:0:0:
64,192,62684,1,0,0:0:0:0:
192,192,62684,1,0,0:0:0:0:
320,192,62767,1,0,0:0:0:0:
64,192,62851,1,0,0:0:0:0:
448,192,62851,1,0,0:0:0:0:
192,192,62934,1,0,0:0:0:0:
320,192,63017,1,0,0:0:0:0:
448,192,63017,1,0,0:0:0:0:
64,192,63101,1,0,0:0:0:0:
192,192,63184,1,0,0:0:0:0:
320,192,63184,1,0,0:0:0:0:
448,192,63184,1,0,0:0:0:0:
64,192,63267,1,0,0:0:0:0:
448,192,63351,1,0,0:0:0:0:
192,192,63434,1,0,0:0:0:0:
320,192,63434,1,0,0:0:0:0:
64,192,63517,1,0,0:0:0:0:
448,192,63601,1,0,0:0:0:0:
192,192,63684,1,0,0:0:0:0:
320,192,63684,1,0,0:0:0:0:
448,192,63767,1,0,0:0:0:0:
64,192,63851,1,0,0:0:0:0:
192,192,63851,1,0,0:0:0:0:
320,192,63934,1,0,0:0:0:0:
448,192,63934,1,0,0:0:0:0:
64,192,64017,1,0,0:0:0:0:
192,192,64017,1,0,0:0:0:0:
448,192,64101,1,0,0:0:0:0:
64,192,64184,1,0,0:0:0:0:
192,192,64184,1,0,0:0:0:0:
320,192,64267,1,0,0:0:0:0:
448,192,64267,1,0,0:0:0:0:
64,192,64350,1,0,0:0:0:0:
192,192,64350,1,0,0:0:0:0:
320,192,64434,1,0,0:0:0:0:
448,192,64434,1,0,0:0:0:0:
64,0,64517,128,0,64538:1:0:0:0:
192,0,64517,128,0,64538:1:0:0:0:
320,0,64600,128,0,64621:1:0:0:0:
448,0,64684,128,0,64705:1:0:0:0:
192,0,64767,128,0,64788:1:0:0:0:
320,0,64850,128,0,64871:1:0:0:0:
64,0,64934,128,0,64955:1:0:0:0:
192,0,65017,128,0,65038:1:0:0:0:
320,192,65184,1,0,0:0:0:0:
192,0,65350,128,0,65434:1:0:0:0:
64,0,65434,128,0,65517:1:0:0:0:
320,192,65517,1,0,0:0:0:0:
448,192,65517,1,0,0:0:0:0:
192,0,65684,128,0,65767:1:0:0:0:
320,0,65767,128,0,65850:1:0:0:0:
64,192,65850,1,0,0:0:0:0:
448,192,65850,1,0,0:0:0:0:
192,0,65850,128,0,65906:1:0:0:0:
320,192,66017,1,0,0:0:0:0:
448,0,66184,128,0,66239:1:0:0:0:
64,192,66350,1,0,0:0:0:0:
320,0,66517,128,0,66573:1:0:0:0:
320,0,66684,128,0,66739:1:0:0:0:
64,192,66850,1,0,0:0:0:0:
448,0,67017,128,0,67073:1:0:0:0:
192,192,67184,1,0,0:0:0:0:
320,0,67350,128,0,67406:1:0:0:0:
192,0,67517,128,0,67573:1:0:0:0:
64,0,67684,128,0,67739:1:0:0:0:
320,0,67850,128,0,67906:1:0:0:0:
64,0,68017,128,0,68073:1:0:0:0:
192,0,68184,128,0,68239:1:0:0:0:
320,0,68350,128,0,68406:1:0:0:0:
192,0,68517,128,0,68573:1:0:0:0:
64,192,68684,1,0,0:0:0:0:
448,0,68850,128,0,68906:1:0:0:0:
64,192,69017,1,0,0:0:0:0:
320,0,69184,128,0,69239:1:0:0:0:
320,0,69350,128,0,69406:1:0:0:0:
64,192,69517,1,0,0:0:0:0:
448,0,69684,128,0,69739:1:0:0:0:
192,192,69850,1,0,0:0:0:0:
320,0,70017,128,0,70073:1:0:0:0:
448,0,70184,128,0,70239:1:0:0:0:
192,0,70350,128,0,70406:1:0:0:0:
320,0,70517,128,0,70573:1:0:0:0:
192,0,70684,128,0,70739:1:0:0:0:
320,0,70739,128,0,70795:1:0:0:0:
448,0,70795,128,0,70850:1:0:0:0:
320,0,70850,128,0,70906:1:0:0:0:
192,0,71017,128,0,71073:1:0:0:0:
64,0,71184,128,0,71239:1:0:0:0:
192,192,71350,1,0,0:0:0:0:
320,0,71517,128,0,71573:1:0:0:0:
64,192,71684,1,0,0:0:0:0:
192,0,71850,128,0,71906:1:0:0:0:
192,0,72017,128,0,72073:1:0:0:0:
64,192,72184,1,0,0:0:0:0:
320,0,72350,128,0,72406:1:0:0:0:
448,192,72517,1,0,0:0:0:0:
192,0,72684,128,0,72739:1:0:0:0:
64,0,72850,128,0,72906:1:0:0:0:
448,0,73017,128,0,73073:1:0:0:0:
192,0,73184,128,0,73239:1:0:0:0:
320,0,73350,128,0,73406:1:0:0:0:
192,0,73517,128,0,73573:1:0:0:0:
448,0,73684,128,0,73739:1:0:0:0:
320,0,73850,128,0,73906:1:0:0:0:
192,192,74017,1,0,0:0:0:0:
448,0,74184,128,0,74239:1:0:0:0:
64,192,74350,1,0,0:0:0:0:
320,0,74517,128,0,74573:1:0:0:0:
320,0,74684,128,0,74739:1:0:0:0:
64,192,74850,1,0,0:0:0:0:
192,192,75017,1,0,0:0:0:0:
320,192,75017,1,0,0:0:0:0:
448,0,75017,128,0,75073:1:0:0:0:
192,192,75184,1,0,0:0:0:0:
64,192,75350,1,0,0:0:0:0:
448,192,75350,1,0,0:0:0:0:
320,0,75350,128,0,75406:1:0:0:0:
192,192,75517,1,0,0:0:0:0:
320,192,75517,1,0,0:0:0:0:
448,0,75517,128,0,75573:1:0:0:0:
64,192,75684,1,0,0:0:0:0:
448,192,75684,1,0,0:0:0:0:
320,0,75684,128,0,75739:1:0:0:0:
320,192,75850,1,0,0:0:0:0:
448,192,75850,1,0,0:0:0:0:
64,0,75850,128,0,76017:1:0:0:0:
192,0,76017,128,0,76184:1:0:0:0:
320,192,76184,1,0,0:0:0:0:
448,0,76184,128,0,76350:1:0:0:0:
192,0,76350,128,0,76517:1:0:0:0:
64,192,76517,1,0,0:0:0:0:
320,192,76517,1,0,0:0:0:0:
448,192,76517,1,0,0:0:0:0:
192,192,76600,1,0,0:0:0:0:
448,192,76684,1,0,0:0:0:0:
192,192,76767,1,0,0:0:0:0:
320,192,76767,1,0,0:0:0:0:
64,192,76850,1,0,0:0:0:0:
448,192,76850,1,0,0:0:0:0:
192,192,76934,1,0,0:0:0:0:
320,192,77017,1,0,0:0:0:0:
448,192,77017,1,0,0:0:0:0:
64,192,77100,1,0,0:0:0:0:
192,192,77184,1,0,0:0:0:0:
320,192,77184,1,0,0:0:0:0:
448,192,77267,1,0,0:0:0:0:
320,192,77350,1,0,0:0:0:0:
64,192,77434,1,0,0:0:0:0:
192,192,77434,1,0,0:0:0:0:
320,192,77517,1,0,0:0:0:0:
448,192,77517,1,0,0:0:0:0:
192,192,77600,1,0,0:0:0:0:
320,192,77684,1,0,0:0:0:0:
448,192,77684,1,0,0:0:0:0:
64,192,77767,1,0,0:0:0:0:
192,192,77850,1,0,0:0:0:0:
320,192,77850,1,0,0:0:0:0:
448,192,77934,1,0,0:0:0:0:
64,192,78017,1,0,0:0:0:0:
192,192,78017,1,0,0:0:0:0:
320,192,78100,1,0,0:0:0:0:
64,192,78184,1,0,0:0:0:0:
448,192,78184,1,0,0:0:0:0:
192,192,78267,1,0,0:0:0:0:
320,192,78267,1,0,0:0:0:0:
64,192,78350,1,0,0:0:0:0:
448,192,78350,1,0,0:0:0:0:
192,192,78434,1,0,0:0:0:0:
320,192,78434,1,0,0:0:0:0:
64,192,78517,1,0,0:0:0:0:
448,192,78517,1,0,0:0:0:0:
192,192,78600,1,0,0:0:0:0:
320,192,78684,1,0,0:0:0:0:
64,192,78767,1,0,0:0:0:0:
448,192,78767,1,0,0:0:0:0:
192,192,78850,1,0,0:0:0:0:
320,192,78850,1,0,0:0:0:0:
64,192,78934,1,0,0:0:0:0:
320,192,79017,1,0,0:0:0:0:
448,192,79017,1,0,0:0:0:0:
192,192,79100,1,0,0:0:0:0:
64,192,79184,1,0,0:0:0:0:
320,192,79184,1,0,0:0:0:0:
192,192,79267,1,0,0:0:0:0:
320,192,79350,1,0,0:0:0:0:
64,192,79434,1,0,0:0:0:0:
448,192,79434,1,0,0:0:0:0:
192,192,79517,1,0,0:0:0:0:
320,192,79517,1,0,0:0:0:0:
448,192,79600,1,0,0:0:0:0:
64,192,79684,1,0,0:0:0:0:
192,192,79684,1,0,0:0:0:0:
448,192,79767,1,0,0:0:0:0:
192,192,79850,1,0,0:0:0:0:
320,192,79850,1,0,0:0:0:0:
64,192,79934,1,0,0:0:0:0:
448,192,80017,1,0,0:0:0:0:
192,192,80100,1,0,0:0:0:0:
320,192,80100,1,0,0:0:0:0:
64,192,80184,1,0,0:0:0:0:
448,192,80184,1,0,0:0:0:0:
192,192,80267,1,0,0:0:0:0:
320,192,80350,1,0,0:0:0:0:
448,192,80350,1,0,0:0:0:0:
64,192,80434,1,0,0:0:0:0:
192,192,80517,1,0,0:0:0:0:
320,192,80517,1,0,0:0:0:0:
448,192,80600,1,0,0:0:0:0:
320,192,80684,1,0,0:0:0:0:
64,192,80767,1,0,0:0:0:0:
192,192,80767,1,0,0:0:0:0:
320,192,80850,1,0,0:0:0:0:
448,192,80850,1,0,0:0:0:0:
64,192,80934,1,0,0:0:0:0:
320,192,81017,1,0,0:0:0:0:
448,192,81017,1,0,0:0:0:0:
192,192,81100,1,0,0:0:0:0:
64,192,81184,1,0,0:0:0:0:
448,192,81184,1,0,0:0:0:0:
320,192,81267,1,0,0:0:0:0:
192,192,81350,1,0,0:0:0:0:
64,192,81434,1,0,0:0:0:0:
448,192,81434,1,0,0:0:0:0:
192,192,81517,1,0,0:0:0:0:
320,192,81517,1,0,0:0:0:0:
448,192,81600,1,0,0:0:0:0:
64,192,81684,1,0,0:0:0:0:
192,192,81684,1,0,0:0:0:0:
320,192,81767,1,0,0:0:0:0:
64,192,81850,1,0,0:0:0:0:
192,192,81850,1,0,0:0:0:0:
448,192,81850,1,0,0:0:0:0:
320,192,81934,1,0,0:0:0:0:
64,192,82017,1,0,0:0:0:0:
192,192,82100,1,0,0:0:0:0:
320,192,82100,1,0,0:0:0:0:
64,192,82184,1,0,0:0:0:0:
448,192,82184,1,0,0:0:0:0:
192,192,82267,1,0,0:0:0:0:
320,192,82350,1,0,0:0:0:0:
448,192,82350,1,0,0:0:0:0:
64,192,82434,1,0,0:0:0:0:
320,192,82517,1,0,0:0:0:0:
448,192,82517,1,0,0:0:0:0:
192,192,82600,1,0,0:0:0:0:
64,192,82684,1,0,0:0:0:0:
192,192,82767,1,0,0:0:0:0:
320,192,82767,1,0,0:0:0:0:
64,192,82851,1,0,0:0:0:0:
448,192,82851,1,0,0:0:0:0:
320,192,82934,1,0,0:0:0:0:
64,192,83017,1,0,0:0:0:0:
192,192,83017,1,0,0:0:0:0:
320,192,83101,1,0,0:0:0:0:
64,192,83184,1,0,0:0:0:0:
192,192,83184,1,0,0:0:0:0:
448,192,83184,1,0,0:0:0:0:
320,192,83267,1,0,0:0:0:0:
64,192,83351,1,0,0:0:0:0:
448,192,83351,1,0,0:0:0:0:
192,192,83434,1,0,0:0:0:0:
64,192,83517,1,0,0:0:0:0:
320,192,83517,1,0,0:0:0:0:
192,192,83601,1,0,0:0:0:0:
448,192,83601,1,0,0:0:0:0:
64,192,83684,1,0,0:0:0:0:
320,192,83684,1,0,0:0:0:0:
192,192,83767,1,0,0:0:0:0:
448,192,83767,1,0,0:0:0:0:
64,192,83851,1,0,0:0:0:0:
320,192,83851,1,0,0:0:0:0:
448,192,83934,1,0,0:0:0:0:
192,192,84017,1,0,0:0:0:0:
64,192,84101,1,0,0:0:0:0:
320,192,84101,1,0,0:0:0:0:
192,192,84184,1,0,0:0:0:0:
448,192,84184,1,0,0:0:0:0:
64,192,84267,1,0,0:0:0:0:
320,192,84351,1,0,0:0:0:0:
448,192,84351,1,0,0:0:0:0:
64,192,84434,1,0,0:0:0:0:
192,192,84517,1,0,0:0:0:0:
320,192,84517,1,0,0:0:0:0:
448,192,84517,1,0,0:0:0:0:
64,192,84601,1,0,0:0:0:0:
320,192,84684,1,0,0:0:0:0:
448,192,84684,1,0,0:0:0:0:
64,192,84767,1,0,0:0:0:0:
192,192,84767,1,0,0:0:0:0:
320,192,84851,1,0,0:0:0:0:
448,192,84851,1,0,0:0:0:0:
64,192,84934,1,0,0:0:0:0:
192,192,85017,1,0,0:0:0:0:
320,192,85017,1,0,0:0:0:0:
448,192,85101,1,0,0:0:0:0:
64,192,85184,1,0,0:0:0:0:
192,192,85184,1,0,0:0:0:0:
320,192,85267,1,0,0:0:0:0:
448,192,85267,1,0,0:0:0:0:
64,192,85351,1,0,0:0:0:0:
192,192,85351,1,0,0:0:0:0:
320,192,85434,1,0,0:0:0:0:
448,192,85434,1,0,0:0:0:0:
64,192,85517,1,0,0:0:0:0:
192,192,85517,1,0,0:0:0:0:
320,192,85601,1,0,0:0:0:0:
448,192,85601,1,0,0:0:0:0:
64,192,85684,1,0,0:0:0:0:
192,192,85684,1,0,0:0:0:0:
320,192,85767,1,0,0:0:0:0:
448,192,85767,1,0,0:0:0:0:
64,192,85851,1,0,0:0:0:0:
192,192,85851,1,0,0:0:0:0:
320,0,86017,128,0,86101:1:0:0:0:
192,0,86184,128,0,86267:1:0:0:0:
448,192,86351,1,0,0:0:0:0:
192,0,86517,128,0,86684:1:0:0:0:
320,192,86767,1,0,0:0:0:0:
448,0,86851,128,0,87017:1:0:0:0:
320,192,86934,1,0,0:0:0:0:
192,0,87017,128,0,87059:1:0:0:0:
64,0,87101,128,0,87142:1:0:0:0:
192,192,87184,1,0,0:0:0:0:
320,192,87184,1,0,0:0:0:0:
448,192,87184,1,0,0:0:0:0:
64,192,87267,1,0,0:0:0:0:
448,192,87351,1,0,0:0:0:0:
192,192,87434,1,0,0:0:0:0:
320,192,87434,1,0,0:0:0:0:
64,192,87517,1,0,0:0:0:0:
448,192,87517,1,0,0:0:0:0:
192,192,87601,1,0,0:0:0:0:
320,192,87684,1,0,0:0:0:0:
448,192,87684,1,0,0:0:0:0:
192,192,87767,1,0,0:0:0:0:
64,192,87851,1,0,0:0:0:0:
448,192,87851,1,0,0:0:0:0:
320,192,87934,1,0,0:0:0:0:
64,192,88017,1,0,0:0:0:0:
192,192,88101,1,0,0:0:0:0:
320,192,88101,1,0,0:0:0:0:
64,192,88184,1,0,0:0:0:0:
448,192,88184,1,0,0:0:0:0:
192,192,88267,1,0,0:0:0:0:
320,192,88267,1,0,0:0:0:0:
64,192,88351,1,0,0:0:0:0:
448,192,88351,1,0,0:0:0:0:
192,192,88434,1,0,0:0:0:0:
320,192,88434,1,0,0:0:0:0:
64,192,88517,1,0,0:0:0:0:
448,192,88517,1,0,0:0:0:0:
192,192,88601,1,0,0:0:0:0:
320,192,88684,1,0,0:0:0:0:
448,192,88684,1,0,0:0:0:0:
64,192,88767,1,0,0:0:0:0:
320,192,88851,1,0,0:0:0:0:
448,192,88851,1,0,0:0:0:0:
64,192,88934,1,0,0:0:0:0:
192,192,88934,1,0,0:0:0:0:
320,192,89017,1,0,0:0:0:0:
448,192,89017,1,0,0:0:0:0:
64,192,89101,1,0,0:0:0:0:
192,192,89101,1,0,0:0:0:0:
320,192,89184,1,0,0:0:0:0:
448,192,89184,1,0,0:0:0:0:
64,192,89267,1,0,0:0:0:0:
192,192,89351,1,0,0:0:0:0:
320,192,89434,1,0,0:0:0:0:
448,192,89434,1,0,0:0:0:0:
64,192,89517,1,0,0:0:0:0:
192,192,89517,1,0,0:0:0:0:
448,192,89601,1,0,0:0:0:0:
64,192,89684,1,0,0:0:0:0:
320,192,89684,1,0,0:0:0:0:
192,192,89767,1,0,0:0:0:0:
320,192,89851,1,0,0:0:0:0:
448,192,89851,1,0,0:0:0:0:
64,192,89934,1,0,0:0:0:0:
192,192,90017,1,0,0:0:0:0:
320,192,90101,1,0,0:0:0:0:
448,192,90101,1,0,0:0:0:0:
64,192,90184,1,0,0:0:0:0:
192,192,90184,1,0,0:0:0:0:
448,192,90267,1,0,0:0:0:0:
64,192,90351,1,0,0:0:0:0:
320,192,90351,1,0,0:0:0:0:
192,192,90434,1,0,0:0:0:0:
64,192,90517,1,0,0:0:0:0:
448,192,90517,1,0,0:0:0:0:
320,192,90601,1,0,0:0:0:0:
64,192,90684,1,0,0:0:0:0:
192,192,90767,1,0,0:0:0:0:
448,192,90767,1,0,0:0:0:0:
64,192,90851,1,0,0:0:0:0:
320,192,90851,1,0,0:0:0:0:
192,192,90934,1,0,0:0:0:0:
448,192,90934,1,0,0:0:0:0:
64,192,91017,1,0,0:0:0:0:
320,192,91017,1,0,0:0:0:0:
448,192,91101,1,0,0:0:0:0:
64,192,91184,1,0,0:0:0:0:
192,192,91184,1,0,0:0:0:0:
448,192,91267,1,0,0:0:0:0:
64,192,91351,1,0,0:0:0:0:
192,192,91351,1,0,0:0:0:0:
320,192,91434,1,0,0:0:0:0:
192,192,91517,1,0,0:0:0:0:
448,192,91517,1,0,0:0:0:0:
64,192,91601,1,0,0:0:0:0:
320,192,91684,1,0,0:0:0:0:
448,192,91684,1,0,0:0:0:0:
192,192,91767,1,0,0:0:0:0:
64,192,91851,1,0,0:0:0:0:
448,192,91851,1,0,0:0:0:0:
320,192,91934,1,0,0:0:0:0:
192,192,92017,1,0,0:0:0:0:
64,192,92101,1,0,0:0:0:0:
448,192,92101,1,0,0:0:0:0:
192,192,92184,1,0,0:0:0:0:
320,192,92184,1,0,0:0:0:0:
64,192,92267,1,0,0:0:0:0:
448,192,92267,1,0,0:0:0:0:
320,192,92351,1,0,0:0:0:0:
192,0,92351,128,0,92434:1:0:0:0:
64,0,92434,128,0,92517:1:0:0:0:
192,192,92517,1,0,0:0:0:0:
320,192,92517,1,0,0:0:0:0:
448,192,92517,1,0,0:0:0:0:
64,192,92601,1,0,0:0:0:0:
448,192,92684,1,0,0:0:0:0:
192,192,92767,1,0,0:0:0:0:
320,192,92767,1,0,0:0:0:0:
64,192,92851,1,0,0:0:0:0:
448,192,92851,1,0,0:0:0:0:
192,192,92934,1,0,0:0:0:0:
320,192,93017,1,0,0:0:0:0:
448,192,93017,1,0,0:0:0:0:
64,192,93101,1,0,0:0:0:0:
320,192,93184,1,0,0:0:0:0:
448,192,93184,1,0,0:0:0:0:
64,192,93267,1,0,0:0:0:0:
192,192,93351,1,0,0:0:0:0:
320,192,93434,1,0,0:0:0:0:
448,192,93434,1,0,0:0:0:0:
64,192,93517,1,0,0:0:0:0:
192,192,93517,1,0,0:0:0:0:
320,192,93601,1,0,0:0:0:0:
448,192,93601,1,0,0:0:0:0:
64,192,93684,1,0,0:0:0:0:
192,192,93684,1,0,0:0:0:0:
320,192,93767,1,0,0:0:0:0:
448,192,93767,1,0,0:0:0:0:
64,192,93851,1,0,0:0:0:0:
192,192,93851,1,0,0:0:0:0:
448,192,93934,1,0,0:0:0:0:
192,192,94017,1,0,0:0:0:0:
320,192,94017,1,0,0:0:0:0:
64,192,94101,1,0,0:0:0:0:
320,192,94184,1,0,0:0:0:0:
448,192,94184,1,0,0:0:0:0:
64,192,94267,1,0,0:0:0:0:
192,192,94267,1,0,0:0:0:0:
320,192,94351,1,0,0:0:0:0:
448,192,94351,1,0,0:0:0:0:
64,192,94434,1,0,0:0:0:0:
192,192,94434,1,0,0:0:0:0:
320,192,94517,1,0,0:0:0:0:
448,192,94517,1,0,0:0:0:0:
64,192,94601,1,0,0:0:0:0:
192,192,94684,1,0,0:0:0:0:
320,192,94767,1,0,0:0:0:0:
448,192,94767,1,0,0:0:0:0:
64,192,94851,1,0,0:0:0:0:
192,192,94851,1,0,0:0:0:0:
320,192,94934,1,0,0:0:0:0:
64,192,95017,1,0,0:0:0:0:
448,192,95017,1,0,0:0:0:0:
192,192,95101,1,0,0:0:0:0:
320,192,95184,1,0,0:0:0:0:
448,192,95184,1,0,0:0:0:0:
64,192,95267,1,0,0:0:0:0:
192,192,95351,1,0,0:0:0:0:
64,192,95434,1,0,0:0:0:0:
320,192,95434,1,0,0:0:0:0:
192,192,95517,1,0,0:0:0:0:
448,192,95517,1,0,0:0:0:0:
320,192,95601,1,0,0:0:0:0:
64,192,95684,1,0,0:0:0:0:
448,192,95684,1,0,0:0:0:0:
192,192,95767,1,0,0:0:0:0:
320,192,95851,1,0,0:0:0:0:
448,192,95851,1,0,0:0:0:0:
192,192,95934,1,0,0:0:0:0:
64,192,96017,1,0,0:0:0:0:
320,192,96101,1,0,0:0:0:0:
448,192,96101,1,0,0:0:0:0:
64,192,96184,1,0,0:0:0:0:
192,192,96184,1,0,0:0:0:0:
320,192,96267,1,0,0:0:0:0:
64,192,96351,1,0,0:0:0:0:
448,192,96351,1,0,0:0:0:0:
192,192,96434,1,0,0:0:0:0:
64,192,96517,1,0,0:0:0:0:
320,192,96517,1,0,0:0:0:0:
448,192,96517,1,0,0:0:0:0:
192,192,96601,1,0,0:0:0:0:
320,192,96684,1,0,0:0:0:0:
448,192,96684,1,0,0:0:0:0:
64,192,96768,1,0,0:0:0:0:
192,192,96851,1,0,0:0:0:0:
320,192,96851,1,0,0:0:0:0:
448,192,96934,1,0,0:0:0:0:
64,192,97018,1,0,0:0:0:0:
320,192,97018,1,0,0:0:0:0:
192,192,97101,1,0,0:0:0:0:
64,192,97184,1,0,0:0:0:0:
320,192,97184,1,0,0:0:0:0:
448,192,97184,1,0,0:0:0:0:
192,192,97268,1,0,0:0:0:0:
320,192,97351,1,0,0:0:0:0:
192,192,97434,1,0,0:0:0:0:
64,192,97518,1,0,0:0:0:0:
448,0,97601,128,0,97622:1:0:0:0:
320,0,97684,128,0,97705:1:0:0:0:
192,0,97768,128,0,97788:1:0:0:0:
64,0,97851,128,0,98018:1:0:0:0:
320,192,98101,1,0,0:0:0:0:
64,192,98184,1,0,0:0:0:0:
192,192,98184,1,0,0:0:0:0:
448,192,98184,1,0,0:0:0:0:
320,192,98268,1,0,0:0:0:0:
64,192,98351,1,0,0:0:0:0:
448,192,98351,1,0,0:0:0:0:
192,192,98434,1,0,0:0:0:0:
320,192,98518,1,0,0:0:0:0:
448,192,98518,1,0,0:0:0:0:
64,192,98601,1,0,0:0:0:0:
192,192,98684,1,0,0:0:0:0:
320,192,98768,1,0,0:0:0:0:
448,192,98768,1,0,0:0:0:0:
64,192,98851,1,0,0:0:0:0:
192,192,98851,1,0,0:0:0:0:
320,192,98934,1,0,0:0:0:0:
448,192,98934,1,0,0:0:0:0:
64,192,99018,1,0,0:0:0:0:
192,192,99018,1,0,0:0:0:0:
320,192,99101,1,0,0:0:0:0:
448,192,99101,1,0,0:0:0:0:
64,192,99184,1,0,0:0:0:0:
192,192,99184,1,0,0:0:0:0:
448,192,99268,1,0,0:0:0:0:
64,192,99351,1,0,0:0:0:0:
320,192,99351,1,0,0:0:0:0:
192,192,99434,1,0,0:0:0:0:
448,192,99434,1,0,0:0:0:0:
64,192,99518,1,0,0:0:0:0:
320,192,99518,1,0,0:0:0:0:
192,192,99601,1,0,0:0:0:0:
448,192,99601,1,0,0:0:0:0:
64,192,99684,1,0,0:0:0:0:
320,192,99684,1,0,0:0:0:0:
192,192,99768,1,0,0:0:0:0:
448,192,99768,1,0,0:0:0:0:
64,192,99851,1,0,0:0:0:0:
320,192,99851,1,0,0:0:0:0:
448,192,99934,1,0,0:0:0:0:
192,192,100018,1,0,0:0:0:0:
64,192,100101,1,0,0:0:0:0:
448,192,100101,1,0,0:0:0:0:
192,192,100184,1,0,0:0:0:0:
320,192,100184,1,0,0:0:0:0:
448,192,100268,1,0,0:0:0:0:
64,192,100351,1,0,0:0:0:0:
192,192,100351,1,0,0:0:0:0:
320,192,100434,1,0,0:0:0:0:
64,192,100518,1,0,0:0:0:0:
192,192,100518,1,0,0:0:0:0:
448,192,100518,1,0,0:0:0:0:
320,192,100601,1,0,0:0:0:0:
448,192,100684,1,0,0:0:0:0:
64,192,100768,1,0,0:0:0:0:
192,192,100768,1,0,0:0:0:0:
320,192,100851,1,0,0:0:0:0:
448,192,100851,1,0,0:0:0:0:
192,192,100934,1,0,0:0:0:0:
64,192,101018,1,0,0:0:0:0:
448,192,101018,1,0,0:0:0:0:
320,192,101101,1,0,0:0:0:0:
64,192,101184,1,0,0:0:0:0:
192,192,101184,1,0,0:0:0:0:
448,192,101268,1,0,0:0:0:0:
320,192,101351,1,0,0:0:0:0:
64,192,101434,1,0,0:0:0:0:
192,192,101434,1,0,0:0:0:0:
320,192,101518,1,0,0:0:0:0:
448,192,101518,1,0,0:0:0:0:
64,192,101601,1,0,0:0:0:0:
192,192,101601,1,0,0:0:0:0:
320,192,101684,1,0,0:0:0:0:
448,192,101684,1,0,0:0:0:0:
64,192,101768,1,0,0:0:0:0:
192,192,101768,1,0,0:0:0:0:
320,192,101851,1,0,0:0:0:0:
448,192,101851,1,0,0:0:0:0:
64,192,101934,1,0,0:0:0:0:
192,192,102018,1,0,0:0:0:0:
320,192,102018,1,0,0:0:0:0:
448,192,102101,1,0,0:0:0:0:
192,192,102184,1,0,0:0:0:0:
320,192,102184,1,0,0:0:0:0:
64,192,102268,1,0,0:0:0:0:
320,192,102351,1,0,0:0:0:0:
448,192,102351,1,0,0:0:0:0:
192,192,102434,1,0,0:0:0:0:
64,192,102518,1,0,0:0:0:0:
448,192,102518,1,0,0:0:0:0:
320,192,102601,1,0,0:0:0:0:
192,192,102684,1,0,0:0:0:0:
64,192,102768,1,0,0:0:0:0:
448,192,102768,1,0,0:0:0:0:
192,192,102851,1,0,0:0:0:0:
320,192,102851,1,0,0:0:0:0:
64,192,102934,1,0,0:0:0:0:
448,192,102934,1,0,0:0:0:0:
192,192,103018,1,0,0:0:0:0:
320,192,103018,1,0,0:0:0:0:
448,192,103101,1,0,0:0:0:0:
64,192,103184,1,0,0:0:0:0:
192,192,103184,1,0,0:0:0:0:
320,192,103184,1,0,0:0:0:0:
448,192,103268,1,0,0:0:0:0:
64,192,103351,1,0,0:0:0:0:
192,192,103434,1,0,0:0:0:0:
320,192,103434,1,0,0:0:0:0:
448,192,103518,1,0,0:0:0:0:
64,192,103601,1,0,0:0:0:0:
320,192,103684,1,0,0:0:0:0:
448,192,103684,1,0,0:0:0:0:
192,192,103768,1,0,0:0:0:0:
64,192,103851,1,0,0:0:0:0:
320,192,103851,1,0,0:0:0:0:
448,192,103851,1,0,0:0:0:0:
192,192,103934,1,0,0:0:0:0:
448,192,104018,1,0,0:0:0:0:
64,192,104101,1,0,0:0:0:0:
320,192,104185,1,0,0:0:0:0:
448,192,104185,1,0,0:0:0:0:
64,192,104268,1,0,0:0:0:0:
192,192,104268,1,0,0:0:0:0:
320,192,104351,1,0,0:0:0:0:
448,192,104351,1,0,0:0:0:0:
64,192,104435,1,0,0:0:0:0:
192,192,104435,1,0,0:0:0:0:
320,192,104518,1,0,0:0:0:0:
448,192,104518,1,0,0:0:0:0:
192,192,104601,1,0,0:0:0:0:
64,192,104685,1,0,0:0:0:0:
448,192,104685,1,0,0:0:0:0:
320,192,104768,1,0,0:0:0:0:
64,192,104851,1,0,0:0:0:0:
192,192,104851,1,0,0:0:0:0:
320,192,104935,1,0,0:0:0:0:
448,192,104935,1,0,0:0:0:0:
64,192,105018,1,0,0:0:0:0:
192,192,105018,1,0,0:0:0:0:
320,192,105101,1,0,0:0:0:0:
448,192,105101,1,0,0:0:0:0:
64,192,105185,1,0,0:0:0:0:
192,192,105185,1,0,0:0:0:0:
320,192,105268,1,0,0:0:0:0:
64,192,105351,1,0,0:0:0:0:
448,192,105351,1,0,0:0:0:0:
192,192,105435,1,0,0:0:0:0:
320,192,105435,1,0,0:0:0:0:
64,192,105518,1,0,0:0:0:0:
448,192,105518,1,0,0:0:0:0:
320,192,105601,1,0,0:0:0:0:
64,192,105685,1,0,0:0:0:0:
192,192,105685,1,0,0:0:0:0:
320,192,105768,1,0,0:0:0:0:
64,192,105851,1,0,0:0:0:0:
192,192,105851,1,0,0:0:0:0:
448,192,105851,1,0,0:0:0:0:
320,192,105935,1,0,0:0:0:0:
192,192,106018,1,0,0:0:0:0:
64,192,106101,1,0,0:0:0:0:
448,192,106101,1,0,0:0:0:0:
320,192,106185,1,0,0:0:0:0:
448,192,106268,1,0,0:0:0:0:
64,192,106351,1,0,0:0:0:0:
192,192,106351,1,0,0:0:0:0:
320,192,106435,1,0,0:0:0:0:
64,192,106518,1,0,0:0:0:0:
448,192,106518,1,0,0:0:0:0:
192,192,106601,1,0,0:0:0:0:
320,192,106685,1,0,0:0:0:0:
448,192,106685,1,0,0:0:0:0:
64,192,106768,1,0,0:0:0:0:
320,192,106851,1,0,0:0:0:0:
448,192,106851,1,0,0:0:0:0:
64,192,106935,1,0,0:0:0:0:
192,192,106935,1,0,0:0:0:0:
320,192,107018,1,0,0:0:0:0:
448,192,107018,1,0,0:0:0:0:
64,192,107101,1,0,0:0:0:0:
192,192,107101,1,0,0:0:0:0:
448,192,107185,1,0,0:0:0:0:
320,0,107185,128,0,107268:1:0:0:0:
192,0,107351,128,0,107435:1:0:0:0:
64,192,107518,1,0,0:0:0:0:
192,192,107518,1,0,0:0:0:0:
448,0,107518,128,0,107601:1:0:0:0:
320,192,107685,1,0,0:0:0:0:
320,192,107851,1,0,0:0:0:0:
448,192,107851,1,0,0:0:0:0:
64,0,107851,128,0,107935:1:0:0:0:
192,0,107935,128,0,108018:1:0:0:0:
320,0,108018,128,0,108101:1:0:0:0:
448,0,108101,128,0,108185:1:0:0:0:
64,0,108185,128,0,108268:1:0:0:0:
192,0,108268,128,0,108351:1:0:0:0:
320,0,108351,128,0,108435:1:0:0:0:
448,0,108435,128,0,108518:1:0:0:0:
64,192,108518,1,0,0:0:0:0:
192,192,108518,1,0,0:0:0:0:
320,192,108518,1,0,0:0:0:0:
448,192,108601,1,0,0:0:0:0:
192,192,108685,1,0,0:0:0:0:
320,192,108768,1,0,0:0:0:0:
448,192,108851,1,0,0:0:0:0:
320,192,108935,1,0,0:0:0:0:
64,192,109018,1,0,0:0:0:0:
320,192,109101,1,0,0:0:0:0:
192,192,109185,1,0,0:0:0:0:
64,192,109268,1,0,0:0:0:0:
192,192,109351,1,0,0:0:0:0:
320,192,109435,1,0,0:0:0:0:
448,192,109518,1,0,0:0:0:0:
320,192,109601,1,0,0:0:0:0:
64,192,109685,1,0,0:0:0:0:
320,192,109768,1,0,0:0:0:0:
192,192,109851,1,0,0:0:0:0:
64,192,109935,1,0,0:0:0:0:
320,192,110018,1,0,0:0:0:0:
192,192,110101,1,0,0:0:0:0:
448,192,110185,1,0,0:0:0:0:
320,192,110268,1,0,0:0:0:0:
64,192,110351,1,0,0:0:0:0:
320,192,110435,1,0,0:0:0:0:
192,192,110518,1,0,0:0:0:0:
64,192,110601,1,0,0:0:0:0:
192,192,110685,1,0,0:0:0:0:
320,192,110768,1,0,0:0:0:0:
448,192,110851,1,0,0:0:0:0:
320,192,110935,1,0,0:0:0:0:
64,192,111018,1,0,0:0:0:0:
320,192,111101,1,0,0:0:0:0:
192,192,111185,1,0,0:0:0:0:
64,192,111268,1,0,0:0:0:0:
320,192,111351,1,0,0:0:0:0:
192,192,111435,1,0,0:0:0:0:
448,192,111518,1,0,0:0:0:0:
320,192,111601,1,0,0:0:0:0:
64,192,111685,1,0,0:0:0:0:
320,192,111768,1,0,0:0:0:0:
192,192,111851,1,0,0:0:0:0:
64,192,111935,1,0,0:0:0:0:
320,192,112018,1,0,0:0:0:0:
192,192,112101,1,0,0:0:0:0:
448,192,112185,1,0,0:0:0:0:
320,192,112268,1,0,0:0:0:0:
192,192,112351,1,0,0:0:0:0:
320,192,112435,1,0,0:0:0:0:
192,192,112518,1,0,0:0:0:0:
64,192,112601,1,0,0:0:0:0:
320,192,112685,1,0,0:0:0:0:
192,192,112768,1,0,0:0:0:0:
448,192,112851,1,0,0:0:0:0:
320,192,112935,1,0,0:0:0:0:
64,192,113018,1,0,0:0:0:0:
320,192,113101,1,0,0:0:0:0:
192,192,113185,1,0,0:0:0:0:
64,192,113268,1,0,0:0:0:0:
448,192,113351,1,0,0:0:0:0:
192,192,113435,1,0,0:0:0:0:
448,192,113518,1,0,0:0:0:0:
320,192,113601,1,0,0:0:0:0:
192,192,113685,1,0,0:0:0:0:
64,192,113768,1,0,0:0:0:0:
192,192,113851,1,0,0:0:0:0:
320,192,113851,1,0,0:0:0:0:
448,192,113851,1,0,0:0:0:0:
64,192,113935,1,0,0:0:0:0:
320,192,114018,1,0,0:0:0:0:
192,192,114101,1,0,0:0:0:0:
448,192,114185,1,0,0:0:0:0:
320,192,114268,1,0,0:0:0:0:
64,192,114351,1,0,0:0:0:0:
320,192,114435,1,0,0:0:0:0:
192,192,114518,1,0,0:0:0:0:
64,192,114601,1,0,0:0:0:0:
192,192,114685,1,0,0:0:0:0:
320,192,114768,1,0,0:0:0:0:
448,192,114852,1,0,0:0:0:0:
320,192,114935,1,0,0:0:0:0:
64,192,115018,1,0,0:0:0:0:
320,192,115102,1,0,0:0:0:0:
192,192,115185,1,0,0:0:0:0:
64,192,115268,1,0,0:0:0:0:
320,192,115352,1,0,0:0:0:0:
192,192,115435,1,0,0:0:0:0:
448,192,115518,1,0,0:0:0:0:
320,192,115602,1,0,0:0:0:0:
64,192,115685,1,0,0:0:0:0:
320,192,115768,1,0,0:0:0:0:
192,192,115852,1,0,0:0:0:0:
64,192,115935,1,0,0:0:0:0:
192,192,116018,1,0,0:0:0:0:
320,192,116102,1,0,0:0:0:0:
448,192,116185,1,0,0:0:0:0:
320,192,116268,1,0,0:0:0:0:
192,192,116352,1,0,0:0:0:0:
320,192,116435,1,0,0:0:0:0:
192,192,116518,1,0,0:0:0:0:
64,192,116602,1,0,0:0:0:0:
192,192,116685,1,0,0:0:0:0:
320,192,116768,1,0,0:0:0:0:
448,192,116852,1,0,0:0:0:0:
320,192,116935,1,0,0:0:0:0:
64,192,117018,1,0,0:0:0:0:
320,192,117102,1,0,0:0:0:0:
192,192,117185,1,0,0:0:0:0:
64,192,117268,1,0,0:0:0:0:
192,192,117352,1,0,0:0:0:0:
320,192,117435,1,0,0:0:0:0:
448,192,117518,1,0,0:0:0:0:
320,192,117602,1,0,0:0:0:0:
64,192,117685,1,0,0:0:0:0:
320,192,117768,1,0,0:0:0:0:
64,192,117852,1,0,0:0:0:0:
192,192,117852,1,0,0:0:0:0:
448,192,117852,1,0,0:0:0:0:
448,192,118018,1,0,0:0:0:0:
320,192,118185,1,0,0:0:0:0:
192,192,118352,1,0,0:0:0:0:
64,0,118518,128,0,118602:1:0:0:0:
320,0,118602,128,0,118685:1:0:0:0:
192,0,118685,128,0,118768:1:0:0:0:
448,0,118768,128,0,118852:1:0:0:0:
64,0,118852,128,0,118935:1:0:0:0:
192,0,118935,128,0,119018:1:0:0:0:
320,0,119018,128,0,119102:1:0:0:0:
448,0,119102,128,0,119185:1:0:0:0:
