osu file format v13

[General]
AudioFilename: BLACK or WHITE.ogg
AudioLeadIn: 2
PreviewTime: 52129
Countdown: 0
SampleSet: Normal
StackLeniency: 0.7
Mode: 3
LetterboxInBreaks: 0
SpecialStyle: 0
WidescreenStoryboard: 0

[Editor]
DistanceSpacing: 0.8
BeatDivisor: 8
GridSize: 8
TimelineZoom: 1

[Metadata]
Title:Yolomania Vol. 3A
TitleUnicode:Yolomania Vol. 3A
Artist:Various
ArtistUnicode:Various
Creator:Fullerene-
Version:BlackYooh vs. siromaru - BLACK or WHITE? [7_VI] 14
Source:
Tags:Stepmania yolo3 volume
BeatmapID:560740
BeatmapSetID:243027

[Difficulty]
HPDrainRate:8
CircleSize:4
OverallDifficulty:5
ApproachRate:10
SliderMultiplier:1.4
SliderTickRate:1

[Events]
//Background and Video events
0,0,"black or white.jpg",0,0
//Break Periods
//Storyboard Layer 0 (Background)
//Storyboard Layer 1 (Fail)
//Storyboard Layer 2 (Pass)
//Storyboard Layer 3 (Foreground)
//Storyboard Sound Samples

[TimingPoints]
562,324.3243,4,1,0,15,1,0

[HitObjects]
64,192,562,5,0,0:0:0:0:
320,0,562,128,0,602:1:0:0:0:
448,0,562,128,0,602:1:0:0:0:
192,192,643,1,0,0:0:0:0:
320,192,724,1,0,0:0:0:0:
448,192,805,1,0,0:0:0:0:
64,192,886,1,0,0:0:0:0:
320,192,886,1,0,0:0:0:0:
192,192,968,1,0,0:0:0:0:
64,192,1049,1,0,0:0:0:0:
192,192,1130,1,0,0:0:0:0:
320,192,1211,1,0,0:0:0:0:
448,192,1211,1,0,0:0:0:0:
192,192,1292,1,0,0:0:0:0:
64,192,1373,1,0,0:0:0:0:
192,192,1454,1,0,0:0:0:0:
64,192,1535,1,0,0:0:0:0:
448,192,1535,1,0,0:0:0:0:
320,192,1616,1,0,0:0:0:0:
192,192,1697,1,0,0:0:0:0:
64,192,1778,1,0,0:0:0:0:
320,192,1859,1,0,0:0:0:0:
448,192,1859,1,0,0:0:0:0:
192,192,1941,1,0,0:0:0:0:
320,192,2022,1,0,0:0:0:0:
448,192,2103,1,0,0:0:0:0:
64,192,2184,1,0,0:0:0:0:
320,192,2184,1,0,0:0:0:0:
192,192,2265,1,0,0:0:0:0:
64,192,2346,1,0,0:0:0:0:
192,192,2427,1,0,0:0:0:0:
320,192,2508,1,0,0:0:0:0:
448,192,2508,1,0,0:0:0:0:
192,192,2589,1,0,0:0:0:0:
64,192,2670,1,0,0:0:0:0:
192,192,2751,1,0,0:0:0:0:
64,192,2832,1,0,0:0:0:0:
448,192,2832,1,0,0:0:0:0:
320,192,2913,1,0,0:0:0:0:
192,192,2995,1,0,0:0:0:0:
64,192,3076,1,0,0:0:0:0:
448,0,3156,128,0,3197:1:0:0:0:
192,192,3156,1,0,0:0:0:0:
320,192,3156,1,0,0:0:0:0:
64,192,3238,1,0,0:0:0:0:
320,192,3319,1,0,0:0:0:0:
448,192,3400,1,0,0:0:0:0:
64,192,3481,1,0,0:0:0:0:
320,192,3481,1,0,0:0:0:0:
192,192,3562,1,0,0:0:0:0:
64,192,3643,1,0,0:0:0:0:
192,192,3724,1,0,0:0:0:0:
320,192,3805,1,0,0:0:0:0:
448,192,3805,1,0,0:0:0:0:
192,192,3886,1,0,0:0:0:0:
64,192,3968,1,0,0:0:0:0:
192,192,4049,1,0,0:0:0:0:
64,192,4130,1,0,0:0:0:0:
448,192,4130,1,0,0:0:0:0:
320,192,4211,1,0,0:0:0:0:
192,192,4292,1,0,0:0:0:0:
448,192,4373,1,0,0:0:0:0:
192,192,4453,1,0,0:0:0:0:
64,0,4453,128,0,4494:1:0:0:0:
320,192,4453,1,0,0:0:0:0:
448,192,4535,1,0,0:0:0:0:
320,192,4616,1,0,0:0:0:0:
448,192,4697,1,0,0:0:0:0:
64,192,4778,1,0,0:0:0:0:
320,192,4778,1,0,0:0:0:0:
192,192,4859,1,0,0:0:0:0:
64,192,4941,1,0,0:0:0:0:
192,192,5022,1,0,0:0:0:0:
320,192,5103,1,0,0:0:0:0:
448,192,5103,1,0,0:0:0:0:
192,192,5184,1,0,0:0:0:0:
64,192,5265,1,0,0:0:0:0:
192,192,5346,1,0,0:0:0:0:
64,192,5427,1,0,0:0:0:0:
448,192,5427,1,0,0:0:0:0:
320,192,5508,1,0,0:0:0:0:
192,192,5589,1,0,0:0:0:0:
64,192,5670,1,0,0:0:0:0:
192,192,5751,1,0,0:0:0:0:
448,192,5751,1,0,0:0:0:0:
320,0,5751,128,0,5791:1:0:0:0:
64,192,5832,1,0,0:0:0:0:
320,192,5914,1,0,0:0:0:0:
448,192,5995,1,0,0:0:0:0:
192,192,6076,1,0,0:0:0:0:
320,192,6076,1,0,0:0:0:0:
64,192,6157,1,0,0:0:0:0:
192,192,6238,1,0,0:0:0:0:
64,192,6319,1,0,0:0:0:0:
320,192,6400,1,0,0:0:0:0:
448,192,6400,1,0,0:0:0:0:
64,192,6481,1,0,0:0:0:0:
192,192,6562,1,0,0:0:0:0:
64,192,6643,1,0,0:0:0:0:
192,192,6724,1,0,0:0:0:0:
448,192,6724,1,0,0:0:0:0:
320,192,6805,1,0,0:0:0:0:
64,192,6887,1,0,0:0:0:0:
192,192,6968,1,0,0:0:0:0:
320,192,7048,1,0,0:0:0:0:
448,0,7048,128,0,7089:1:0:0:0:
64,192,7048,1,0,0:0:0:0:
192,192,7130,1,0,0:0:0:0:
320,192,7211,1,0,0:0:0:0:
448,192,7292,1,0,0:0:0:0:
64,192,7373,1,0,0:0:0:0:
320,192,7373,1,0,0:0:0:0:
192,192,7454,1,0,0:0:0:0:
64,192,7535,1,0,0:0:0:0:
192,192,7616,1,0,0:0:0:0:
320,192,7697,1,0,0:0:0:0:
448,192,7697,1,0,0:0:0:0:
192,192,7778,1,0,0:0:0:0:
64,192,7859,1,0,0:0:0:0:
192,192,7941,1,0,0:0:0:0:
64,192,8022,1,0,0:0:0:0:
448,192,8022,1,0,0:0:0:0:
320,192,8103,1,0,0:0:0:0:
192,192,8184,1,0,0:0:0:0:
64,192,8265,1,0,0:0:0:0:
320,192,8346,1,0,0:0:0:0:
448,192,8346,1,0,0:0:0:0:
192,0,8346,128,0,8427:1:0:0:0:
64,192,8508,1,0,0:0:0:0:
448,192,8508,1,0,0:0:0:0:
192,0,8508,128,0,8589:1:0:0:0:
320,192,8670,1,0,0:0:0:0:
448,192,8670,1,0,0:0:0:0:
192,0,8670,128,0,8751:1:0:0:0:
64,192,8832,1,0,0:0:0:0:
448,192,8832,1,0,0:0:0:0:
192,0,8832,128,0,8914:1:0:0:0:
320,192,8995,1,0,0:0:0:0:
448,192,8995,1,0,0:0:0:0:
192,0,8995,128,0,9076:1:0:0:0:
64,192,9157,1,0,0:0:0:0:
448,192,9157,1,0,0:0:0:0:
192,0,9157,128,0,9238:1:0:0:0:
320,192,9319,1,0,0:0:0:0:
448,192,9319,1,0,0:0:0:0:
192,0,9319,128,0,9400:1:0:0:0:
64,192,9481,1,0,0:0:0:0:
448,192,9481,1,0,0:0:0:0:
192,0,9481,128,0,9562:1:0:0:0:
64,192,9968,1,0,0:0:0:0:
448,192,9968,1,0,0:0:0:0:
192,192,10049,1,0,0:0:0:0:
320,192,10049,1,0,0:0:0:0:
64,192,10130,1,0,0:0:0:0:
448,192,10130,1,0,0:0:0:0:
192,192,10211,1,0,0:0:0:0:
320,192,10211,1,0,0:0:0:0:
64,192,10292,1,0,0:0:0:0:
448,192,10292,1,0,0:0:0:0:
192,192,10373,1,0,0:0:0:0:
320,192,10373,1,0,0:0:0:0:
64,192,10454,1,0,0:0:0:0:
448,192,10454,1,0,0:0:0:0:
192,192,10535,1,0,0:0:0:0:
320,192,10535,1,0,0:0:0:0:
64,192,10616,1,0,0:0:0:0:
448,0,10616,128,0,10940:1:0:0:0:
64,192,10940,1,0,0:0:0:0:
320,0,10940,128,0,10980:1:0:0:0:
192,192,10940,1,0,0:0:0:0:
64,192,11103,1,0,0:0:0:0:
448,192,11184,1,0,0:0:0:0:
64,192,11265,1,0,0:0:0:0:
192,192,11265,1,0,0:0:0:0:
192,192,11427,1,0,0:0:0:0:
320,192,11508,1,0,0:0:0:0:
64,192,11589,1,0,0:0:0:0:
192,192,11589,1,0,0:0:0:0:
64,192,11751,1,0,0:0:0:0:
448,192,11832,1,0,0:0:0:0:
64,192,11914,1,0,0:0:0:0:
192,192,11914,1,0,0:0:0:0:
192,192,12076,1,0,0:0:0:0:
320,192,12157,1,0,0:0:0:0:
64,192,12238,1,0,0:0:0:0:
192,192,12238,1,0,0:0:0:0:
64,192,12400,1,0,0:0:0:0:
448,192,12481,1,0,0:0:0:0:
64,192,12562,1,0,0:0:0:0:
192,192,12562,1,0,0:0:0:0:
192,192,12724,1,0,0:0:0:0:
320,192,12805,1,0,0:0:0:0:
64,192,12887,1,0,0:0:0:0:
192,192,12887,1,0,0:0:0:0:
64,192,13049,1,0,0:0:0:0:
320,192,13130,1,0,0:0:0:0:
448,192,13130,1,0,0:0:0:0:
64,192,13211,1,0,0:0:0:0:
192,192,13211,1,0,0:0:0:0:
320,192,13292,1,0,0:0:0:0:
448,192,13292,1,0,0:0:0:0:
192,192,13373,1,0,0:0:0:0:
320,192,13373,1,0,0:0:0:0:
64,192,13454,1,0,0:0:0:0:
448,192,13454,1,0,0:0:0:0:
192,192,13535,1,0,0:0:0:0:
320,192,13535,1,0,0:0:0:0:
64,192,13697,1,0,0:0:0:0:
448,192,13778,1,0,0:0:0:0:
192,192,13860,1,0,0:0:0:0:
320,192,13860,1,0,0:0:0:0:
192,192,14022,1,0,0:0:0:0:
64,192,14103,1,0,0:0:0:0:
192,192,14184,1,0,0:0:0:0:
320,192,14184,1,0,0:0:0:0:
64,192,14346,1,0,0:0:0:0:
448,192,14427,1,0,0:0:0:0:
192,192,14508,1,0,0:0:0:0:
320,192,14508,1,0,0:0:0:0:
192,192,14670,1,0,0:0:0:0:
64,192,14751,1,0,0:0:0:0:
192,192,14832,1,0,0:0:0:0:
320,192,14832,1,0,0:0:0:0:
64,192,14995,1,0,0:0:0:0:
448,192,15076,1,0,0:0:0:0:
192,192,15157,1,0,0:0:0:0:
320,192,15157,1,0,0:0:0:0:
64,192,15319,1,0,0:0:0:0:
448,192,15400,1,0,0:0:0:0:
192,192,15481,1,0,0:0:0:0:
320,192,15481,1,0,0:0:0:0:
64,192,15562,1,0,0:0:0:0:
448,192,15562,1,0,0:0:0:0:
192,192,15643,1,0,0:0:0:0:
320,192,15643,1,0,0:0:0:0:
64,192,15724,1,0,0:0:0:0:
448,192,15724,1,0,0:0:0:0:
320,192,15805,1,0,0:0:0:0:
448,192,15805,1,0,0:0:0:0:
64,192,15887,1,0,0:0:0:0:
192,192,15887,1,0,0:0:0:0:
320,192,15968,1,0,0:0:0:0:
448,192,15968,1,0,0:0:0:0:
64,0,16130,128,0,16373:1:0:0:0:
64,192,16454,1,0,0:0:0:0:
192,192,16454,1,0,0:0:0:0:
192,192,16616,1,0,0:0:0:0:
320,192,16697,1,0,0:0:0:0:
64,192,16778,1,0,0:0:0:0:
192,192,16778,1,0,0:0:0:0:
64,192,16941,1,0,0:0:0:0:
448,192,17022,1,0,0:0:0:0:
64,192,17103,1,0,0:0:0:0:
192,192,17103,1,0,0:0:0:0:
192,192,17265,1,0,0:0:0:0:
320,192,17346,1,0,0:0:0:0:
64,192,17427,1,0,0:0:0:0:
192,192,17427,1,0,0:0:0:0:
64,192,17589,1,0,0:0:0:0:
448,192,17670,1,0,0:0:0:0:
64,192,17751,1,0,0:0:0:0:
192,192,17751,1,0,0:0:0:0:
192,192,17914,1,0,0:0:0:0:
320,192,17995,1,0,0:0:0:0:
64,192,18076,1,0,0:0:0:0:
192,192,18076,1,0,0:0:0:0:
64,192,18238,1,0,0:0:0:0:
320,192,18319,1,0,0:0:0:0:
448,192,18319,1,0,0:0:0:0:
64,192,18400,1,0,0:0:0:0:
192,192,18400,1,0,0:0:0:0:
320,192,18481,1,0,0:0:0:0:
448,192,18481,1,0,0:0:0:0:
192,192,18562,1,0,0:0:0:0:
320,192,18562,1,0,0:0:0:0:
64,192,18643,1,0,0:0:0:0:
448,192,18643,1,0,0:0:0:0:
192,192,18724,1,0,0:0:0:0:
320,192,18724,1,0,0:0:0:0:
64,192,18887,1,0,0:0:0:0:
192,192,18968,1,0,0:0:0:0:
320,192,19049,1,0,0:0:0:0:
448,192,19049,1,0,0:0:0:0:
64,192,19130,1,0,0:0:0:0:
192,192,19211,1,0,0:0:0:0:
448,192,19211,1,0,0:0:0:0:
320,192,19292,1,0,0:0:0:0:
64,192,19373,1,0,0:0:0:0:
192,192,19373,1,0,0:0:0:0:
64,192,19535,1,0,0:0:0:0:
192,192,19616,1,0,0:0:0:0:
320,192,19697,1,0,0:0:0:0:
448,192,19697,1,0,0:0:0:0:
64,192,19778,1,0,0:0:0:0:
192,192,19860,1,0,0:0:0:0:
448,192,19860,1,0,0:0:0:0:
320,192,19941,1,0,0:0:0:0:
64,192,20022,1,0,0:0:0:0:
192,192,20022,1,0,0:0:0:0:
64,192,20184,1,0,0:0:0:0:
192,192,20184,1,0,0:0:0:0:
64,192,20346,1,0,0:0:0:0:
192,192,20346,1,0,0:0:0:0:
64,192,20508,1,0,0:0:0:0:
192,192,20508,1,0,0:0:0:0:
64,192,20670,1,0,0:0:0:0:
448,192,20670,1,0,0:0:0:0:
192,192,20751,1,0,0:0:0:0:
320,192,20751,1,0,0:0:0:0:
64,192,20833,1,0,0:0:0:0:
448,192,20833,1,0,0:0:0:0:
192,192,20914,1,0,0:0:0:0:
320,192,20914,1,0,0:0:0:0:
64,192,20995,1,0,0:0:0:0:
448,192,20995,1,0,0:0:0:0:
320,192,21076,1,0,0:0:0:0:
192,192,21157,1,0,0:0:0:0:
64,192,21238,1,0,0:0:0:0:
192,192,21319,1,0,0:0:0:0:
448,192,21319,1,0,0:0:0:0:
448,192,21481,1,0,0:0:0:0:
64,192,21643,1,0,0:0:0:0:
448,192,21643,1,0,0:0:0:0:
320,0,21643,128,0,21887:1:0:0:0:
192,192,21968,1,0,0:0:0:0:
320,192,21968,1,0,0:0:0:0:
320,192,22130,1,0,0:0:0:0:
64,192,22292,1,0,0:0:0:0:
320,192,22292,1,0,0:0:0:0:
192,0,22292,128,0,22535:1:0:0:0:
64,192,22616,1,0,0:0:0:0:
448,192,22616,1,0,0:0:0:0:
192,192,22779,1,0,0:0:0:0:
320,192,22941,1,0,0:0:0:0:
448,192,22941,1,0,0:0:0:0:
64,192,23022,1,0,0:0:0:0:
64,192,23184,1,0,0:0:0:0:
192,192,23265,1,0,0:0:0:0:
448,192,23265,1,0,0:0:0:0:
320,0,23589,128,0,23751:1:0:0:0:
192,192,23914,1,0,0:0:0:0:
448,192,23914,1,0,0:0:0:0:
448,192,24076,1,0,0:0:0:0:
64,192,24238,1,0,0:0:0:0:
448,192,24238,1,0,0:0:0:0:
320,0,24238,128,0,24481:1:0:0:0:
192,192,24562,1,0,0:0:0:0:
320,192,24562,1,0,0:0:0:0:
320,192,24724,1,0,0:0:0:0:
64,192,24887,1,0,0:0:0:0:
320,192,24887,1,0,0:0:0:0:
192,0,24887,128,0,25130:1:0:0:0:
64,192,25211,1,0,0:0:0:0:
192,192,25211,1,0,0:0:0:0:
192,192,25373,1,0,0:0:0:0:
448,192,25454,1,0,0:0:0:0:
64,192,25535,1,0,0:0:0:0:
192,192,25535,1,0,0:0:0:0:
192,192,25697,1,0,0:0:0:0:
64,192,25860,1,0,0:0:0:0:
192,192,25860,1,0,0:0:0:0:
64,192,25968,1,0,0:0:0:0:
192,192,25968,1,0,0:0:0:0:
64,192,26076,1,0,0:0:0:0:
192,192,26076,1,0,0:0:0:0:
64,192,26184,1,0,0:0:0:0:
320,192,26184,1,0,0:0:0:0:
192,192,26292,1,0,0:0:0:0:
320,192,26292,1,0,0:0:0:0:
192,192,26400,1,0,0:0:0:0:
448,192,26400,1,0,0:0:0:0:
320,192,26508,1,0,0:0:0:0:
448,192,26508,1,0,0:0:0:0:
448,192,26833,1,0,0:0:0:0:
448,192,27157,1,0,0:0:0:0:
448,192,27481,1,0,0:0:0:0:
320,192,27806,1,0,0:0:0:0:
448,192,27806,1,0,0:0:0:0:
192,192,27968,1,0,0:0:0:0:
448,192,28130,1,0,0:0:0:0:
192,192,28292,1,0,0:0:0:0:
448,192,28454,1,0,0:0:0:0:
192,192,28616,1,0,0:0:0:0:
448,192,28779,1,0,0:0:0:0:
192,192,28941,1,0,0:0:0:0:
320,192,29103,1,0,0:0:0:0:
448,192,29103,1,0,0:0:0:0:
64,192,29265,1,0,0:0:0:0:
448,192,29427,1,0,0:0:0:0:
64,192,29589,1,0,0:0:0:0:
448,192,29752,1,0,0:0:0:0:
64,192,29914,1,0,0:0:0:0:
448,192,30076,1,0,0:0:0:0:
64,192,30238,1,0,0:0:0:0:
192,192,30400,1,0,0:0:0:0:
448,192,30400,1,0,0:0:0:0:
64,192,30481,1,0,0:0:0:0:
320,192,30562,1,0,0:0:0:0:
320,192,30643,1,0,0:0:0:0:
192,192,30724,1,0,0:0:0:0:
64,192,30806,1,0,0:0:0:0:
320,192,30887,1,0,0:0:0:0:
320,192,30968,1,0,0:0:0:0:
192,192,31049,1,0,0:0:0:0:
448,192,31049,1,0,0:0:0:0:
64,192,31130,1,0,0:0:0:0:
320,192,31211,1,0,0:0:0:0:
320,192,31292,1,0,0:0:0:0:
192,192,31373,1,0,0:0:0:0:
64,192,31454,1,0,0:0:0:0:
320,192,31535,1,0,0:0:0:0:
320,192,31616,1,0,0:0:0:0:
64,192,31697,1,0,0:0:0:0:
448,192,31697,1,0,0:0:0:0:
192,192,31860,1,0,0:0:0:0:
64,192,32022,1,0,0:0:0:0:
192,192,32184,1,0,0:0:0:0:
320,192,32346,1,0,0:0:0:0:
448,192,32670,1,0,0:0:0:0:
320,192,32833,1,0,0:0:0:0:
448,192,32995,1,0,0:0:0:0:
320,192,33157,1,0,0:0:0:0:
64,192,33319,1,0,0:0:0:0:
192,192,33481,1,0,0:0:0:0:
320,192,33643,1,0,0:0:0:0:
448,192,33968,1,0,0:0:0:0:
448,192,34292,1,0,0:0:0:0:
320,192,34319,1,0,0:0:0:0:
192,192,34346,1,0,0:0:0:0:
64,192,34454,1,0,0:0:0:0:
320,192,34616,1,0,0:0:0:0:
192,192,34779,1,0,0:0:0:0:
64,192,34941,1,0,0:0:0:0:
320,192,35103,1,0,0:0:0:0:
64,192,35265,1,0,0:0:0:0:
192,192,35427,1,0,0:0:0:0:
448,192,35589,1,0,0:0:0:0:
320,192,35752,1,0,0:0:0:0:
64,192,35914,1,0,0:0:0:0:
192,192,36076,1,0,0:0:0:0:
448,192,36238,1,0,0:0:0:0:
320,192,36562,1,0,0:0:0:0:
192,192,36887,1,0,0:0:0:0:
448,0,36887,128,0,36927:1:0:0:0:
64,192,36927,1,0,0:0:0:0:
192,192,37049,1,0,0:0:0:0:
64,192,37211,1,0,0:0:0:0:
192,192,37373,1,0,0:0:0:0:
320,192,37535,1,0,0:0:0:0:
448,192,37697,1,0,0:0:0:0:
320,192,37860,1,0,0:0:0:0:
64,192,38022,1,0,0:0:0:0:
192,192,38184,1,0,0:0:0:0:
448,0,38184,128,0,38224:1:0:0:0:
320,192,38346,1,0,0:0:0:0:
64,192,38508,1,0,0:0:0:0:
192,192,38670,1,0,0:0:0:0:
320,192,38833,1,0,0:0:0:0:
448,192,39157,1,0,0:0:0:0:
64,192,39481,1,0,0:0:0:0:
448,0,39481,128,0,39522:1:0:0:0:
320,192,39508,1,0,0:0:0:0:
192,192,39535,1,0,0:0:0:0:
320,192,39644,1,0,0:0:0:0:
192,192,39806,1,0,0:0:0:0:
64,192,39968,1,0,0:0:0:0:
448,192,40130,1,0,0:0:0:0:
192,192,40292,1,0,0:0:0:0:
320,192,40454,1,0,0:0:0:0:
64,192,40617,1,0,0:0:0:0:
448,0,40779,128,0,40819:1:0:0:0:
320,0,40779,128,0,41995:1:0:0:0:
192,192,40941,1,0,0:0:0:0:
64,192,41103,1,0,0:0:0:0:
448,192,41265,1,0,0:0:0:0:
192,192,41427,1,0,0:0:0:0:
448,192,41752,1,0,0:0:0:0:
64,0,42075,128,0,42116:1:0:0:0:
448,0,42075,128,0,42116:1:0:0:0:
192,192,42075,1,0,0:0:0:0:
320,192,42157,1,0,0:0:0:0:
192,192,42238,1,0,0:0:0:0:
320,192,42319,1,0,0:0:0:0:
64,192,42400,1,0,0:0:0:0:
192,192,42400,1,0,0:0:0:0:
448,192,42482,1,0,0:0:0:0:
192,192,42563,1,0,0:0:0:0:
320,192,42644,1,0,0:0:0:0:
64,192,42725,1,0,0:0:0:0:
192,192,42725,1,0,0:0:0:0:
448,192,42806,1,0,0:0:0:0:
64,192,42887,1,0,0:0:0:0:
320,192,42968,1,0,0:0:0:0:
64,192,43049,1,0,0:0:0:0:
192,192,43049,1,0,0:0:0:0:
448,192,43130,1,0,0:0:0:0:
64,192,43211,1,0,0:0:0:0:
320,192,43292,1,0,0:0:0:0:
64,192,43373,1,0,0:0:0:0:
448,192,43373,1,0,0:0:0:0:
320,192,43455,1,0,0:0:0:0:
192,192,43536,1,0,0:0:0:0:
64,192,43617,1,0,0:0:0:0:
192,192,43698,1,0,0:0:0:0:
448,192,43698,1,0,0:0:0:0:
320,192,43779,1,0,0:0:0:0:
448,192,43860,1,0,0:0:0:0:
320,192,43941,1,0,0:0:0:0:
192,192,44022,1,0,0:0:0:0:
448,192,44022,1,0,0:0:0:0:
64,192,44103,1,0,0:0:0:0:
192,192,44184,1,0,0:0:0:0:
320,192,44265,1,0,0:0:0:0:
64,192,44346,1,0,0:0:0:0:
448,192,44346,1,0,0:0:0:0:
320,192,44428,1,0,0:0:0:0:
192,192,44509,1,0,0:0:0:0:
64,192,44590,1,0,0:0:0:0:
192,192,44671,1,0,0:0:0:0:
320,192,44671,1,0,0:0:0:0:
448,192,44752,1,0,0:0:0:0:
64,192,44833,1,0,0:0:0:0:
320,192,44914,1,0,0:0:0:0:
192,192,44995,1,0,0:0:0:0:
448,192,44995,1,0,0:0:0:0:
320,192,45076,1,0,0:0:0:0:
192,192,45157,1,0,0:0:0:0:
448,192,45238,1,0,0:0:0:0:
64,192,45319,1,0,0:0:0:0:
192,192,45319,1,0,0:0:0:0:
320,192,45401,1,0,0:0:0:0:
64,192,45482,1,0,0:0:0:0:
320,192,45563,1,0,0:0:0:0:
64,192,45644,1,0,0:0:0:0:
192,192,45644,1,0,0:0:0:0:
448,192,45725,1,0,0:0:0:0:
64,192,45806,1,0,0:0:0:0:
448,192,45887,1,0,0:0:0:0:
64,192,45968,1,0,0:0:0:0:
320,192,45968,1,0,0:0:0:0:
192,192,46049,1,0,0:0:0:0:
64,192,46130,1,0,0:0:0:0:
192,192,46211,1,0,0:0:0:0:
64,192,46292,1,0,0:0:0:0:
448,192,46292,1,0,0:0:0:0:
320,192,46374,1,0,0:0:0:0:
192,192,46455,1,0,0:0:0:0:
64,192,46536,1,0,0:0:0:0:
192,192,46617,1,0,0:0:0:0:
448,192,46617,1,0,0:0:0:0:
320,192,46698,1,0,0:0:0:0:
448,192,46779,1,0,0:0:0:0:
320,192,46860,1,0,0:0:0:0:
192,192,46941,1,0,0:0:0:0:
448,192,46941,1,0,0:0:0:0:
64,192,47022,1,0,0:0:0:0:
192,192,47103,1,0,0:0:0:0:
320,192,47184,1,0,0:0:0:0:
64,192,47265,1,0,0:0:0:0:
192,192,47265,1,0,0:0:0:0:
448,192,47346,1,0,0:0:0:0:
192,192,47428,1,0,0:0:0:0:
320,192,47509,1,0,0:0:0:0:
192,192,47590,1,0,0:0:0:0:
448,192,47590,1,0,0:0:0:0:
320,192,47671,1,0,0:0:0:0:
64,192,47752,1,0,0:0:0:0:
448,192,47833,1,0,0:0:0:0:
64,192,47914,1,0,0:0:0:0:
192,192,47914,1,0,0:0:0:0:
320,192,47995,1,0,0:0:0:0:
192,192,48076,1,0,0:0:0:0:
448,192,48157,1,0,0:0:0:0:
64,192,48238,1,0,0:0:0:0:
192,192,48238,1,0,0:0:0:0:
320,192,48319,1,0,0:0:0:0:
64,192,48401,1,0,0:0:0:0:
320,192,48482,1,0,0:0:0:0:
192,192,48563,1,0,0:0:0:0:
448,192,48563,1,0,0:0:0:0:
320,192,48644,1,0,0:0:0:0:
192,192,48725,1,0,0:0:0:0:
64,192,48806,1,0,0:0:0:0:
192,192,48887,1,0,0:0:0:0:
448,192,48887,1,0,0:0:0:0:
320,192,48968,1,0,0:0:0:0:
448,192,49049,1,0,0:0:0:0:
320,192,49130,1,0,0:0:0:0:
192,192,49211,1,0,0:0:0:0:
448,192,49211,1,0,0:0:0:0:
64,192,49292,1,0,0:0:0:0:
192,192,49374,1,0,0:0:0:0:
320,192,49455,1,0,0:0:0:0:
64,192,49536,1,0,0:0:0:0:
448,192,49536,1,0,0:0:0:0:
320,192,49617,1,0,0:0:0:0:
192,192,49698,1,0,0:0:0:0:
64,192,49779,1,0,0:0:0:0:
192,192,49860,1,0,0:0:0:0:
448,192,49860,1,0,0:0:0:0:
320,192,49941,1,0,0:0:0:0:
192,192,50022,1,0,0:0:0:0:
448,192,50103,1,0,0:0:0:0:
64,192,50184,1,0,0:0:0:0:
192,192,50184,1,0,0:0:0:0:
320,192,50265,1,0,0:0:0:0:
192,192,50347,1,0,0:0:0:0:
448,192,50428,1,0,0:0:0:0:
64,192,50509,1,0,0:0:0:0:
192,192,50509,1,0,0:0:0:0:
320,192,50590,1,0,0:0:0:0:
64,192,50671,1,0,0:0:0:0:
448,192,50752,1,0,0:0:0:0:
64,192,50833,1,0,0:0:0:0:
320,192,50833,1,0,0:0:0:0:
448,192,50914,1,0,0:0:0:0:
192,192,50995,1,0,0:0:0:0:
320,192,51076,1,0,0:0:0:0:
64,192,51157,1,0,0:0:0:0:
192,192,51157,1,0,0:0:0:0:
64,192,51320,1,0,0:0:0:0:
192,192,51320,1,0,0:0:0:0:
64,192,51482,1,0,0:0:0:0:
448,192,51482,1,0,0:0:0:0:
64,192,51644,1,0,0:0:0:0:
320,192,51644,1,0,0:0:0:0:
320,192,51725,1,0,0:0:0:0:
64,192,51806,1,0,0:0:0:0:
192,192,51806,1,0,0:0:0:0:
64,192,51968,1,0,0:0:0:0:
320,192,51968,1,0,0:0:0:0:
64,192,52130,1,0,0:0:0:0:
192,192,52130,1,0,0:0:0:0:
320,192,52171,1,0,0:0:0:0:
448,192,52211,1,0,0:0:0:0:
64,192,52252,1,0,0:0:0:0:
192,192,52293,1,0,0:0:0:0:
320,192,52333,1,0,0:0:0:0:
448,192,52374,1,0,0:0:0:0:
192,192,52414,1,0,0:0:0:0:
320,192,52453,1,0,0:0:0:0:
64,0,52453,128,0,52494:1:0:0:0:
448,0,52453,128,0,52494:1:0:0:0:
64,192,52617,1,0,0:0:0:0:
320,192,52698,1,0,0:0:0:0:
192,192,52779,1,0,0:0:0:0:
448,192,52860,1,0,0:0:0:0:
64,192,52941,1,0,0:0:0:0:
192,192,53022,1,0,0:0:0:0:
320,192,53104,1,0,0:0:0:0:
448,192,53104,1,0,0:0:0:0:
64,192,53266,1,0,0:0:0:0:
192,192,53266,1,0,0:0:0:0:
192,192,53428,1,0,0:0:0:0:
320,192,53428,1,0,0:0:0:0:
320,192,53590,1,0,0:0:0:0:
448,192,53590,1,0,0:0:0:0:
192,192,53752,1,0,0:0:0:0:
448,192,53752,1,0,0:0:0:0:
192,192,53914,1,0,0:0:0:0:
64,192,53995,1,0,0:0:0:0:
192,192,54076,1,0,0:0:0:0:
320,192,54076,1,0,0:0:0:0:
320,192,54239,1,0,0:0:0:0:
192,192,54320,1,0,0:0:0:0:
64,192,54401,1,0,0:0:0:0:
320,192,54401,1,0,0:0:0:0:
448,192,54563,1,0,0:0:0:0:
320,192,54644,1,0,0:0:0:0:
64,192,54725,1,0,0:0:0:0:
192,192,54725,1,0,0:0:0:0:
64,192,54887,1,0,0:0:0:0:
192,192,54968,1,0,0:0:0:0:
320,192,55049,1,0,0:0:0:0:
448,192,55049,1,0,0:0:0:0:
192,192,55212,1,0,0:0:0:0:
320,192,55293,1,0,0:0:0:0:
64,192,55374,1,0,0:0:0:0:
448,192,55455,1,0,0:0:0:0:
192,192,55536,1,0,0:0:0:0:
64,192,55617,1,0,0:0:0:0:
320,192,55698,1,0,0:0:0:0:
448,192,55698,1,0,0:0:0:0:
64,192,55860,1,0,0:0:0:0:
192,192,55860,1,0,0:0:0:0:
192,192,56022,1,0,0:0:0:0:
320,192,56022,1,0,0:0:0:0:
320,192,56185,1,0,0:0:0:0:
448,192,56185,1,0,0:0:0:0:
192,192,56347,1,0,0:0:0:0:
64,0,56347,128,0,56509:1:0:0:0:
448,0,56347,128,0,56509:1:0:0:0:
192,192,56590,1,0,0:0:0:0:
64,192,56671,1,0,0:0:0:0:
320,0,56671,128,0,56833:1:0:0:0:
448,0,56671,128,0,56833:1:0:0:0:
64,192,56914,1,0,0:0:0:0:
448,192,56995,1,0,0:0:0:0:
192,0,56995,128,0,57158:1:0:0:0:
320,0,56995,128,0,57158:1:0:0:0:
64,192,57320,1,0,0:0:0:0:
192,192,57320,1,0,0:0:0:0:
320,192,57320,1,0,0:0:0:0:
192,192,57643,1,0,0:0:0:0:
64,0,57643,128,0,57683:1:0:0:0:
448,0,57643,128,0,57683:1:0:0:0:
64,192,57806,1,0,0:0:0:0:
320,192,57887,1,0,0:0:0:0:
192,192,57969,1,0,0:0:0:0:
448,192,58050,1,0,0:0:0:0:
64,192,58131,1,0,0:0:0:0:
192,192,58212,1,0,0:0:0:0:
320,192,58293,1,0,0:0:0:0:
448,192,58293,1,0,0:0:0:0:
64,192,58455,1,0,0:0:0:0:
192,192,58455,1,0,0:0:0:0:
192,192,58617,1,0,0:0:0:0:
320,192,58617,1,0,0:0:0:0:
320,192,58779,1,0,0:0:0:0:
448,192,58779,1,0,0:0:0:0:
192,192,58942,1,0,0:0:0:0:
448,192,58942,1,0,0:0:0:0:
192,192,59104,1,0,0:0:0:0:
64,192,59185,1,0,0:0:0:0:
192,192,59266,1,0,0:0:0:0:
320,192,59266,1,0,0:0:0:0:
320,192,59428,1,0,0:0:0:0:
192,192,59509,1,0,0:0:0:0:
64,192,59590,1,0,0:0:0:0:
320,192,59590,1,0,0:0:0:0:
448,192,59752,1,0,0:0:0:0:
320,192,59833,1,0,0:0:0:0:
64,192,59915,1,0,0:0:0:0:
192,192,59915,1,0,0:0:0:0:
64,192,60077,1,0,0:0:0:0:
192,192,60158,1,0,0:0:0:0:
320,192,60239,1,0,0:0:0:0:
448,192,60239,1,0,0:0:0:0:
192,192,60401,1,0,0:0:0:0:
320,192,60482,1,0,0:0:0:0:
64,192,60563,1,0,0:0:0:0:
448,192,60644,1,0,0:0:0:0:
192,192,60725,1,0,0:0:0:0:
64,192,60806,1,0,0:0:0:0:
320,192,60888,1,0,0:0:0:0:
448,192,60888,1,0,0:0:0:0:
64,192,61050,1,0,0:0:0:0:
192,192,61050,1,0,0:0:0:0:
192,192,61212,1,0,0:0:0:0:
320,192,61212,1,0,0:0:0:0:
320,192,61374,1,0,0:0:0:0:
448,192,61374,1,0,0:0:0:0:
448,192,61536,1,0,0:0:0:0:
192,0,61536,128,0,61617:1:0:0:0:
192,192,61698,1,0,0:0:0:0:
64,192,61779,1,0,0:0:0:0:
320,192,61861,1,0,0:0:0:0:
448,0,61861,128,0,61942:1:0:0:0:
192,192,62023,1,0,0:0:0:0:
320,192,62104,1,0,0:0:0:0:
64,192,62185,1,0,0:0:0:0:
448,192,62185,1,0,0:0:0:0:
64,192,62347,1,0,0:0:0:0:
192,192,62509,1,0,0:0:0:0:
320,0,62509,128,0,62671:1:0:0:0:
64,192,62834,1,0,0:0:0:0:
192,192,62834,1,0,0:0:0:0:
448,192,62834,1,0,0:0:0:0:
64,192,62996,1,0,0:0:0:0:
320,192,63077,1,0,0:0:0:0:
192,192,63158,1,0,0:0:0:0:
448,192,63239,1,0,0:0:0:0:
64,192,63320,1,0,0:0:0:0:
192,192,63401,1,0,0:0:0:0:
320,192,63482,1,0,0:0:0:0:
448,192,63482,1,0,0:0:0:0:
64,192,63644,1,0,0:0:0:0:
192,192,63644,1,0,0:0:0:0:
192,192,63806,1,0,0:0:0:0:
320,192,63806,1,0,0:0:0:0:
320,192,63969,1,0,0:0:0:0:
448,192,63969,1,0,0:0:0:0:
192,192,64131,1,0,0:0:0:0:
448,192,64131,1,0,0:0:0:0:
192,192,64293,1,0,0:0:0:0:
64,192,64374,1,0,0:0:0:0:
192,192,64455,1,0,0:0:0:0:
320,192,64455,1,0,0:0:0:0:
320,192,64617,1,0,0:0:0:0:
192,192,64698,1,0,0:0:0:0:
64,192,64779,1,0,0:0:0:0:
320,192,64779,1,0,0:0:0:0:
448,192,64942,1,0,0:0:0:0:
320,192,65023,1,0,0:0:0:0:
64,192,65104,1,0,0:0:0:0:
192,192,65104,1,0,0:0:0:0:
320,192,65185,1,0,0:0:0:0:
448,192,65266,1,0,0:0:0:0:
64,192,65752,1,0,0:0:0:0:
320,192,65752,1,0,0:0:0:0:
64,192,65915,1,0,0:0:0:0:
320,192,65915,1,0,0:0:0:0:
64,192,66077,1,0,0:0:0:0:
320,192,66077,1,0,0:0:0:0:
64,192,66239,1,0,0:0:0:0:
320,192,66239,1,0,0:0:0:0:
192,0,66401,128,0,66644:1:0:0:0:
448,0,66401,128,0,66644:1:0:0:0:
192,192,66725,1,0,0:0:0:0:
448,192,66725,1,0,0:0:0:0:
192,192,66887,1,0,0:0:0:0:
64,192,66969,1,0,0:0:0:0:
320,192,66969,1,0,0:0:0:0:
320,192,67131,1,0,0:0:0:0:
192,192,67212,1,0,0:0:0:0:
448,192,67212,1,0,0:0:0:0:
64,192,67374,1,0,0:0:0:0:
320,192,67455,1,0,0:0:0:0:
448,192,67455,1,0,0:0:0:0:
192,192,67617,1,0,0:0:0:0:
64,192,67698,1,0,0:0:0:0:
448,192,67698,1,0,0:0:0:0:
192,192,67779,1,0,0:0:0:0:
320,192,67779,1,0,0:0:0:0:
64,192,67860,1,0,0:0:0:0:
448,192,67860,1,0,0:0:0:0:
192,192,67941,1,0,0:0:0:0:
320,192,67941,1,0,0:0:0:0:
64,192,68023,1,0,0:0:0:0:
448,192,68023,1,0,0:0:0:0:
320,192,68104,1,0,0:0:0:0:
192,192,68185,1,0,0:0:0:0:
64,192,68266,1,0,0:0:0:0:
192,192,68347,1,0,0:0:0:0:
320,192,68428,1,0,0:0:0:0:
448,192,68428,1,0,0:0:0:0:
64,192,68509,1,0,0:0:0:0:
192,192,68509,1,0,0:0:0:0:
320,192,68590,1,0,0:0:0:0:
64,192,68671,1,0,0:0:0:0:
192,192,68671,1,0,0:0:0:0:
448,192,68671,1,0,0:0:0:0:
320,192,68752,1,0,0:0:0:0:
448,192,68833,1,0,0:0:0:0:
320,192,68914,1,0,0:0:0:0:
192,192,68996,1,0,0:0:0:0:
64,192,69077,1,0,0:0:0:0:
320,192,69077,1,0,0:0:0:0:
192,192,69158,1,0,0:0:0:0:
448,192,69158,1,0,0:0:0:0:
64,192,69239,1,0,0:0:0:0:
192,192,69320,1,0,0:0:0:0:
320,192,69320,1,0,0:0:0:0:
448,192,69320,1,0,0:0:0:0:
64,192,69401,1,0,0:0:0:0:
448,192,69482,1,0,0:0:0:0:
320,192,69563,1,0,0:0:0:0:
192,192,69644,1,0,0:0:0:0:
64,192,69725,1,0,0:0:0:0:
448,192,69725,1,0,0:0:0:0:
192,192,69806,1,0,0:0:0:0:
320,192,69806,1,0,0:0:0:0:
448,192,69887,1,0,0:0:0:0:
64,192,69968,1,0,0:0:0:0:
192,192,69968,1,0,0:0:0:0:
320,192,69968,1,0,0:0:0:0:
448,192,70050,1,0,0:0:0:0:
64,192,70131,1,0,0:0:0:0:
192,192,70212,1,0,0:0:0:0:
320,192,70293,1,0,0:0:0:0:
64,192,70374,1,0,0:0:0:0:
192,192,70374,1,0,0:0:0:0:
320,192,70455,1,0,0:0:0:0:
448,192,70455,1,0,0:0:0:0:
192,192,70536,1,0,0:0:0:0:
64,192,70617,1,0,0:0:0:0:
320,192,70617,1,0,0:0:0:0:
448,192,70617,1,0,0:0:0:0:
192,192,70671,1,0,0:0:0:0:
320,192,70725,1,0,0:0:0:0:
448,192,70779,1,0,0:0:0:0:
192,192,70833,1,0,0:0:0:0:
320,192,70887,1,0,0:0:0:0:
64,192,70941,1,0,0:0:0:0:
192,192,70941,1,0,0:0:0:0:
448,192,70995,1,0,0:0:0:0:
320,192,71049,1,0,0:0:0:0:
64,192,71103,1,0,0:0:0:0:
192,192,71103,1,0,0:0:0:0:
320,192,71157,1,0,0:0:0:0:
448,192,71212,1,0,0:0:0:0:
192,192,71266,1,0,0:0:0:0:
320,192,71266,1,0,0:0:0:0:
64,192,71428,1,0,0:0:0:0:
320,192,71428,1,0,0:0:0:0:
64,192,71590,1,0,0:0:0:0:
192,192,71590,1,0,0:0:0:0:
320,192,71671,1,0,0:0:0:0:
448,192,71752,1,0,0:0:0:0:
64,192,71833,1,0,0:0:0:0:
320,192,71914,1,0,0:0:0:0:
448,192,71914,1,0,0:0:0:0:
64,192,72076,1,0,0:0:0:0:
192,192,72239,1,0,0:0:0:0:
448,192,72239,1,0,0:0:0:0:
320,192,72401,1,0,0:0:0:0:
64,192,72563,1,0,0:0:0:0:
448,192,72563,1,0,0:0:0:0:
64,192,72644,1,0,0:0:0:0:
320,192,72725,1,0,0:0:0:0:
448,192,72725,1,0,0:0:0:0:
320,192,72806,1,0,0:0:0:0:
192,192,72887,1,0,0:0:0:0:
448,192,72887,1,0,0:0:0:0:
192,192,72968,1,0,0:0:0:0:
64,192,73049,1,0,0:0:0:0:
320,192,73049,1,0,0:0:0:0:
320,192,73130,1,0,0:0:0:0:
64,192,73211,1,0,0:0:0:0:
448,192,73211,1,0,0:0:0:0:
192,192,73374,1,0,0:0:0:0:
320,192,73536,1,0,0:0:0:0:
448,192,73698,1,0,0:0:0:0:
64,192,73860,1,0,0:0:0:0:
448,192,74022,1,0,0:0:0:0:
320,192,74184,1,0,0:0:0:0:
192,192,74347,1,0,0:0:0:0:
64,192,74509,1,0,0:0:0:0:
448,192,74509,1,0,0:0:0:0:
192,192,74671,1,0,0:0:0:0:
320,192,74833,1,0,0:0:0:0:
448,192,74995,1,0,0:0:0:0:
64,192,75157,1,0,0:0:0:0:
448,192,75320,1,0,0:0:0:0:
320,192,75482,1,0,0:0:0:0:
192,192,75644,1,0,0:0:0:0:
64,192,75806,1,0,0:0:0:0:
448,192,75806,1,0,0:0:0:0:
192,192,75968,1,0,0:0:0:0:
320,192,76130,1,0,0:0:0:0:
64,192,76293,1,0,0:0:0:0:
448,192,76455,1,0,0:0:0:0:
320,192,76617,1,0,0:0:0:0:
192,192,76779,1,0,0:0:0:0:
320,192,76941,1,0,0:0:0:0:
64,192,77103,1,0,0:0:0:0:
448,192,77103,1,0,0:0:0:0:
192,192,77266,1,0,0:0:0:0:
320,192,77428,1,0,0:0:0:0:
64,192,77590,1,0,0:0:0:0:
448,192,77752,1,0,0:0:0:0:
320,192,77914,1,0,0:0:0:0:
192,192,78076,1,0,0:0:0:0:
320,192,78238,1,0,0:0:0:0:
64,192,78401,1,0,0:0:0:0:
448,192,78401,1,0,0:0:0:0:
192,192,78563,1,0,0:0:0:0:
320,192,78725,1,0,0:0:0:0:
192,192,78887,1,0,0:0:0:0:
448,192,79049,1,0,0:0:0:0:
320,192,79211,1,0,0:0:0:0:
192,192,79374,1,0,0:0:0:0:
320,192,79536,1,0,0:0:0:0:
64,192,79698,1,0,0:0:0:0:
448,192,79698,1,0,0:0:0:0:
192,192,79860,1,0,0:0:0:0:
320,192,80022,1,0,0:0:0:0:
192,192,80184,1,0,0:0:0:0:
448,192,80347,1,0,0:0:0:0:
320,192,80509,1,0,0:0:0:0:
192,192,80671,1,0,0:0:0:0:
320,192,80833,1,0,0:0:0:0:
64,192,80995,1,0,0:0:0:0:
448,192,80995,1,0,0:0:0:0:
192,192,81157,1,0,0:0:0:0:
64,192,81320,1,0,0:0:0:0:
192,192,81482,1,0,0:0:0:0:
64,192,81644,1,0,0:0:0:0:
192,192,81806,1,0,0:0:0:0:
64,192,81968,1,0,0:0:0:0:
192,192,82130,1,0,0:0:0:0:
64,192,82293,1,0,0:0:0:0:
448,192,82455,1,0,0:0:0:0:
448,192,82536,1,0,0:0:0:0:
64,192,82617,1,0,0:0:0:0:
448,192,82779,1,0,0:0:0:0:
448,192,82860,1,0,0:0:0:0:
64,192,82941,1,0,0:0:0:0:
448,192,83103,1,0,0:0:0:0:
448,192,83184,1,0,0:0:0:0:
64,192,83265,1,0,0:0:0:0:
448,192,83428,1,0,0:0:0:0:
448,192,83509,1,0,0:0:0:0:
64,192,83590,1,0,0:0:0:0:
192,192,83590,1,0,0:0:0:0:
64,192,83752,1,0,0:0:0:0:
320,192,83752,1,0,0:0:0:0:
64,192,83914,1,0,0:0:0:0:
320,192,83914,1,0,0:0:0:0:
448,0,83914,128,0,83941:1:0:0:0:
64,192,84238,1,0,0:0:0:0:
192,192,84238,1,0,0:0:0:0:
64,192,84400,1,0,0:0:0:0:
320,192,84400,1,0,0:0:0:0:
64,192,84563,1,0,0:0:0:0:
192,192,84563,1,0,0:0:0:0:
320,0,84563,128,0,84590:1:0:0:0:
192,192,84887,1,0,0:0:0:0:
320,192,84887,1,0,0:0:0:0:
448,192,84887,1,0,0:0:0:0:
192,192,85211,1,0,0:0:0:0:
320,192,85211,1,0,0:0:0:0:
448,192,85211,1,0,0:0:0:0:
64,192,85535,1,0,0:0:0:0:
192,192,85535,1,0,0:0:0:0:
448,192,85535,1,0,0:0:0:0:
320,192,85617,1,0,0:0:0:0:
192,192,85698,1,0,0:0:0:0:
320,192,85779,1,0,0:0:0:0:
64,192,85860,1,0,0:0:0:0:
192,192,85860,1,0,0:0:0:0:
448,192,85860,1,0,0:0:0:0:
320,192,85941,1,0,0:0:0:0:
448,192,86022,1,0,0:0:0:0:
320,192,86103,1,0,0:0:0:0:
64,192,86184,1,0,0:0:0:0:
192,192,86184,1,0,0:0:0:0:
448,192,86265,1,0,0:0:0:0:
64,192,86346,1,0,0:0:0:0:
320,192,86346,1,0,0:0:0:0:
192,192,86427,1,0,0:0:0:0:
64,192,86508,1,0,0:0:0:0:
320,192,86508,1,0,0:0:0:0:
448,192,86508,1,0,0:0:0:0:
192,192,86589,1,0,0:0:0:0:
320,192,86670,1,0,0:0:0:0:
448,192,86751,1,0,0:0:0:0:
64,192,86833,1,0,0:0:0:0:
192,192,86833,1,0,0:0:0:0:
448,192,86914,1,0,0:0:0:0:
64,192,86995,1,0,0:0:0:0:
320,192,86995,1,0,0:0:0:0:
448,192,87076,1,0,0:0:0:0:
64,192,87157,1,0,0:0:0:0:
192,192,87157,1,0,0:0:0:0:
320,192,87157,1,0,0:0:0:0:
448,192,87238,1,0,0:0:0:0:
320,192,87319,1,0,0:0:0:0:
448,192,87400,1,0,0:0:0:0:
64,192,87481,1,0,0:0:0:0:
192,192,87481,1,0,0:0:0:0:
448,192,87562,1,0,0:0:0:0:
64,192,87643,1,0,0:0:0:0:
192,192,87643,1,0,0:0:0:0:
448,192,87724,1,0,0:0:0:0:
64,192,87806,1,0,0:0:0:0:
192,192,87806,1,0,0:0:0:0:
320,192,87887,1,0,0:0:0:0:
64,192,87968,1,0,0:0:0:0:
192,192,87968,1,0,0:0:0:0:
320,192,88049,1,0,0:0:0:0:
64,192,88130,1,0,0:0:0:0:
192,192,88130,1,0,0:0:0:0:
320,192,88238,1,0,0:0:0:0:
448,192,88238,1,0,0:0:0:0:
64,192,88346,1,0,0:0:0:0:
192,192,88346,1,0,0:0:0:0:
320,192,88454,1,0,0:0:0:0:
448,192,88454,1,0,0:0:0:0:
64,192,88562,1,0,0:0:0:0:
192,192,88562,1,0,0:0:0:0:
320,192,88670,1,0,0:0:0:0:
448,192,88670,1,0,0:0:0:0:
64,192,88778,1,0,0:0:0:0:
192,192,88778,1,0,0:0:0:0:
448,192,88778,1,0,0:0:0:0:
320,192,88859,1,0,0:0:0:0:
448,192,88941,1,0,0:0:0:0:
320,192,89022,1,0,0:0:0:0:
64,192,89103,1,0,0:0:0:0:
192,192,89103,1,0,0:0:0:0:
448,192,89184,1,0,0:0:0:0:
320,192,89265,1,0,0:0:0:0:
192,192,89346,1,0,0:0:0:0:
64,192,89427,1,0,0:0:0:0:
320,192,89427,1,0,0:0:0:0:
192,192,89508,1,0,0:0:0:0:
320,192,89589,1,0,0:0:0:0:
448,192,89670,1,0,0:0:0:0:
64,192,89751,1,0,0:0:0:0:
192,192,89751,1,0,0:0:0:0:
448,192,89832,1,0,0:0:0:0:
320,192,89913,1,0,0:0:0:0:
192,192,89994,1,0,0:0:0:0:
64,192,90076,1,0,0:0:0:0:
448,192,90076,1,0,0:0:0:0:
320,192,90157,1,0,0:0:0:0:
192,192,90238,1,0,0:0:0:0:
320,192,90319,1,0,0:0:0:0:
64,192,90400,1,0,0:0:0:0:
192,192,90400,1,0,0:0:0:0:
320,192,90481,1,0,0:0:0:0:
192,192,90562,1,0,0:0:0:0:
320,192,90643,1,0,0:0:0:0:
64,192,90724,1,0,0:0:0:0:
192,192,90724,1,0,0:0:0:0:
448,192,90805,1,0,0:0:0:0:
64,192,90886,1,0,0:0:0:0:
448,192,90967,1,0,0:0:0:0:
64,192,91049,1,0,0:0:0:0:
192,192,91049,1,0,0:0:0:0:
448,192,91130,1,0,0:0:0:0:
64,192,91211,1,0,0:0:0:0:
448,192,91292,1,0,0:0:0:0:
64,192,91373,1,0,0:0:0:0:
320,192,91373,1,0,0:0:0:0:
192,192,91454,1,0,0:0:0:0:
320,192,91535,1,0,0:0:0:0:
448,192,91616,1,0,0:0:0:0:
64,192,91697,1,0,0:0:0:0:
192,192,91697,1,0,0:0:0:0:
448,192,91778,1,0,0:0:0:0:
320,192,91859,1,0,0:0:0:0:
192,192,91940,1,0,0:0:0:0:
64,192,92021,1,0,0:0:0:0:
320,192,92021,1,0,0:0:0:0:
192,192,92103,1,0,0:0:0:0:
320,192,92184,1,0,0:0:0:0:
64,192,92265,1,0,0:0:0:0:
320,192,92346,1,0,0:0:0:0:
448,192,92346,1,0,0:0:0:0:
192,192,92427,1,0,0:0:0:0:
64,192,92508,1,0,0:0:0:0:
448,192,92589,1,0,0:0:0:0:
64,192,92670,1,0,0:0:0:0:
192,192,92670,1,0,0:0:0:0:
64,192,92832,1,0,0:0:0:0:
192,192,92832,1,0,0:0:0:0:
64,192,92994,1,0,0:0:0:0:
192,192,92994,1,0,0:0:0:0:
64,192,93157,1,0,0:0:0:0:
192,192,93157,1,0,0:0:0:0:
64,192,93319,1,0,0:0:0:0:
192,192,93319,1,0,0:0:0:0:
320,192,93400,1,0,0:0:0:0:
448,192,93400,1,0,0:0:0:0:
64,192,93481,1,0,0:0:0:0:
192,192,93481,1,0,0:0:0:0:
320,192,93562,1,0,0:0:0:0:
448,192,93562,1,0,0:0:0:0:
64,192,93643,1,0,0:0:0:0:
192,192,93643,1,0,0:0:0:0:
448,192,93724,1,0,0:0:0:0:
64,192,93805,1,0,0:0:0:0:
192,192,93886,1,0,0:0:0:0:
448,192,93967,1,0,0:0:0:0:
320,0,93967,128,0,94291:1:0:0:0:
192,192,94291,1,0,0:0:0:0:
64,0,94291,128,0,94332:1:0:0:0:
448,0,94291,128,0,94332:1:0:0:0:
64,192,94454,1,0,0:0:0:0:
320,192,94454,1,0,0:0:0:0:
192,192,94535,1,0,0:0:0:0:
320,192,94616,1,0,0:0:0:0:
448,192,94616,1,0,0:0:0:0:
64,192,94778,1,0,0:0:0:0:
192,192,94859,1,0,0:0:0:0:
320,192,94859,1,0,0:0:0:0:
64,192,95103,1,0,0:0:0:0:
192,192,95103,1,0,0:0:0:0:
64,192,95265,1,0,0:0:0:0:
320,192,95265,1,0,0:0:0:0:
320,192,95427,1,0,0:0:0:0:
192,192,95508,1,0,0:0:0:0:
448,192,95508,1,0,0:0:0:0:
64,192,95670,1,0,0:0:0:0:
448,192,95670,1,0,0:0:0:0:
320,192,95913,1,0,0:0:0:0:
448,192,95913,1,0,0:0:0:0:
192,192,96157,1,0,0:0:0:0:
448,192,96157,1,0,0:0:0:0:
64,192,96400,1,0,0:0:0:0:
320,192,96400,1,0,0:0:0:0:
64,192,96562,1,0,0:0:0:0:
192,192,96562,1,0,0:0:0:0:
448,192,96643,1,0,0:0:0:0:
320,192,96724,1,0,0:0:0:0:
192,192,96805,1,0,0:0:0:0:
64,192,96886,1,0,0:0:0:0:
448,192,96886,1,0,0:0:0:0:
192,192,96967,1,0,0:0:0:0:
64,192,97049,1,0,0:0:0:0:
448,192,97130,1,0,0:0:0:0:
320,192,97170,1,0,0:0:0:0:
64,192,97211,1,0,0:0:0:0:
192,192,97211,1,0,0:0:0:0:
448,192,97292,1,0,0:0:0:0:
320,192,97373,1,0,0:0:0:0:
192,192,97454,1,0,0:0:0:0:
320,192,97535,1,0,0:0:0:0:
448,192,97535,1,0,0:0:0:0:
64,192,97616,1,0,0:0:0:0:
192,192,97697,1,0,0:0:0:0:
320,192,97778,1,0,0:0:0:0:
64,192,97859,1,0,0:0:0:0:
448,192,97859,1,0,0:0:0:0:
64,192,97967,1,0,0:0:0:0:
192,192,97967,1,0,0:0:0:0:
320,192,98075,1,0,0:0:0:0:
448,192,98075,1,0,0:0:0:0:
64,192,98184,1,0,0:0:0:0:
448,192,98184,1,0,0:0:0:0:
192,192,98292,1,0,0:0:0:0:
320,192,98292,1,0,0:0:0:0:
64,192,98400,1,0,0:0:0:0:
320,192,98400,1,0,0:0:0:0:
192,192,98508,1,0,0:0:0:0:
448,192,98508,1,0,0:0:0:0:
320,192,98616,1,0,0:0:0:0:
448,192,98616,1,0,0:0:0:0:
64,192,98724,1,0,0:0:0:0:
192,192,98724,1,0,0:0:0:0:
64,192,98832,1,0,0:0:0:0:
448,192,98832,1,0,0:0:0:0:
320,192,98940,1,0,0:0:0:0:
448,192,98940,1,0,0:0:0:0:
64,192,99048,1,0,0:0:0:0:
320,192,99048,1,0,0:0:0:0:
192,0,99156,128,0,99400:1:0:0:0:
64,192,99481,1,0,0:0:0:0:
320,192,99481,1,0,0:0:0:0:
448,192,99481,1,0,0:0:0:0:
192,192,99643,1,0,0:0:0:0:
320,192,99724,1,0,0:0:0:0:
64,192,99805,1,0,0:0:0:0:
448,192,99805,1,0,0:0:0:0:
320,192,99967,1,0,0:0:0:0:
192,192,100048,1,0,0:0:0:0:
64,192,100129,1,0,0:0:0:0:
448,192,100129,1,0,0:0:0:0:
192,192,100291,1,0,0:0:0:0:
320,192,100454,1,0,0:0:0:0:
448,192,100454,1,0,0:0:0:0:
192,192,100535,1,0,0:0:0:0:
320,192,100616,1,0,0:0:0:0:
64,192,100697,1,0,0:0:0:0:
320,192,100778,1,0,0:0:0:0:
448,192,100778,1,0,0:0:0:0:
192,192,100859,1,0,0:0:0:0:
320,192,100940,1,0,0:0:0:0:
64,192,101021,1,0,0:0:0:0:
192,192,101102,1,0,0:0:0:0:
448,192,101102,1,0,0:0:0:0:
320,192,101183,1,0,0:0:0:0:
192,192,101264,1,0,0:0:0:0:
64,192,101345,1,0,0:0:0:0:
192,192,101427,1,0,0:0:0:0:
320,192,101427,1,0,0:0:0:0:
64,192,101508,1,0,0:0:0:0:
192,192,101589,1,0,0:0:0:0:
320,192,101670,1,0,0:0:0:0:
64,192,101751,1,0,0:0:0:0:
192,0,101751,128,0,101913:1:0:0:0:
320,192,101913,1,0,0:0:0:0:
192,192,101994,1,0,0:0:0:0:
448,192,101994,1,0,0:0:0:0:
192,192,102156,1,0,0:0:0:0:
448,192,102156,1,0,0:0:0:0:
64,192,102237,1,0,0:0:0:0:
192,192,102399,1,0,0:0:0:0:
320,192,102399,1,0,0:0:0:0:
448,192,102562,1,0,0:0:0:0:
64,192,102643,1,0,0:0:0:0:
192,192,102724,1,0,0:0:0:0:
320,192,102724,1,0,0:0:0:0:
320,192,102886,1,0,0:0:0:0:
64,192,103048,1,0,0:0:0:0:
192,192,103048,1,0,0:0:0:0:
320,192,103129,1,0,0:0:0:0:
320,192,103291,1,0,0:0:0:0:
64,192,103372,1,0,0:0:0:0:
192,192,103372,1,0,0:0:0:0:
320,192,103535,1,0,0:0:0:0:
448,192,103616,1,0,0:0:0:0:
64,192,103697,1,0,0:0:0:0:
320,0,103697,128,0,103940:1:0:0:0:
192,192,103940,1,0,0:0:0:0:
64,192,104021,1,0,0:0:0:0:
448,192,104021,1,0,0:0:0:0:
320,192,104102,1,0,0:0:0:0:
192,192,104183,1,0,0:0:0:0:
64,192,104264,1,0,0:0:0:0:
320,192,104345,1,0,0:0:0:0:
448,192,104345,1,0,0:0:0:0:
192,192,104507,1,0,0:0:0:0:
64,192,104589,1,0,0:0:0:0:
192,192,104670,1,0,0:0:0:0:
320,192,104670,1,0,0:0:0:0:
448,192,104832,1,0,0:0:0:0:
64,192,104913,1,0,0:0:0:0:
192,192,104913,1,0,0:0:0:0:
320,192,104994,1,0,0:0:0:0:
448,192,104994,1,0,0:0:0:0:
192,192,105156,1,0,0:0:0:0:
320,192,105156,1,0,0:0:0:0:
64,192,105318,1,0,0:0:0:0:
192,192,105318,1,0,0:0:0:0:
192,192,105480,1,0,0:0:0:0:
320,192,105480,1,0,0:0:0:0:
320,192,105643,1,0,0:0:0:0:
448,192,105643,1,0,0:0:0:0:
192,192,105805,1,0,0:0:0:0:
64,192,105886,1,0,0:0:0:0:
192,192,105967,1,0,0:0:0:0:
320,192,105967,1,0,0:0:0:0:
448,192,106129,1,0,0:0:0:0:
64,192,106210,1,0,0:0:0:0:
320,192,106210,1,0,0:0:0:0:
192,192,106291,1,0,0:0:0:0:
448,192,106291,1,0,0:0:0:0:
320,192,106453,1,0,0:0:0:0:
448,192,106453,1,0,0:0:0:0:
64,192,106616,1,0,0:0:0:0:
448,192,106616,1,0,0:0:0:0:
320,192,106778,1,0,0:0:0:0:
448,192,106778,1,0,0:0:0:0:
192,192,106940,1,0,0:0:0:0:
448,192,106940,1,0,0:0:0:0:
320,192,107021,1,0,0:0:0:0:
192,192,107102,1,0,0:0:0:0:
320,192,107183,1,0,0:0:0:0:
64,192,107264,1,0,0:0:0:0:
448,192,107264,1,0,0:0:0:0:
192,192,107345,1,0,0:0:0:0:
64,192,107426,1,0,0:0:0:0:
192,192,107507,1,0,0:0:0:0:
320,192,107588,1,0,0:0:0:0:
448,192,107588,1,0,0:0:0:0:
192,192,107642,1,0,0:0:0:0:
64,192,107697,1,0,0:0:0:0:
320,192,107751,1,0,0:0:0:0:
192,192,107805,1,0,0:0:0:0:
64,192,107859,1,0,0:0:0:0:
192,192,107913,1,0,0:0:0:0:
320,192,107913,1,0,0:0:0:0:
448,192,107967,1,0,0:0:0:0:
320,192,108021,1,0,0:0:0:0:
192,192,108075,1,0,0:0:0:0:
64,192,108129,1,0,0:0:0:0:
448,192,108183,1,0,0:0:0:0:
64,192,108237,1,0,0:0:0:0:
320,192,108237,1,0,0:0:0:0:
64,192,108399,1,0,0:0:0:0:
320,192,108399,1,0,0:0:0:0:
192,192,108561,1,0,0:0:0:0:
320,192,108561,1,0,0:0:0:0:
192,192,108724,1,0,0:0:0:0:
320,192,108724,1,0,0:0:0:0:
320,192,108886,1,0,0:0:0:0:
448,192,108886,1,0,0:0:0:0:
192,192,109048,1,0,0:0:0:0:
320,192,109129,1,0,0:0:0:0:
64,192,109210,1,0,0:0:0:0:
448,192,109210,1,0,0:0:0:0:
192,192,109291,1,0,0:0:0:0:
320,192,109372,1,0,0:0:0:0:
192,192,109453,1,0,0:0:0:0:
64,192,109534,1,0,0:0:0:0:
320,192,109534,1,0,0:0:0:0:
64,192,109697,1,0,0:0:0:0:
320,192,109697,1,0,0:0:0:0:
64,192,109859,1,0,0:0:0:0:
192,192,109859,1,0,0:0:0:0:
64,192,110021,1,0,0:0:0:0:
320,192,110021,1,0,0:0:0:0:
192,192,110183,1,0,0:0:0:0:
320,192,110183,1,0,0:0:0:0:
192,192,110345,1,0,0:0:0:0:
320,192,110345,1,0,0:0:0:0:
448,192,110399,1,0,0:0:0:0:
192,192,110453,1,0,0:0:0:0:
64,192,110507,1,0,0:0:0:0:
320,192,110507,1,0,0:0:0:0:
192,192,110669,1,0,0:0:0:0:
320,192,110669,1,0,0:0:0:0:
448,192,110724,1,0,0:0:0:0:
320,192,110778,1,0,0:0:0:0:
192,192,110832,1,0,0:0:0:0:
448,192,110832,1,0,0:0:0:0:
192,192,110994,1,0,0:0:0:0:
448,192,110994,1,0,0:0:0:0:
192,192,111156,1,0,0:0:0:0:
320,192,111156,1,0,0:0:0:0:
192,192,111318,1,0,0:0:0:0:
448,192,111318,1,0,0:0:0:0:
320,192,111480,1,0,0:0:0:0:
448,192,111480,1,0,0:0:0:0:
320,192,111642,1,0,0:0:0:0:
448,192,111642,1,0,0:0:0:0:
192,192,111697,1,0,0:0:0:0:
64,192,111751,1,0,0:0:0:0:
192,192,111805,1,0,0:0:0:0:
448,192,111805,1,0,0:0:0:0:
320,192,111967,1,0,0:0:0:0:
448,192,111967,1,0,0:0:0:0:
192,192,112021,1,0,0:0:0:0:
320,192,112075,1,0,0:0:0:0:
64,192,112129,1,0,0:0:0:0:
448,192,112129,1,0,0:0:0:0:
192,192,112210,1,0,0:0:0:0:
320,192,112291,1,0,0:0:0:0:
64,192,112372,1,0,0:0:0:0:
448,192,112453,1,0,0:0:0:0:
192,192,112534,1,0,0:0:0:0:
448,192,112615,1,0,0:0:0:0:
320,192,112669,1,0,0:0:0:0:
192,192,112723,1,0,0:0:0:0:
320,192,112777,1,0,0:0:0:0:
192,192,112859,1,0,0:0:0:0:
448,192,112940,1,0,0:0:0:0:
192,192,113021,1,0,0:0:0:0:
320,192,113102,1,0,0:0:0:0:
64,192,113183,1,0,0:0:0:0:
448,192,113264,1,0,0:0:0:0:
320,192,113318,1,0,0:0:0:0:
192,192,113372,1,0,0:0:0:0:
320,192,113426,1,0,0:0:0:0:
448,192,113426,1,0,0:0:0:0:
64,192,113507,1,0,0:0:0:0:
320,192,113588,1,0,0:0:0:0:
448,192,113588,1,0,0:0:0:0:
64,192,113669,1,0,0:0:0:0:
320,192,113750,1,0,0:0:0:0:
448,192,113750,1,0,0:0:0:0:
64,192,113831,1,0,0:0:0:0:
320,192,113912,1,0,0:0:0:0:
448,192,113912,1,0,0:0:0:0:
64,192,113993,1,0,0:0:0:0:
192,192,114075,1,0,0:0:0:0:
320,192,114075,1,0,0:0:0:0:
192,192,114183,1,0,0:0:0:0:
320,192,114183,1,0,0:0:0:0:
192,192,114291,1,0,0:0:0:0:
320,192,114291,1,0,0:0:0:0:
64,192,114399,1,0,0:0:0:0:
448,192,114399,1,0,0:0:0:0:
64,192,114507,1,0,0:0:0:0:
448,192,114507,1,0,0:0:0:0:
64,192,114615,1,0,0:0:0:0:
448,192,114615,1,0,0:0:0:0:
192,192,115048,1,0,0:0:0:0:
64,0,115048,128,0,119912:1:0:0:0:
448,0,115048,128,0,119912:1:0:0:0:
