osu file format v13

[General]
AudioFilename: Black Cloak Skeleton.ogg
AudioLeadIn: 2
PreviewTime: 440
Countdown: 0
SampleSet: None
StackLeniency: 0.7
Mode: 3
LetterboxInBreaks: 0
SpecialStyle: 0
WidescreenStoryboard: 0

[Editor]
DistanceSpacing: 0.8
BeatDivisor: 4
GridSize: 8
TimelineZoom: 1

[Metadata]
Title:Yolomania Vol. 3A
TitleUnicode:Yolomania Vol. 3A
Artist:Various
ArtistUnicode:Various
Creator:Fullerene-
Version:Bach ft. West Village - Black Cloak Skeleton [porkypink] 13
Source:
Tags:Stepmania yolo3 volume
BeatmapID:563156
BeatmapSetID:243027

[Difficulty]
HPDrainRate:8
CircleSize:4
OverallDifficulty:5
ApproachRate:10
SliderMultiplier:1.4
SliderTickRate:1

[Events]
//Background and Video events
0,0,"black cloak skeleton.jpg",0,0
//Break Periods
//Storyboard Layer 0 (Background)
//Storyboard Layer 1 (Fail)
//Storyboard Layer 2 (Pass)
//Storyboard Layer 3 (Foreground)
//Storyboard Sound Samples

[TimingPoints]
145,461.538,4,1,0,15,1,0
145,-100.0001000001,4,1,0,15,0,0
19068,451.362,4,1,0,15,1,0
19068,-102.254611938635,4,1,0,15,0,0
19519,474.605,4,1,0,15,1,0
19519,-97.2468603445943,4,1,0,15,0,0
19994,461.538,4,1,0,15,1,0
19994,-100.0001000001,4,1,0,15,0,0
20455,451.362,4,1,0,15,1,0
20455,-102.254611938635,4,1,0,15,0,0
20906,470.249,4,1,0,15,1,0
20906,-98.1476752823422,4,1,0,15,0,0
21377,461.538,4,1,0,15,1,0
21377,-100.0001000001,4,1,0,15,0,0
35684,457.188,4,1,0,15,1,0
35684,-100.951569494051,4,1,0,15,0,0
36142,461.538,4,1,0,15,1,0
36142,-100.0001000001,4,1,0,15,0,0
37526,467.348,4,1,0,15,1,0
37526,-98.7569138069407,4,1,0,15,0,0
37994,461.538,4,1,0,15,1,0
37994,-100.0001000001,4,1,0,15,0,0
42609,473.153,4,1,0,15,1,0
42609,-97.5452890583937,4,1,0,15,0,0
43082,457.188,4,1,0,15,1,0
43082,-100.951569494051,4,1,0,15,0,0
43539,461.538,4,1,0,15,1,0
43539,-100.0001000001,4,1,0,15,0,0
57385,468.798,4,1,0,15,1,0
57385,-98.4514570323384,4,1,0,15,0,0
57854,448.481,4,1,0,15,1,0
57854,-102.911486002408,4,1,0,15,0,0
58303,461.538,4,1,0,15,1,0
58303,-100.0001000001,4,1,0,15,0,0
59687,467.348,4,1,0,15,1,0
59687,-98.7569138069407,4,1,0,15,0,0
60155,461.538,4,1,0,15,1,0
60155,-100.0001000001,4,1,0,15,0,0
63385,460.091,4,1,0,15,1,0
63385,-100.314603315097,4,1,0,15,0,0
63846,495.622,4,1,0,15,1,0
63846,-93.1230779784718,4,1,0,15,0,0
64341,433.241,4,1,0,15,1,0
64341,-106.531575159891,4,1,0,15,0,0
64774,461.542,4,1,0,15,1,0
64774,-99.9992333392111,4,1,0,15,0,0
65697,460.07,4,1,0,15,1,0
65697,-100.319182198027,4,1,0,15,0,0
66158,461.538,4,1,0,15,1,0
66158,-100.0001000001,4,1,0,15,0,0
66619,465.896,4,1,0,15,1,0
66619,-99.0646971724294,4,1,0,15,0,0
67085,461.538,4,1,0,15,1,0
67085,-100.0001000001,4,1,0,15,0,0
68008,448.481,4,1,0,15,1,0
68008,-102.911486002408,4,1,0,15,0,0
68457,461.538,4,1,0,15,1,0
68457,-100.0001000001,4,1,0,15,0,0
68918,462.992,4,1,0,15,1,0
68918,-99.6860553829141,4,1,0,15,0,0
69381,461.538,4,1,0,15,1,0
69381,-100.0001000001,4,1,0,15,0,0
69843,470.249,4,1,0,15,1,0
69843,-98.1476752823422,4,1,0,15,0,0
70313,461.538,4,1,0,15,1,0
70313,-100.0001000001,4,1,0,15,0,0
70774,457.188,4,1,0,15,1,0
70774,-100.951569494051,4,1,0,15,0,0
71232,454.263,4,1,0,15,1,0
71232,-101.601596770695,4,1,0,15,0,0
71686,467.348,4,1,0,15,1,0
71686,-98.7569138069407,4,1,0,15,0,0
72153,461.538,4,1,0,15,1,0
72153,-100.0001000001,4,1,0,15,0,0
73538,462.992,4,1,0,15,1,0
73538,-99.6860553829141,4,1,0,15,0,0
74001,458.638,4,1,0,15,1,0
74001,-100.632407593453,4,1,0,15,0,0
74459,461.538,4,1,0,15,1,0
74459,-100.0001000001,4,1,0,15,0,0
74921,464.421,4,1,0,15,1,0
74921,-99.3793264168635,4,1,0,15,0,0
75385,461.538,4,1,0,15,1,0
75385,-100.0001000001,4,1,0,15,0,0
75847,455.737,4,1,0,15,1,0
75847,-101.272984536797,4,1,0,15,0,0
76303,465.896,4,1,0,15,1,0
76303,-99.0646971724294,4,1,0,15,0,0
76769,461.538,4,1,0,15,1,0
76769,-100.0001000001,4,1,0,15,0,0
80461,471.68,4,1,0,15,1,0
80461,-97.8499112827471,4,1,0,15,0,0
80933,447.031,4,1,0,15,1,0
80933,-103.245292057701,4,1,0,15,0,0
81380,461.538,4,1,0,15,1,0
81380,-100.0001000001,4,1,0,15,0,0
82764,473.153,4,1,0,15,1,0
82764,-97.5452890583937,4,1,0,15,0,0
83237,461.538,4,1,0,15,1,0
83237,-100.0001000001,4,1,0,15,0,0
83699,457.188,4,1,0,15,1,0
83699,-100.951569494051,4,1,0,15,0,0
84156,470.227,4,1,0,15,1,0
84156,-98.152267211041,4,1,0,15,0,0
84626,461.538,4,1,0,15,1,0
84626,-100.0001000001,4,1,0,15,0,0
87857,451.362,4,1,0,15,1,0
87857,-102.254611938635,4,1,0,15,0,0
88308,461.538,4,1,0,15,1,0
88308,-100.0001000001,4,1,0,15,0,0
89232,465.896,4,1,0,15,1,0
89232,-99.0646971724294,4,1,0,15,0,0
89697,461.538,4,1,0,15,1,0
89697,-100.0001000001,4,1,0,15,0,0
92928,447.031,4,1,0,15,1,0
92928,-103.245292057701,4,1,0,15,0,0
93375,468.776,4,1,0,15,1,0
93375,-98.4560774311103,4,1,0,15,0,0
93844,474.605,4,1,0,15,1,0
93844,-97.2468603445943,4,1,0,15,0,0
94319,447.031,4,1,0,15,1,0
94319,-103.245292057701,4,1,0,15,0,0
94766,461.538,4,1,0,15,1,0
94766,-100.0001000001,4,1,0,15,0,0
105843,465.896,4,1,0,15,1,0
105843,-99.0646971724294,4,1,0,15,0,0
106308,461.538,4,1,0,15,1,0
106308,-100.0001000001,4,1,0,15,0,0
110001,428.165,4,1,0,15,1,0
110001,-107.794532840952,4,1,0,15,0,0
110429,461.538,4,1,0,15,1,0
110429,-100.0001000001,4,1,0,15,0,0
111352,468.798,4,1,0,15,1,0
111352,-98.4514570323384,4,1,0,15,0,0
111821,454.287,4,1,0,15,1,0
111821,-101.596229154359,4,1,0,15,0,0
112275,474.605,4,1,0,15,1,0
112275,-97.2468603445943,4,1,0,15,0,0
112750,449.934,4,1,0,15,1,0
112750,-102.579147505737,4,1,0,15,0,0
113200,464.443,4,1,0,15,1,0
113200,-99.3746189604454,4,1,0,15,0,0
113664,461.538,4,1,0,15,1,0
113664,-100.0001000001,4,1,0,15,0,0

[HitObjects]
192,0,433,128,0,952:1:0:0:0:
64,0,548,128,0,952:1:0:0:0:
192,192,1068,1,0,0:0:0:0:
320,192,1068,1,0,0:0:0:0:
448,192,1068,1,0,0:0:0:0:
320,192,1183,1,0,0:0:0:0:
448,192,1183,1,0,0:0:0:0:
192,192,1298,1,0,0:0:0:0:
64,192,1414,1,0,0:0:0:0:
320,192,1414,1,0,0:0:0:0:
448,192,1414,1,0,0:0:0:0:
192,192,1529,1,0,0:0:0:0:
448,192,1644,1,0,0:0:0:0:
64,192,1760,1,0,0:0:0:0:
192,192,1760,1,0,0:0:0:0:
320,192,1760,1,0,0:0:0:0:
448,192,1875,1,0,0:0:0:0:
64,192,1991,1,0,0:0:0:0:
192,192,1991,1,0,0:0:0:0:
320,192,1991,1,0,0:0:0:0:
64,192,2106,1,0,0:0:0:0:
192,192,2106,1,0,0:0:0:0:
320,192,2221,1,0,0:0:0:0:
64,192,2337,1,0,0:0:0:0:
192,192,2337,1,0,0:0:0:0:
448,192,2337,1,0,0:0:0:0:
320,192,2452,1,0,0:0:0:0:
64,192,2568,1,0,0:0:0:0:
192,192,2683,1,0,0:0:0:0:
448,192,2683,1,0,0:0:0:0:
64,192,2914,1,0,0:0:0:0:
320,192,2914,1,0,0:0:0:0:
448,192,2914,1,0,0:0:0:0:
320,192,3029,1,0,0:0:0:0:
448,192,3029,1,0,0:0:0:0:
64,192,3144,1,0,0:0:0:0:
192,192,3144,1,0,0:0:0:0:
64,192,3260,1,0,0:0:0:0:
192,192,3260,1,0,0:0:0:0:
320,192,3375,1,0,0:0:0:0:
448,192,3375,1,0,0:0:0:0:
192,192,3491,1,0,0:0:0:0:
448,192,3491,1,0,0:0:0:0:
64,192,3606,1,0,0:0:0:0:
320,192,3606,1,0,0:0:0:0:
64,192,3721,1,0,0:0:0:0:
192,192,3721,1,0,0:0:0:0:
320,192,3837,1,0,0:0:0:0:
448,192,3837,1,0,0:0:0:0:
320,192,3952,1,0,0:0:0:0:
448,192,3952,1,0,0:0:0:0:
64,192,4068,1,0,0:0:0:0:
192,192,4068,1,0,0:0:0:0:
64,192,4183,1,0,0:0:0:0:
192,192,4183,1,0,0:0:0:0:
320,192,4298,1,0,0:0:0:0:
448,192,4298,1,0,0:0:0:0:
192,192,4414,1,0,0:0:0:0:
448,192,4414,1,0,0:0:0:0:
64,192,4529,1,0,0:0:0:0:
320,192,4529,1,0,0:0:0:0:
64,192,4644,1,0,0:0:0:0:
192,192,4644,1,0,0:0:0:0:
320,192,4760,1,0,0:0:0:0:
448,192,4760,1,0,0:0:0:0:
320,192,4875,1,0,0:0:0:0:
448,192,4875,1,0,0:0:0:0:
64,192,4991,1,0,0:0:0:0:
192,192,4991,1,0,0:0:0:0:
64,192,5106,1,0,0:0:0:0:
192,192,5106,1,0,0:0:0:0:
320,192,5221,1,0,0:0:0:0:
448,192,5221,1,0,0:0:0:0:
192,192,5337,1,0,0:0:0:0:
448,192,5337,1,0,0:0:0:0:
64,192,5452,1,0,0:0:0:0:
320,192,5452,1,0,0:0:0:0:
64,192,5568,1,0,0:0:0:0:
192,192,5568,1,0,0:0:0:0:
320,192,5683,1,0,0:0:0:0:
448,192,5683,1,0,0:0:0:0:
320,192,5798,1,0,0:0:0:0:
448,192,5798,1,0,0:0:0:0:
64,192,5914,1,0,0:0:0:0:
192,192,5914,1,0,0:0:0:0:
192,192,6029,1,0,0:0:0:0:
448,192,6029,1,0,0:0:0:0:
192,192,6144,1,0,0:0:0:0:
448,192,6144,1,0,0:0:0:0:
64,192,6260,1,0,0:0:0:0:
320,192,6260,1,0,0:0:0:0:
320,192,6375,1,0,0:0:0:0:
448,192,6375,1,0,0:0:0:0:
320,192,6491,1,0,0:0:0:0:
448,192,6491,1,0,0:0:0:0:
64,192,6606,1,0,0:0:0:0:
192,192,6606,1,0,0:0:0:0:
64,192,6721,1,0,0:0:0:0:
192,192,6721,1,0,0:0:0:0:
320,192,6837,1,0,0:0:0:0:
448,192,6837,1,0,0:0:0:0:
320,192,6952,1,0,0:0:0:0:
448,192,6952,1,0,0:0:0:0:
64,192,7068,1,0,0:0:0:0:
192,192,7068,1,0,0:0:0:0:
64,192,7183,1,0,0:0:0:0:
320,192,7183,1,0,0:0:0:0:
192,192,7298,1,0,0:0:0:0:
448,192,7298,1,0,0:0:0:0:
320,192,7414,1,0,0:0:0:0:
448,192,7414,1,0,0:0:0:0:
64,192,7529,1,0,0:0:0:0:
192,192,7529,1,0,0:0:0:0:
64,192,7644,1,0,0:0:0:0:
192,192,7644,1,0,0:0:0:0:
320,192,7760,1,0,0:0:0:0:
448,192,7760,1,0,0:0:0:0:
320,192,7875,1,0,0:0:0:0:
448,192,7875,1,0,0:0:0:0:
64,192,7991,1,0,0:0:0:0:
192,192,7991,1,0,0:0:0:0:
64,192,8106,1,0,0:0:0:0:
320,192,8106,1,0,0:0:0:0:
192,192,8221,1,0,0:0:0:0:
448,192,8221,1,0,0:0:0:0:
320,192,8337,1,0,0:0:0:0:
448,192,8337,1,0,0:0:0:0:
64,192,8452,1,0,0:0:0:0:
320,192,8452,1,0,0:0:0:0:
448,192,8452,1,0,0:0:0:0:
64,192,8568,1,0,0:0:0:0:
192,192,8568,1,0,0:0:0:0:
64,192,8683,1,0,0:0:0:0:
192,192,8683,1,0,0:0:0:0:
64,192,8798,1,0,0:0:0:0:
192,192,8798,1,0,0:0:0:0:
320,192,8914,1,0,0:0:0:0:
448,192,8914,1,0,0:0:0:0:
64,192,9029,1,0,0:0:0:0:
192,192,9029,1,0,0:0:0:0:
64,192,9144,1,0,0:0:0:0:
192,192,9144,1,0,0:0:0:0:
64,192,9260,1,0,0:0:0:0:
192,192,9260,1,0,0:0:0:0:
448,192,9375,1,0,0:0:0:0:
192,192,9433,1,0,0:0:0:0:
448,192,9491,1,0,0:0:0:0:
192,192,9548,1,0,0:0:0:0:
320,192,9606,1,0,0:0:0:0:
64,192,9664,1,0,0:0:0:0:
448,192,9721,1,0,0:0:0:0:
64,192,9779,1,0,0:0:0:0:
448,192,9837,1,0,0:0:0:0:
64,192,9894,1,0,0:0:0:0:
448,192,9952,1,0,0:0:0:0:
320,192,10010,1,0,0:0:0:0:
192,192,10068,1,0,0:0:0:0:
64,192,10125,1,0,0:0:0:0:
320,192,10183,1,0,0:0:0:0:
448,192,10241,1,0,0:0:0:0:
64,192,10298,1,0,0:0:0:0:
192,192,10298,1,0,0:0:0:0:
320,192,10298,1,0,0:0:0:0:
64,192,10414,1,0,0:0:0:0:
192,192,10414,1,0,0:0:0:0:
320,192,10529,1,0,0:0:0:0:
64,192,10644,1,0,0:0:0:0:
192,192,10644,1,0,0:0:0:0:
320,192,10760,1,0,0:0:0:0:
192,192,10875,1,0,0:0:0:0:
448,192,10875,1,0,0:0:0:0:
320,192,10991,1,0,0:0:0:0:
192,192,11106,1,0,0:0:0:0:
448,192,11106,1,0,0:0:0:0:
64,192,11221,1,0,0:0:0:0:
192,192,11221,1,0,0:0:0:0:
64,192,11337,1,0,0:0:0:0:
192,192,11337,1,0,0:0:0:0:
448,192,11452,1,0,0:0:0:0:
192,192,11568,1,0,0:0:0:0:
320,192,11568,1,0,0:0:0:0:
448,192,11683,1,0,0:0:0:0:
64,192,11798,1,0,0:0:0:0:
192,192,11798,1,0,0:0:0:0:
448,192,11914,1,0,0:0:0:0:
64,192,12029,1,0,0:0:0:0:
192,192,12029,1,0,0:0:0:0:
320,192,12144,1,0,0:0:0:0:
448,192,12144,1,0,0:0:0:0:
320,192,12260,1,0,0:0:0:0:
448,192,12260,1,0,0:0:0:0:
192,192,12375,1,0,0:0:0:0:
320,192,12491,1,0,0:0:0:0:
448,192,12491,1,0,0:0:0:0:
192,192,12606,1,0,0:0:0:0:
64,192,12721,1,0,0:0:0:0:
320,192,12721,1,0,0:0:0:0:
192,192,12837,1,0,0:0:0:0:
64,192,12952,1,0,0:0:0:0:
320,192,12952,1,0,0:0:0:0:
448,192,13068,1,0,0:0:0:0:
192,192,13183,1,0,0:0:0:0:
448,192,13183,1,0,0:0:0:0:
320,192,13298,1,0,0:0:0:0:
64,192,13414,1,0,0:0:0:0:
320,192,13414,1,0,0:0:0:0:
192,192,13529,1,0,0:0:0:0:
192,192,13644,1,0,0:0:0:0:
448,192,13644,1,0,0:0:0:0:
64,192,13760,1,0,0:0:0:0:
64,192,13875,1,0,0:0:0:0:
320,192,13875,1,0,0:0:0:0:
320,192,13991,1,0,0:0:0:0:
448,192,13991,1,0,0:0:0:0:
320,192,14106,1,0,0:0:0:0:
448,192,14106,1,0,0:0:0:0:
192,192,14221,1,0,0:0:0:0:
320,192,14337,1,0,0:0:0:0:
448,192,14337,1,0,0:0:0:0:
192,192,14452,1,0,0:0:0:0:
64,192,14568,1,0,0:0:0:0:
448,192,14568,1,0,0:0:0:0:
320,192,14683,1,0,0:0:0:0:
64,192,14798,1,0,0:0:0:0:
448,192,14798,1,0,0:0:0:0:
64,192,14914,1,0,0:0:0:0:
192,192,14914,1,0,0:0:0:0:
64,192,15029,1,0,0:0:0:0:
192,192,15029,1,0,0:0:0:0:
320,192,15144,1,0,0:0:0:0:
64,192,15260,1,0,0:0:0:0:
192,192,15260,1,0,0:0:0:0:
320,192,15375,1,0,0:0:0:0:
64,192,15491,1,0,0:0:0:0:
448,192,15491,1,0,0:0:0:0:
192,192,15606,1,0,0:0:0:0:
64,192,15721,1,0,0:0:0:0:
448,192,15721,1,0,0:0:0:0:
64,192,15837,1,0,0:0:0:0:
320,192,15837,1,0,0:0:0:0:
448,192,15837,1,0,0:0:0:0:
192,192,15952,1,0,0:0:0:0:
192,192,16068,1,0,0:0:0:0:
192,192,16183,1,0,0:0:0:0:
320,192,16298,1,0,0:0:0:0:
448,192,16298,1,0,0:0:0:0:
64,192,16414,1,0,0:0:0:0:
64,192,16529,1,0,0:0:0:0:
64,192,16644,1,0,0:0:0:0:
320,192,16760,1,0,0:0:0:0:
192,192,16818,1,0,0:0:0:0:
320,192,16875,1,0,0:0:0:0:
192,192,16933,1,0,0:0:0:0:
64,192,16991,1,0,0:0:0:0:
448,192,17048,1,0,0:0:0:0:
320,192,17106,1,0,0:0:0:0:
192,192,17164,1,0,0:0:0:0:
320,192,17221,1,0,0:0:0:0:
192,192,17279,1,0,0:0:0:0:
64,192,17337,1,0,0:0:0:0:
448,192,17394,1,0,0:0:0:0:
320,192,17452,1,0,0:0:0:0:
64,192,17510,1,0,0:0:0:0:
192,192,17568,1,0,0:0:0:0:
320,192,17625,1,0,0:0:0:0:
448,192,17683,1,0,0:0:0:0:
448,192,17914,1,0,0:0:0:0:
448,192,18144,1,0,0:0:0:0:
448,192,18375,1,0,0:0:0:0:
448,192,18606,1,0,0:0:0:0:
448,192,18837,1,0,0:0:0:0:
448,192,19068,1,0,0:0:0:0:
448,192,19293,1,0,0:0:0:0:
448,192,19519,1,0,0:0:0:0:
448,192,19756,1,0,0:0:0:0:
448,192,19994,1,0,0:0:0:0:
448,192,20224,1,0,0:0:0:0:
64,192,20455,1,0,0:0:0:0:
192,192,20455,1,0,0:0:0:0:
192,192,20568,1,0,0:0:0:0:
448,192,20568,1,0,0:0:0:0:
192,192,20681,1,0,0:0:0:0:
448,192,20681,1,0,0:0:0:0:
64,192,20794,1,0,0:0:0:0:
320,192,20794,1,0,0:0:0:0:
64,192,20906,1,0,0:0:0:0:
320,192,20906,1,0,0:0:0:0:
320,192,21024,1,0,0:0:0:0:
448,192,21024,1,0,0:0:0:0:
64,192,21377,1,0,0:0:0:0:
192,192,21377,1,0,0:0:0:0:
448,192,21377,1,0,0:0:0:0:
320,192,21492,1,0,0:0:0:0:
64,192,21607,1,0,0:0:0:0:
320,192,21723,1,0,0:0:0:0:
448,192,21723,1,0,0:0:0:0:
64,192,21838,1,0,0:0:0:0:
320,192,21954,1,0,0:0:0:0:
448,192,21954,1,0,0:0:0:0:
192,192,22069,1,0,0:0:0:0:
64,192,22184,1,0,0:0:0:0:
320,192,22184,1,0,0:0:0:0:
192,192,22300,1,0,0:0:0:0:
320,192,22415,1,0,0:0:0:0:
448,192,22415,1,0,0:0:0:0:
192,192,22531,1,0,0:0:0:0:
448,192,22646,1,0,0:0:0:0:
192,192,22761,1,0,0:0:0:0:
448,192,22877,1,0,0:0:0:0:
192,192,22992,1,0,0:0:0:0:
448,192,23107,1,0,0:0:0:0:
64,192,23223,1,0,0:0:0:0:
320,192,23223,1,0,0:0:0:0:
320,192,23338,1,0,0:0:0:0:
448,192,23454,1,0,0:0:0:0:
192,192,23569,1,0,0:0:0:0:
448,192,23684,1,0,0:0:0:0:
192,192,23800,1,0,0:0:0:0:
448,192,23915,1,0,0:0:0:0:
448,192,24031,1,0,0:0:0:0:
192,192,24146,1,0,0:0:0:0:
192,192,24261,1,0,0:0:0:0:
320,192,24377,1,0,0:0:0:0:
64,192,24492,1,0,0:0:0:0:
320,192,24607,1,0,0:0:0:0:
64,192,24723,1,0,0:0:0:0:
192,192,24838,1,0,0:0:0:0:
448,192,24838,1,0,0:0:0:0:
64,192,24954,1,0,0:0:0:0:
320,192,25069,1,0,0:0:0:0:
448,192,25069,1,0,0:0:0:0:
448,192,25184,1,0,0:0:0:0:
64,192,25300,1,0,0:0:0:0:
320,192,25415,1,0,0:0:0:0:
448,192,25415,1,0,0:0:0:0:
64,192,25531,1,0,0:0:0:0:
320,192,25646,1,0,0:0:0:0:
448,192,25646,1,0,0:0:0:0:
192,192,25761,1,0,0:0:0:0:
64,192,25877,1,0,0:0:0:0:
320,192,25877,1,0,0:0:0:0:
192,192,25992,1,0,0:0:0:0:
320,192,26107,1,0,0:0:0:0:
448,192,26107,1,0,0:0:0:0:
64,192,26223,1,0,0:0:0:0:
320,192,26338,1,0,0:0:0:0:
64,192,26454,1,0,0:0:0:0:
320,192,26569,1,0,0:0:0:0:
64,192,26684,1,0,0:0:0:0:
320,192,26800,1,0,0:0:0:0:
64,192,26915,1,0,0:0:0:0:
192,192,26915,1,0,0:0:0:0:
64,192,27031,1,0,0:0:0:0:
448,192,27146,1,0,0:0:0:0:
192,192,27261,1,0,0:0:0:0:
448,192,27377,1,0,0:0:0:0:
192,192,27492,1,0,0:0:0:0:
448,192,27607,1,0,0:0:0:0:
192,192,27723,1,0,0:0:0:0:
448,192,27838,1,0,0:0:0:0:
192,192,27915,1,0,0:0:0:0:
320,192,27954,1,0,0:0:0:0:
448,192,27992,1,0,0:0:0:0:
192,192,28069,1,0,0:0:0:0:
320,192,28146,1,0,0:0:0:0:
64,192,28184,1,0,0:0:0:0:
192,192,28223,1,0,0:0:0:0:
448,192,28300,1,0,0:0:0:0:
192,192,28377,1,0,0:0:0:0:
320,192,28415,1,0,0:0:0:0:
448,192,28454,1,0,0:0:0:0:
192,192,28531,1,0,0:0:0:0:
320,192,28607,1,0,0:0:0:0:
64,192,28646,1,0,0:0:0:0:
192,192,28684,1,0,0:0:0:0:
320,192,28761,1,0,0:0:0:0:
448,192,28761,1,0,0:0:0:0:
192,192,28877,1,0,0:0:0:0:
448,192,28992,1,0,0:0:0:0:
64,192,29107,1,0,0:0:0:0:
192,192,29107,1,0,0:0:0:0:
448,192,29223,1,0,0:0:0:0:
64,192,29338,1,0,0:0:0:0:
192,192,29338,1,0,0:0:0:0:
320,192,29454,1,0,0:0:0:0:
64,192,29569,1,0,0:0:0:0:
448,192,29569,1,0,0:0:0:0:
320,192,29684,1,0,0:0:0:0:
64,192,29800,1,0,0:0:0:0:
448,192,29800,1,0,0:0:0:0:
192,192,29915,1,0,0:0:0:0:
448,192,30031,1,0,0:0:0:0:
64,192,30146,1,0,0:0:0:0:
448,192,30261,1,0,0:0:0:0:
64,192,30377,1,0,0:0:0:0:
448,192,30492,1,0,0:0:0:0:
64,192,30607,1,0,0:0:0:0:
320,192,30607,1,0,0:0:0:0:
320,192,30723,1,0,0:0:0:0:
192,192,30838,1,0,0:0:0:0:
320,192,30954,1,0,0:0:0:0:
192,192,31069,1,0,0:0:0:0:
320,192,31184,1,0,0:0:0:0:
192,192,31300,1,0,0:0:0:0:
192,192,31415,1,0,0:0:0:0:
320,192,31531,1,0,0:0:0:0:
320,192,31646,1,0,0:0:0:0:
64,192,31761,1,0,0:0:0:0:
448,192,31877,1,0,0:0:0:0:
64,192,31992,1,0,0:0:0:0:
448,192,32107,1,0,0:0:0:0:
64,192,32223,1,0,0:0:0:0:
192,192,32223,1,0,0:0:0:0:
448,192,32338,1,0,0:0:0:0:
192,192,32454,1,0,0:0:0:0:
320,192,32454,1,0,0:0:0:0:
320,192,32569,1,0,0:0:0:0:
64,192,32684,1,0,0:0:0:0:
192,192,32684,1,0,0:0:0:0:
192,192,32800,1,0,0:0:0:0:
448,192,32800,1,0,0:0:0:0:
320,192,32915,1,0,0:0:0:0:
192,192,33031,1,0,0:0:0:0:
448,192,33031,1,0,0:0:0:0:
320,192,33146,1,0,0:0:0:0:
64,192,33261,1,0,0:0:0:0:
192,192,33261,1,0,0:0:0:0:
448,192,33377,1,0,0:0:0:0:
64,192,33492,1,0,0:0:0:0:
192,192,33492,1,0,0:0:0:0:
448,192,33607,1,0,0:0:0:0:
64,192,33723,1,0,0:0:0:0:
448,192,33838,1,0,0:0:0:0:
64,192,33954,1,0,0:0:0:0:
448,192,34069,1,0,0:0:0:0:
64,192,34184,1,0,0:0:0:0:
64,192,34300,1,0,0:0:0:0:
448,192,34300,1,0,0:0:0:0:
320,192,34415,1,0,0:0:0:0:
192,192,34531,1,0,0:0:0:0:
320,192,34646,1,0,0:0:0:0:
192,192,34761,1,0,0:0:0:0:
320,192,34877,1,0,0:0:0:0:
192,192,34992,1,0,0:0:0:0:
320,192,35107,1,0,0:0:0:0:
448,192,35223,1,0,0:0:0:0:
320,192,35300,1,0,0:0:0:0:
448,192,35338,1,0,0:0:0:0:
192,192,35377,1,0,0:0:0:0:
64,192,35454,1,0,0:0:0:0:
320,192,35531,1,0,0:0:0:0:
192,192,35569,1,0,0:0:0:0:
64,192,35607,1,0,0:0:0:0:
448,192,35684,1,0,0:0:0:0:
320,192,35761,1,0,0:0:0:0:
448,192,35799,1,0,0:0:0:0:
192,192,35837,1,0,0:0:0:0:
64,192,35913,1,0,0:0:0:0:
320,192,35989,1,0,0:0:0:0:
192,192,36027,1,0,0:0:0:0:
64,192,36065,1,0,0:0:0:0:
192,0,36142,128,0,36430:1:0:0:0:
320,0,36142,128,0,36430:1:0:0:0:
448,0,36142,128,0,36430:1:0:0:0:
192,192,36488,1,0,0:0:0:0:
320,192,36488,1,0,0:0:0:0:
448,192,36488,1,0,0:0:0:0:
192,192,36834,1,0,0:0:0:0:
320,192,36834,1,0,0:0:0:0:
448,192,36834,1,0,0:0:0:0:
64,192,37065,1,0,0:0:0:0:
192,192,37142,1,0,0:0:0:0:
448,192,37218,1,0,0:0:0:0:
192,192,37295,1,0,0:0:0:0:
320,192,37372,1,0,0:0:0:0:
448,192,37449,1,0,0:0:0:0:
64,192,37526,1,0,0:0:0:0:
192,192,37604,1,0,0:0:0:0:
320,192,37682,1,0,0:0:0:0:
192,192,37760,1,0,0:0:0:0:
320,192,37838,1,0,0:0:0:0:
448,192,37916,1,0,0:0:0:0:
64,0,37994,128,0,38282:1:0:0:0:
192,0,37994,128,0,38282:1:0:0:0:
320,0,37994,128,0,38282:1:0:0:0:
64,192,38340,1,0,0:0:0:0:
192,192,38340,1,0,0:0:0:0:
320,192,38340,1,0,0:0:0:0:
64,192,38686,1,0,0:0:0:0:
192,192,38686,1,0,0:0:0:0:
320,192,38686,1,0,0:0:0:0:
448,192,38917,1,0,0:0:0:0:
192,192,38974,1,0,0:0:0:0:
320,192,38994,1,0,0:0:0:0:
64,192,39032,1,0,0:0:0:0:
448,192,39070,1,0,0:0:0:0:
320,192,39147,1,0,0:0:0:0:
192,192,39224,1,0,0:0:0:0:
448,192,39301,1,0,0:0:0:0:
192,192,39378,1,0,0:0:0:0:
320,192,39455,1,0,0:0:0:0:
192,192,39532,1,0,0:0:0:0:
64,192,39609,1,0,0:0:0:0:
448,192,39686,1,0,0:0:0:0:
320,192,39763,1,0,0:0:0:0:
64,0,39840,128,0,40128:1:0:0:0:
192,0,39840,128,0,40128:1:0:0:0:
448,0,39840,128,0,40128:1:0:0:0:
64,192,40186,1,0,0:0:0:0:
192,192,40186,1,0,0:0:0:0:
448,192,40186,1,0,0:0:0:0:
64,192,40532,1,0,0:0:0:0:
192,192,40532,1,0,0:0:0:0:
448,192,40532,1,0,0:0:0:0:
320,192,40763,1,0,0:0:0:0:
192,192,40840,1,0,0:0:0:0:
448,192,40917,1,0,0:0:0:0:
320,192,40994,1,0,0:0:0:0:
64,192,41070,1,0,0:0:0:0:
192,192,41147,1,0,0:0:0:0:
320,192,41224,1,0,0:0:0:0:
64,192,41301,1,0,0:0:0:0:
320,192,41378,1,0,0:0:0:0:
448,192,41455,1,0,0:0:0:0:
64,192,41532,1,0,0:0:0:0:
192,192,41609,1,0,0:0:0:0:
64,0,41686,128,0,41974:1:0:0:0:
320,0,41686,128,0,41974:1:0:0:0:
448,0,41686,128,0,41974:1:0:0:0:
64,192,42032,1,0,0:0:0:0:
320,192,42032,1,0,0:0:0:0:
448,192,42032,1,0,0:0:0:0:
64,192,42378,1,0,0:0:0:0:
320,192,42378,1,0,0:0:0:0:
448,192,42378,1,0,0:0:0:0:
448,192,42609,1,0,0:0:0:0:
192,192,42668,1,0,0:0:0:0:
448,192,42727,1,0,0:0:0:0:
64,192,42786,1,0,0:0:0:0:
320,192,42845,1,0,0:0:0:0:
64,192,42905,1,0,0:0:0:0:
192,192,42964,1,0,0:0:0:0:
64,192,43023,1,0,0:0:0:0:
448,192,43082,1,0,0:0:0:0:
64,192,43139,1,0,0:0:0:0:
320,192,43196,1,0,0:0:0:0:
192,192,43254,1,0,0:0:0:0:
448,192,43311,1,0,0:0:0:0:
320,192,43387,1,0,0:0:0:0:
192,192,43463,1,0,0:0:0:0:
64,192,43539,1,0,0:0:0:0:
320,192,43539,1,0,0:0:0:0:
448,192,43539,1,0,0:0:0:0:
64,192,43655,1,0,0:0:0:0:
192,192,43655,1,0,0:0:0:0:
320,192,43770,1,0,0:0:0:0:
64,192,43885,1,0,0:0:0:0:
192,192,43885,1,0,0:0:0:0:
320,192,44001,1,0,0:0:0:0:
64,192,44116,1,0,0:0:0:0:
448,192,44116,1,0,0:0:0:0:
192,192,44232,1,0,0:0:0:0:
64,192,44347,1,0,0:0:0:0:
448,192,44347,1,0,0:0:0:0:
320,192,44462,1,0,0:0:0:0:
448,192,44462,1,0,0:0:0:0:
320,192,44578,1,0,0:0:0:0:
448,192,44578,1,0,0:0:0:0:
192,192,44693,1,0,0:0:0:0:
320,192,44808,1,0,0:0:0:0:
448,192,44808,1,0,0:0:0:0:
192,192,44924,1,0,0:0:0:0:
64,192,45039,1,0,0:0:0:0:
448,192,45039,1,0,0:0:0:0:
320,192,45155,1,0,0:0:0:0:
64,192,45270,1,0,0:0:0:0:
448,192,45270,1,0,0:0:0:0:
64,192,45385,1,0,0:0:0:0:
192,192,45385,1,0,0:0:0:0:
320,192,45385,1,0,0:0:0:0:
64,192,45501,1,0,0:0:0:0:
192,192,45501,1,0,0:0:0:0:
320,192,45616,1,0,0:0:0:0:
64,192,45732,1,0,0:0:0:0:
320,192,45732,1,0,0:0:0:0:
448,192,45732,1,0,0:0:0:0:
192,192,45847,1,0,0:0:0:0:
320,192,45962,1,0,0:0:0:0:
448,192,45962,1,0,0:0:0:0:
192,192,46078,1,0,0:0:0:0:
320,192,46193,1,0,0:0:0:0:
448,192,46193,1,0,0:0:0:0:
64,192,46308,1,0,0:0:0:0:
192,192,46308,1,0,0:0:0:0:
320,192,46308,1,0,0:0:0:0:
64,192,46424,1,0,0:0:0:0:
192,192,46424,1,0,0:0:0:0:
448,192,46539,1,0,0:0:0:0:
64,192,46655,1,0,0:0:0:0:
320,192,46655,1,0,0:0:0:0:
448,192,46655,1,0,0:0:0:0:
192,192,46770,1,0,0:0:0:0:
320,192,46885,1,0,0:0:0:0:
448,192,46885,1,0,0:0:0:0:
192,192,47001,1,0,0:0:0:0:
320,192,47116,1,0,0:0:0:0:
448,192,47116,1,0,0:0:0:0:
64,192,47232,1,0,0:0:0:0:
192,192,47232,1,0,0:0:0:0:
448,192,47232,1,0,0:0:0:0:
64,192,47347,1,0,0:0:0:0:
192,192,47347,1,0,0:0:0:0:
320,192,47462,1,0,0:0:0:0:
64,192,47578,1,0,0:0:0:0:
192,192,47578,1,0,0:0:0:0:
320,192,47693,1,0,0:0:0:0:
448,192,47693,1,0,0:0:0:0:
64,192,47808,1,0,0:0:0:0:
448,192,47808,1,0,0:0:0:0:
192,192,47924,1,0,0:0:0:0:
64,192,48039,1,0,0:0:0:0:
448,192,48039,1,0,0:0:0:0:
320,192,48155,1,0,0:0:0:0:
448,192,48155,1,0,0:0:0:0:
320,192,48270,1,0,0:0:0:0:
448,192,48270,1,0,0:0:0:0:
64,192,48385,1,0,0:0:0:0:
192,192,48385,1,0,0:0:0:0:
64,192,48501,1,0,0:0:0:0:
448,192,48501,1,0,0:0:0:0:
192,192,48616,1,0,0:0:0:0:
64,192,48732,1,0,0:0:0:0:
448,192,48732,1,0,0:0:0:0:
320,192,48847,1,0,0:0:0:0:
64,192,48962,1,0,0:0:0:0:
448,192,48962,1,0,0:0:0:0:
64,192,49078,1,0,0:0:0:0:
192,192,49078,1,0,0:0:0:0:
64,192,49193,1,0,0:0:0:0:
192,192,49193,1,0,0:0:0:0:
320,192,49308,1,0,0:0:0:0:
448,192,49308,1,0,0:0:0:0:
64,192,49424,1,0,0:0:0:0:
192,192,49424,1,0,0:0:0:0:
320,192,49539,1,0,0:0:0:0:
64,192,49655,1,0,0:0:0:0:
448,192,49655,1,0,0:0:0:0:
192,192,49770,1,0,0:0:0:0:
64,192,49885,1,0,0:0:0:0:
448,192,49885,1,0,0:0:0:0:
192,192,50001,1,0,0:0:0:0:
320,192,50058,1,0,0:0:0:0:
192,192,50116,1,0,0:0:0:0:
64,192,50174,1,0,0:0:0:0:
320,192,50232,1,0,0:0:0:0:
448,192,50289,1,0,0:0:0:0:
192,192,50347,1,0,0:0:0:0:
64,192,50405,1,0,0:0:0:0:
320,192,50462,1,0,0:0:0:0:
192,192,50520,1,0,0:0:0:0:
64,192,50578,1,0,0:0:0:0:
448,192,50635,1,0,0:0:0:0:
320,192,50693,1,0,0:0:0:0:
192,192,50751,1,0,0:0:0:0:
64,192,50808,1,0,0:0:0:0:
320,192,50866,1,0,0:0:0:0:
64,192,50924,1,0,0:0:0:0:
192,192,50924,1,0,0:0:0:0:
448,192,50924,1,0,0:0:0:0:
64,192,51039,1,0,0:0:0:0:
448,192,51039,1,0,0:0:0:0:
192,192,51155,1,0,0:0:0:0:
320,192,51155,1,0,0:0:0:0:
192,192,51270,1,0,0:0:0:0:
320,192,51385,1,0,0:0:0:0:
448,192,51385,1,0,0:0:0:0:
320,192,51501,1,0,0:0:0:0:
448,192,51501,1,0,0:0:0:0:
64,192,51616,1,0,0:0:0:0:
320,192,51616,1,0,0:0:0:0:
192,192,51732,1,0,0:0:0:0:
64,192,51847,1,0,0:0:0:0:
448,192,51847,1,0,0:0:0:0:
64,192,51962,1,0,0:0:0:0:
448,192,51962,1,0,0:0:0:0:
192,192,52078,1,0,0:0:0:0:
320,192,52078,1,0,0:0:0:0:
192,192,52193,1,0,0:0:0:0:
320,192,52308,1,0,0:0:0:0:
448,192,52308,1,0,0:0:0:0:
320,192,52424,1,0,0:0:0:0:
448,192,52424,1,0,0:0:0:0:
64,192,52539,1,0,0:0:0:0:
320,192,52539,1,0,0:0:0:0:
192,192,52655,1,0,0:0:0:0:
64,192,52770,1,0,0:0:0:0:
320,192,52770,1,0,0:0:0:0:
448,192,52770,1,0,0:0:0:0:
320,192,52885,1,0,0:0:0:0:
448,192,52885,1,0,0:0:0:0:
64,192,53001,1,0,0:0:0:0:
192,192,53001,1,0,0:0:0:0:
64,192,53116,1,0,0:0:0:0:
192,192,53116,1,0,0:0:0:0:
320,192,53116,1,0,0:0:0:0:
448,192,53232,1,0,0:0:0:0:
448,192,53347,1,0,0:0:0:0:
64,192,53462,1,0,0:0:0:0:
192,192,53462,1,0,0:0:0:0:
320,192,53578,1,0,0:0:0:0:
64,192,53693,1,0,0:0:0:0:
192,192,53693,1,0,0:0:0:0:
448,192,53693,1,0,0:0:0:0:
64,192,53808,1,0,0:0:0:0:
448,192,53808,1,0,0:0:0:0:
192,192,53924,1,0,0:0:0:0:
320,192,53924,1,0,0:0:0:0:
64,192,54039,1,0,0:0:0:0:
192,192,54039,1,0,0:0:0:0:
320,192,54039,1,0,0:0:0:0:
448,192,54155,1,0,0:0:0:0:
448,192,54270,1,0,0:0:0:0:
64,192,54385,1,0,0:0:0:0:
192,192,54385,1,0,0:0:0:0:
320,192,54501,1,0,0:0:0:0:
64,192,54616,1,0,0:0:0:0:
448,192,54616,1,0,0:0:0:0:
64,192,54732,1,0,0:0:0:0:
448,192,54732,1,0,0:0:0:0:
192,192,54847,1,0,0:0:0:0:
320,192,54847,1,0,0:0:0:0:
320,192,54962,1,0,0:0:0:0:
64,192,55078,1,0,0:0:0:0:
192,192,55078,1,0,0:0:0:0:
64,192,55193,1,0,0:0:0:0:
192,192,55193,1,0,0:0:0:0:
192,192,55308,1,0,0:0:0:0:
448,192,55308,1,0,0:0:0:0:
320,192,55424,1,0,0:0:0:0:
64,192,55539,1,0,0:0:0:0:
448,192,55539,1,0,0:0:0:0:
64,192,55655,1,0,0:0:0:0:
448,192,55655,1,0,0:0:0:0:
192,192,55770,1,0,0:0:0:0:
320,192,55770,1,0,0:0:0:0:
320,192,55885,1,0,0:0:0:0:
64,192,56001,1,0,0:0:0:0:
192,192,56001,1,0,0:0:0:0:
64,192,56116,1,0,0:0:0:0:
192,192,56116,1,0,0:0:0:0:
192,192,56232,1,0,0:0:0:0:
448,192,56232,1,0,0:0:0:0:
320,192,56347,1,0,0:0:0:0:
64,192,56462,1,0,0:0:0:0:
448,192,56462,1,0,0:0:0:0:
64,192,56578,1,0,0:0:0:0:
448,192,56578,1,0,0:0:0:0:
192,192,56693,1,0,0:0:0:0:
320,192,56693,1,0,0:0:0:0:
320,192,56808,1,0,0:0:0:0:
64,192,56924,1,0,0:0:0:0:
192,192,56924,1,0,0:0:0:0:
64,192,57039,1,0,0:0:0:0:
192,192,57039,1,0,0:0:0:0:
192,192,57155,1,0,0:0:0:0:
448,192,57155,1,0,0:0:0:0:
320,192,57270,1,0,0:0:0:0:
64,192,57385,1,0,0:0:0:0:
320,192,57444,1,0,0:0:0:0:
192,192,57464,1,0,0:0:0:0:
448,192,57503,1,0,0:0:0:0:
320,192,57542,1,0,0:0:0:0:
64,192,57620,1,0,0:0:0:0:
192,192,57698,1,0,0:0:0:0:
320,192,57776,1,0,0:0:0:0:
64,192,57854,1,0,0:0:0:0:
320,192,57929,1,0,0:0:0:0:
448,192,58004,1,0,0:0:0:0:
192,192,58078,1,0,0:0:0:0:
320,192,58153,1,0,0:0:0:0:
448,192,58228,1,0,0:0:0:0:
64,0,58303,128,0,58341:1:0:0:0:
192,0,58303,128,0,58341:1:0:0:0:
320,0,58303,128,0,58341:1:0:0:0:
64,0,60155,128,0,60193:1:0:0:0:
192,0,60155,128,0,60193:1:0:0:0:
320,0,60155,128,0,60193:1:0:0:0:
64,192,61078,1,0,0:0:0:0:
192,192,61193,1,0,0:0:0:0:
320,192,61309,1,0,0:0:0:0:
448,192,61424,1,0,0:0:0:0:
64,192,61539,1,0,0:0:0:0:
192,192,61539,1,0,0:0:0:0:
192,192,61655,1,0,0:0:0:0:
448,192,61655,1,0,0:0:0:0:
192,192,61770,1,0,0:0:0:0:
448,192,61770,1,0,0:0:0:0:
64,192,61885,1,0,0:0:0:0:
320,192,61885,1,0,0:0:0:0:
64,0,62001,128,0,62039:1:0:0:0:
192,0,62001,128,0,62039:1:0:0:0:
448,0,62001,128,0,62039:1:0:0:0:
64,0,63846,128,0,63887:1:0:0:0:
192,0,63846,128,0,63887:1:0:0:0:
448,0,63846,128,0,63887:1:0:0:0:
192,192,64558,1,0,0:0:0:0:
320,192,64630,1,0,0:0:0:0:
192,192,64702,1,0,0:0:0:0:
320,192,64774,1,0,0:0:0:0:
448,192,64774,1,0,0:0:0:0:
64,192,64890,1,0,0:0:0:0:
448,192,64890,1,0,0:0:0:0:
192,192,65005,1,0,0:0:0:0:
64,192,65121,1,0,0:0:0:0:
448,192,65121,1,0,0:0:0:0:
192,192,65236,1,0,0:0:0:0:
320,192,65313,1,0,0:0:0:0:
192,192,65390,1,0,0:0:0:0:
320,192,65467,1,0,0:0:0:0:
192,192,65544,1,0,0:0:0:0:
320,192,65621,1,0,0:0:0:0:
64,192,65697,1,0,0:0:0:0:
192,192,65697,1,0,0:0:0:0:
448,192,65697,1,0,0:0:0:0:
64,192,65812,1,0,0:0:0:0:
320,192,65927,1,0,0:0:0:0:
64,192,66043,1,0,0:0:0:0:
192,192,66043,1,0,0:0:0:0:
64,192,66158,1,0,0:0:0:0:
320,192,66158,1,0,0:0:0:0:
64,192,66388,1,0,0:0:0:0:
192,192,66388,1,0,0:0:0:0:
64,192,66504,1,0,0:0:0:0:
448,192,66504,1,0,0:0:0:0:
320,192,66619,1,0,0:0:0:0:
64,192,66736,1,0,0:0:0:0:
448,192,66736,1,0,0:0:0:0:
320,192,66852,1,0,0:0:0:0:
320,192,66968,1,0,0:0:0:0:
64,192,67085,1,0,0:0:0:0:
192,192,67085,1,0,0:0:0:0:
64,192,67200,1,0,0:0:0:0:
448,192,67200,1,0,0:0:0:0:
192,192,67316,1,0,0:0:0:0:
192,192,67431,1,0,0:0:0:0:
320,192,67431,1,0,0:0:0:0:
192,192,67662,1,0,0:0:0:0:
320,192,67662,1,0,0:0:0:0:
64,192,67777,1,0,0:0:0:0:
320,192,67777,1,0,0:0:0:0:
192,192,67893,1,0,0:0:0:0:
448,192,67893,1,0,0:0:0:0:
192,192,68008,1,0,0:0:0:0:
448,192,68008,1,0,0:0:0:0:
64,192,68120,1,0,0:0:0:0:
320,0,68120,128,0,68344:1:0:0:0:
192,192,68457,1,0,0:0:0:0:
448,192,68457,1,0,0:0:0:0:
192,192,68572,1,0,0:0:0:0:
448,192,68572,1,0,0:0:0:0:
64,192,68707,1,0,0:0:0:0:
192,192,68707,1,0,0:0:0:0:
320,192,68803,1,0,0:0:0:0:
448,192,68803,1,0,0:0:0:0:
320,192,68918,1,0,0:0:0:0:
448,192,68918,1,0,0:0:0:0:
64,192,69034,1,0,0:0:0:0:
192,0,69034,128,0,69265:1:0:0:0:
320,192,69381,1,0,0:0:0:0:
448,192,69381,1,0,0:0:0:0:
64,192,69496,1,0,0:0:0:0:
320,192,69496,1,0,0:0:0:0:
192,192,69612,1,0,0:0:0:0:
64,192,69727,1,0,0:0:0:0:
320,192,69727,1,0,0:0:0:0:
320,192,69843,1,0,0:0:0:0:
448,192,69843,1,0,0:0:0:0:
64,192,70078,1,0,0:0:0:0:
192,192,70078,1,0,0:0:0:0:
192,192,70195,1,0,0:0:0:0:
448,192,70195,1,0,0:0:0:0:
320,192,70313,1,0,0:0:0:0:
192,192,70428,1,0,0:0:0:0:
448,192,70428,1,0,0:0:0:0:
320,192,70659,1,0,0:0:0:0:
64,192,70774,1,0,0:0:0:0:
192,192,70774,1,0,0:0:0:0:
64,192,70889,1,0,0:0:0:0:
192,192,70889,1,0,0:0:0:0:
320,192,71003,1,0,0:0:0:0:
192,192,71117,1,0,0:0:0:0:
448,192,71117,1,0,0:0:0:0:
192,192,71232,1,0,0:0:0:0:
320,192,71345,1,0,0:0:0:0:
448,192,71345,1,0,0:0:0:0:
64,192,71459,1,0,0:0:0:0:
448,192,71459,1,0,0:0:0:0:
64,192,71572,1,0,0:0:0:0:
192,192,71572,1,0,0:0:0:0:
64,192,71686,1,0,0:0:0:0:
192,192,71686,1,0,0:0:0:0:
320,192,71803,1,0,0:0:0:0:
448,192,71803,1,0,0:0:0:0:
192,192,71920,1,0,0:0:0:0:
192,192,72036,1,0,0:0:0:0:
320,192,72036,1,0,0:0:0:0:
64,192,72153,1,0,0:0:0:0:
448,192,72153,1,0,0:0:0:0:
64,192,72269,1,0,0:0:0:0:
448,192,72269,1,0,0:0:0:0:
192,192,72384,1,0,0:0:0:0:
320,192,72384,1,0,0:0:0:0:
320,192,72499,1,0,0:0:0:0:
64,192,72615,1,0,0:0:0:0:
192,192,72615,1,0,0:0:0:0:
64,192,72730,1,0,0:0:0:0:
192,192,72730,1,0,0:0:0:0:
64,192,72845,1,0,0:0:0:0:
192,192,72845,1,0,0:0:0:0:
64,192,72961,1,0,0:0:0:0:
192,192,72961,1,0,0:0:0:0:
64,192,73076,1,0,0:0:0:0:
320,192,73076,1,0,0:0:0:0:
448,192,73076,1,0,0:0:0:0:
64,192,73192,1,0,0:0:0:0:
448,192,73192,1,0,0:0:0:0:
320,192,73307,1,0,0:0:0:0:
64,192,73422,1,0,0:0:0:0:
448,192,73422,1,0,0:0:0:0:
64,192,73538,1,0,0:0:0:0:
192,192,73538,1,0,0:0:0:0:
320,192,73769,1,0,0:0:0:0:
448,192,73769,1,0,0:0:0:0:
64,192,73885,1,0,0:0:0:0:
448,192,73885,1,0,0:0:0:0:
192,192,74001,1,0,0:0:0:0:
64,192,74115,1,0,0:0:0:0:
448,192,74115,1,0,0:0:0:0:
192,192,74230,1,0,0:0:0:0:
192,192,74345,1,0,0:0:0:0:
320,192,74459,1,0,0:0:0:0:
448,192,74459,1,0,0:0:0:0:
320,192,74575,1,0,0:0:0:0:
64,192,74690,1,0,0:0:0:0:
192,192,74690,1,0,0:0:0:0:
192,192,74806,1,0,0:0:0:0:
448,192,74806,1,0,0:0:0:0:
448,192,74921,1,0,0:0:0:0:
64,192,75037,1,0,0:0:0:0:
192,192,75037,1,0,0:0:0:0:
192,192,75153,1,0,0:0:0:0:
448,192,75153,1,0,0:0:0:0:
64,192,75269,1,0,0:0:0:0:
320,192,75269,1,0,0:0:0:0:
320,192,75385,1,0,0:0:0:0:
448,192,75385,1,0,0:0:0:0:
192,192,75501,1,0,0:0:0:0:
64,0,75501,128,0,75732:1:0:0:0:
192,192,75847,1,0,0:0:0:0:
448,192,75847,1,0,0:0:0:0:
192,192,75961,1,0,0:0:0:0:
448,192,75961,1,0,0:0:0:0:
64,192,76075,1,0,0:0:0:0:
320,192,76075,1,0,0:0:0:0:
320,192,76189,1,0,0:0:0:0:
64,192,76303,1,0,0:0:0:0:
192,192,76303,1,0,0:0:0:0:
64,192,76419,1,0,0:0:0:0:
448,192,76419,1,0,0:0:0:0:
320,192,76536,1,0,0:0:0:0:
192,192,76652,1,0,0:0:0:0:
320,192,76652,1,0,0:0:0:0:
64,192,76769,1,0,0:0:0:0:
448,192,76769,1,0,0:0:0:0:
64,192,76884,1,0,0:0:0:0:
192,192,76884,1,0,0:0:0:0:
320,192,76999,1,0,0:0:0:0:
64,192,77115,1,0,0:0:0:0:
192,192,77115,1,0,0:0:0:0:
192,192,77230,1,0,0:0:0:0:
320,192,77230,1,0,0:0:0:0:
192,192,77345,1,0,0:0:0:0:
320,192,77345,1,0,0:0:0:0:
64,192,77461,1,0,0:0:0:0:
448,192,77461,1,0,0:0:0:0:
64,192,77576,1,0,0:0:0:0:
192,192,77576,1,0,0:0:0:0:
320,192,77692,1,0,0:0:0:0:
448,192,77692,1,0,0:0:0:0:
64,192,77807,1,0,0:0:0:0:
320,192,77807,1,0,0:0:0:0:
64,192,77922,1,0,0:0:0:0:
320,192,78038,1,0,0:0:0:0:
64,192,78153,1,0,0:0:0:0:
192,192,78153,1,0,0:0:0:0:
192,192,78269,1,0,0:0:0:0:
448,192,78269,1,0,0:0:0:0:
320,192,78384,1,0,0:0:0:0:
64,192,78499,1,0,0:0:0:0:
192,192,78499,1,0,0:0:0:0:
320,192,78615,1,0,0:0:0:0:
320,192,78730,1,0,0:0:0:0:
64,192,78845,1,0,0:0:0:0:
448,192,78845,1,0,0:0:0:0:
64,192,78961,1,0,0:0:0:0:
192,192,78961,1,0,0:0:0:0:
64,192,79076,1,0,0:0:0:0:
192,192,79076,1,0,0:0:0:0:
320,192,79192,1,0,0:0:0:0:
448,192,79192,1,0,0:0:0:0:
64,192,79307,1,0,0:0:0:0:
192,192,79422,1,0,0:0:0:0:
448,192,79422,1,0,0:0:0:0:
64,192,79538,1,0,0:0:0:0:
192,192,79538,1,0,0:0:0:0:
64,192,79653,1,0,0:0:0:0:
192,192,79653,1,0,0:0:0:0:
320,192,79769,1,0,0:0:0:0:
448,192,79769,1,0,0:0:0:0:
192,192,79884,1,0,0:0:0:0:
448,192,79884,1,0,0:0:0:0:
320,192,79999,1,0,0:0:0:0:
64,0,79999,128,0,80451:1:0:0:0:
192,192,80115,1,0,0:0:0:0:
448,192,80115,1,0,0:0:0:0:
192,192,80461,1,0,0:0:0:0:
320,192,80461,1,0,0:0:0:0:
448,192,80461,1,0,0:0:0:0:
64,192,80697,1,0,0:0:0:0:
448,192,80933,1,0,0:0:0:0:
448,192,81044,1,0,0:0:0:0:
320,192,81156,1,0,0:0:0:0:
320,192,81342,1,0,0:0:0:0:
448,192,81418,1,0,0:0:0:0:
64,192,81610,1,0,0:0:0:0:
448,192,81726,1,0,0:0:0:0:
320,192,81841,1,0,0:0:0:0:
448,192,81956,1,0,0:0:0:0:
320,192,82072,1,0,0:0:0:0:
448,192,82187,1,0,0:0:0:0:
192,192,82303,1,0,0:0:0:0:
192,192,82418,1,0,0:0:0:0:
64,192,82533,1,0,0:0:0:0:
448,192,82764,1,0,0:0:0:0:
448,192,82882,1,0,0:0:0:0:
192,192,83001,1,0,0:0:0:0:
448,192,83119,1,0,0:0:0:0:
320,192,83237,1,0,0:0:0:0:
320,192,83353,1,0,0:0:0:0:
64,192,83468,1,0,0:0:0:0:
320,192,83583,1,0,0:0:0:0:
192,192,83699,1,0,0:0:0:0:
192,192,83813,1,0,0:0:0:0:
64,192,83927,1,0,0:0:0:0:
448,192,84004,1,0,0:0:0:0:
320,192,84080,1,0,0:0:0:0:
64,192,84156,1,0,0:0:0:0:
192,192,84156,1,0,0:0:0:0:
448,192,84391,1,0,0:0:0:0:
448,192,84509,1,0,0:0:0:0:
320,192,84626,1,0,0:0:0:0:
320,192,84742,1,0,0:0:0:0:
192,192,84857,1,0,0:0:0:0:
448,192,84972,1,0,0:0:0:0:
64,192,85088,1,0,0:0:0:0:
64,192,85203,1,0,0:0:0:0:
320,192,85319,1,0,0:0:0:0:
64,192,85434,1,0,0:0:0:0:
192,192,85549,1,0,0:0:0:0:
192,192,85665,1,0,0:0:0:0:
448,192,85780,1,0,0:0:0:0:
192,192,86011,1,0,0:0:0:0:
320,192,86088,1,0,0:0:0:0:
192,192,86126,1,0,0:0:0:0:
448,192,86165,1,0,0:0:0:0:
64,192,86242,1,0,0:0:0:0:
320,192,86319,1,0,0:0:0:0:
192,192,86396,1,0,0:0:0:0:
64,192,86472,1,0,0:0:0:0:
64,192,86588,1,0,0:0:0:0:
448,192,86703,1,0,0:0:0:0:
320,192,86780,1,0,0:0:0:0:
448,192,86857,1,0,0:0:0:0:
64,192,86934,1,0,0:0:0:0:
192,192,87011,1,0,0:0:0:0:
64,192,87049,1,0,0:0:0:0:
320,192,87088,1,0,0:0:0:0:
448,192,87165,1,0,0:0:0:0:
320,192,87242,1,0,0:0:0:0:
192,192,87319,1,0,0:0:0:0:
320,192,87396,1,0,0:0:0:0:
320,192,87511,1,0,0:0:0:0:
64,192,87626,1,0,0:0:0:0:
448,192,87703,1,0,0:0:0:0:
320,192,87780,1,0,0:0:0:0:
192,192,87857,1,0,0:0:0:0:
64,0,87857,128,0,88158:1:0:0:0:
320,192,88083,1,0,0:0:0:0:
448,192,88308,1,0,0:0:0:0:
192,192,88385,1,0,0:0:0:0:
448,192,88424,1,0,0:0:0:0:
64,192,88462,1,0,0:0:0:0:
192,192,88539,1,0,0:0:0:0:
320,192,88616,1,0,0:0:0:0:
192,192,88693,1,0,0:0:0:0:
448,192,88770,1,0,0:0:0:0:
192,192,88847,1,0,0:0:0:0:
448,192,88885,1,0,0:0:0:0:
64,192,88924,1,0,0:0:0:0:
192,192,89001,1,0,0:0:0:0:
320,192,89078,1,0,0:0:0:0:
192,192,89155,1,0,0:0:0:0:
448,192,89232,1,0,0:0:0:0:
448,192,89348,1,0,0:0:0:0:
448,192,89464,1,0,0:0:0:0:
64,192,89697,1,0,0:0:0:0:
320,192,89774,1,0,0:0:0:0:
64,192,89813,1,0,0:0:0:0:
192,192,89851,1,0,0:0:0:0:
448,192,89928,1,0,0:0:0:0:
320,192,90005,1,0,0:0:0:0:
192,192,90082,1,0,0:0:0:0:
64,192,90159,1,0,0:0:0:0:
320,192,90236,1,0,0:0:0:0:
64,192,90274,1,0,0:0:0:0:
192,192,90313,1,0,0:0:0:0:
448,192,90390,1,0,0:0:0:0:
320,192,90467,1,0,0:0:0:0:
192,192,90544,1,0,0:0:0:0:
448,192,90620,1,0,0:0:0:0:
448,192,90736,1,0,0:0:0:0:
192,192,90851,1,0,0:0:0:0:
320,192,90928,1,0,0:0:0:0:
64,192,91005,1,0,0:0:0:0:
192,192,91082,1,0,0:0:0:0:
320,192,91082,1,0,0:0:0:0:
448,192,91082,1,0,0:0:0:0:
64,192,91313,1,0,0:0:0:0:
192,192,91313,1,0,0:0:0:0:
448,192,91313,1,0,0:0:0:0:
320,192,91544,1,0,0:0:0:0:
64,192,91620,1,0,0:0:0:0:
320,192,91659,1,0,0:0:0:0:
192,192,91697,1,0,0:0:0:0:
64,192,91774,1,0,0:0:0:0:
192,192,91851,1,0,0:0:0:0:
320,192,91928,1,0,0:0:0:0:
448,192,92005,1,0,0:0:0:0:
64,192,92082,1,0,0:0:0:0:
448,192,92120,1,0,0:0:0:0:
192,192,92159,1,0,0:0:0:0:
320,192,92236,1,0,0:0:0:0:
448,192,92313,1,0,0:0:0:0:
64,192,92390,1,0,0:0:0:0:
192,192,92467,1,0,0:0:0:0:
320,192,92544,1,0,0:0:0:0:
192,192,92582,1,0,0:0:0:0:
448,192,92620,1,0,0:0:0:0:
320,192,92697,1,0,0:0:0:0:
192,192,92774,1,0,0:0:0:0:
64,192,92851,1,0,0:0:0:0:
448,192,92928,1,0,0:0:0:0:
320,192,93003,1,0,0:0:0:0:
448,192,93040,1,0,0:0:0:0:
192,192,93077,1,0,0:0:0:0:
64,192,93152,1,0,0:0:0:0:
320,192,93226,1,0,0:0:0:0:
192,192,93263,1,0,0:0:0:0:
448,192,93301,1,0,0:0:0:0:
320,192,93375,1,0,0:0:0:0:
64,192,93434,1,0,0:0:0:0:
192,192,93492,1,0,0:0:0:0:
320,192,93551,1,0,0:0:0:0:
448,192,93610,1,0,0:0:0:0:
64,192,93668,1,0,0:0:0:0:
448,192,93727,1,0,0:0:0:0:
320,192,93785,1,0,0:0:0:0:
64,192,93844,1,0,0:0:0:0:
192,192,93903,1,0,0:0:0:0:
320,192,93973,1,0,0:0:0:0:
448,192,94022,1,0,0:0:0:0:
192,192,94081,1,0,0:0:0:0:
448,192,94141,1,0,0:0:0:0:
192,192,94200,1,0,0:0:0:0:
320,192,94259,1,0,0:0:0:0:
64,192,94299,1,0,0:0:0:0:
192,192,94299,1,0,0:0:0:0:
448,192,94299,1,0,0:0:0:0:
64,192,94542,1,0,0:0:0:0:
320,192,94542,1,0,0:0:0:0:
448,192,94542,1,0,0:0:0:0:
192,192,94654,1,0,0:0:0:0:
64,192,94766,1,0,0:0:0:0:
320,192,94766,1,0,0:0:0:0:
448,192,94766,1,0,0:0:0:0:
320,192,94996,1,0,0:0:0:0:
448,192,95054,1,0,0:0:0:0:
192,192,95112,1,0,0:0:0:0:
448,192,95169,1,0,0:0:0:0:
64,192,95227,1,0,0:0:0:0:
192,192,95343,1,0,0:0:0:0:
448,192,95458,1,0,0:0:0:0:
192,192,95573,1,0,0:0:0:0:
320,192,95689,1,0,0:0:0:0:
448,192,95804,1,0,0:0:0:0:
64,192,95919,1,0,0:0:0:0:
448,192,96035,1,0,0:0:0:0:
192,192,96150,1,0,0:0:0:0:
320,192,96266,1,0,0:0:0:0:
192,192,96381,1,0,0:0:0:0:
64,192,96496,1,0,0:0:0:0:
320,192,96612,1,0,0:0:0:0:
320,192,96843,1,0,0:0:0:0:
448,192,96958,1,0,0:0:0:0:
192,192,97016,1,0,0:0:0:0:
64,192,97073,1,0,0:0:0:0:
320,192,97189,1,0,0:0:0:0:
448,192,97304,1,0,0:0:0:0:
320,192,97419,1,0,0:0:0:0:
64,192,97535,1,0,0:0:0:0:
320,192,97650,1,0,0:0:0:0:
192,192,97766,1,0,0:0:0:0:
320,192,97881,1,0,0:0:0:0:
448,192,97996,1,0,0:0:0:0:
448,192,98112,1,0,0:0:0:0:
320,192,98227,1,0,0:0:0:0:
64,192,98343,1,0,0:0:0:0:
192,192,98458,1,0,0:0:0:0:
320,192,98573,1,0,0:0:0:0:
320,192,98689,1,0,0:0:0:0:
192,192,98804,1,0,0:0:0:0:
64,192,98919,1,0,0:0:0:0:
320,192,99035,1,0,0:0:0:0:
448,192,99150,1,0,0:0:0:0:
320,192,99266,1,0,0:0:0:0:
64,192,99381,1,0,0:0:0:0:
448,192,99496,1,0,0:0:0:0:
320,192,99612,1,0,0:0:0:0:
192,192,99727,1,0,0:0:0:0:
448,192,99843,1,0,0:0:0:0:
64,192,99958,1,0,0:0:0:0:
192,192,100073,1,0,0:0:0:0:
64,192,100189,1,0,0:0:0:0:
448,192,100304,1,0,0:0:0:0:
64,192,100419,1,0,0:0:0:0:
192,192,100535,1,0,0:0:0:0:
320,192,100650,1,0,0:0:0:0:
448,192,100766,1,0,0:0:0:0:
64,192,100843,1,0,0:0:0:0:
448,192,100881,1,0,0:0:0:0:
192,192,100919,1,0,0:0:0:0:
320,192,100996,1,0,0:0:0:0:
448,192,101073,1,0,0:0:0:0:
64,192,101112,1,0,0:0:0:0:
192,192,101150,1,0,0:0:0:0:
64,192,101227,1,0,0:0:0:0:
320,192,101304,1,0,0:0:0:0:
192,192,101343,1,0,0:0:0:0:
448,192,101381,1,0,0:0:0:0:
320,192,101458,1,0,0:0:0:0:
64,192,101535,1,0,0:0:0:0:
192,192,101573,1,0,0:0:0:0:
320,192,101612,1,0,0:0:0:0:
448,192,101689,1,0,0:0:0:0:
64,192,101766,1,0,0:0:0:0:
448,192,101804,1,0,0:0:0:0:
192,192,101843,1,0,0:0:0:0:
320,192,101919,1,0,0:0:0:0:
448,192,101996,1,0,0:0:0:0:
192,192,102035,1,0,0:0:0:0:
320,192,102073,1,0,0:0:0:0:
64,0,102150,128,0,102496:1:0:0:0:
448,192,102612,1,0,0:0:0:0:
320,192,102689,1,0,0:0:0:0:
64,192,102727,1,0,0:0:0:0:
192,192,102766,1,0,0:0:0:0:
448,192,102843,1,0,0:0:0:0:
192,192,102919,1,0,0:0:0:0:
64,192,102958,1,0,0:0:0:0:
320,192,102996,1,0,0:0:0:0:
448,192,103073,1,0,0:0:0:0:
320,192,103150,1,0,0:0:0:0:
64,192,103189,1,0,0:0:0:0:
192,192,103227,1,0,0:0:0:0:
448,192,103304,1,0,0:0:0:0:
64,192,103381,1,0,0:0:0:0:
192,192,103419,1,0,0:0:0:0:
320,192,103458,1,0,0:0:0:0:
448,192,103535,1,0,0:0:0:0:
320,192,103612,1,0,0:0:0:0:
64,192,103650,1,0,0:0:0:0:
192,192,103689,1,0,0:0:0:0:
448,192,103766,1,0,0:0:0:0:
192,192,103843,1,0,0:0:0:0:
64,192,103881,1,0,0:0:0:0:
320,192,103919,1,0,0:0:0:0:
448,192,103996,1,0,0:0:0:0:
320,192,104073,1,0,0:0:0:0:
64,192,104112,1,0,0:0:0:0:
192,192,104150,1,0,0:0:0:0:
448,192,104227,1,0,0:0:0:0:
320,192,104304,1,0,0:0:0:0:
64,192,104343,1,0,0:0:0:0:
192,192,104381,1,0,0:0:0:0:
448,192,104458,1,0,0:0:0:0:
320,192,104535,1,0,0:0:0:0:
64,192,104573,1,0,0:0:0:0:
192,192,104612,1,0,0:0:0:0:
448,192,104689,1,0,0:0:0:0:
320,192,104766,1,0,0:0:0:0:
448,192,104804,1,0,0:0:0:0:
192,192,104843,1,0,0:0:0:0:
320,192,104919,1,0,0:0:0:0:
448,192,104996,1,0,0:0:0:0:
192,192,105035,1,0,0:0:0:0:
320,192,105073,1,0,0:0:0:0:
192,192,105150,1,0,0:0:0:0:
64,192,105227,1,0,0:0:0:0:
448,192,105266,1,0,0:0:0:0:
320,192,105304,1,0,0:0:0:0:
192,192,105381,1,0,0:0:0:0:
448,192,105458,1,0,0:0:0:0:
320,192,105496,1,0,0:0:0:0:
192,192,105535,1,0,0:0:0:0:
64,192,105612,1,0,0:0:0:0:
448,192,105689,1,0,0:0:0:0:
320,192,105727,1,0,0:0:0:0:
192,192,105766,1,0,0:0:0:0:
64,0,105843,128,0,106153:1:0:0:0:
448,192,106075,1,0,0:0:0:0:
320,192,106192,1,0,0:0:0:0:
192,192,106308,1,0,0:0:0:0:
448,192,106308,1,0,0:0:0:0:
192,192,106655,1,0,0:0:0:0:
64,192,106770,1,0,0:0:0:0:
448,192,106885,1,0,0:0:0:0:
448,192,107116,1,0,0:0:0:0:
192,192,107232,1,0,0:0:0:0:
320,192,107347,1,0,0:0:0:0:
192,192,107462,1,0,0:0:0:0:
64,192,107578,1,0,0:0:0:0:
320,192,107635,1,0,0:0:0:0:
192,192,107693,1,0,0:0:0:0:
448,192,107924,1,0,0:0:0:0:
320,192,108039,1,0,0:0:0:0:
64,192,108155,1,0,0:0:0:0:
320,192,108212,1,0,0:0:0:0:
64,192,108270,1,0,0:0:0:0:
320,192,108328,1,0,0:0:0:0:
64,192,108385,1,0,0:0:0:0:
192,192,108443,1,0,0:0:0:0:
448,192,108501,1,0,0:0:0:0:
64,192,108558,1,0,0:0:0:0:
448,192,108616,1,0,0:0:0:0:
64,192,108674,1,0,0:0:0:0:
320,192,108732,1,0,0:0:0:0:
192,192,108789,1,0,0:0:0:0:
64,192,108847,1,0,0:0:0:0:
320,192,108905,1,0,0:0:0:0:
64,192,108962,1,0,0:0:0:0:
320,192,109020,1,0,0:0:0:0:
192,192,109078,1,0,0:0:0:0:
64,192,109135,1,0,0:0:0:0:
448,192,109193,1,0,0:0:0:0:
320,192,109251,1,0,0:0:0:0:
192,192,109308,1,0,0:0:0:0:
64,192,109366,1,0,0:0:0:0:
448,192,109424,1,0,0:0:0:0:
320,192,109482,1,0,0:0:0:0:
192,192,109539,1,0,0:0:0:0:
64,192,109597,1,0,0:0:0:0:
320,192,109655,1,0,0:0:0:0:
64,192,109712,1,0,0:0:0:0:
320,192,109770,1,0,0:0:0:0:
64,192,109828,1,0,0:0:0:0:
192,192,109885,1,0,0:0:0:0:
320,192,109943,1,0,0:0:0:0:
448,192,109972,1,0,0:0:0:0:
64,192,110001,1,0,0:0:0:0:
192,192,110001,1,0,0:0:0:0:
64,192,110099,1,0,0:0:0:0:
192,192,110099,1,0,0:0:0:0:
448,192,110206,1,0,0:0:0:0:
64,192,110322,1,0,0:0:0:0:
192,192,110322,1,0,0:0:0:0:
320,192,110322,1,0,0:0:0:0:
448,192,110429,1,0,0:0:0:0:
448,192,110544,1,0,0:0:0:0:
64,192,110660,1,0,0:0:0:0:
192,192,110660,1,0,0:0:0:0:
448,192,110660,1,0,0:0:0:0:
64,192,110775,1,0,0:0:0:0:
192,192,110775,1,0,0:0:0:0:
448,192,110890,1,0,0:0:0:0:
64,192,111006,1,0,0:0:0:0:
192,192,111006,1,0,0:0:0:0:
320,192,111006,1,0,0:0:0:0:
448,192,111121,1,0,0:0:0:0:
448,192,111237,1,0,0:0:0:0:
64,192,111352,1,0,0:0:0:0:
192,192,111352,1,0,0:0:0:0:
448,192,111352,1,0,0:0:0:0:
64,192,111469,1,0,0:0:0:0:
192,192,111469,1,0,0:0:0:0:
448,192,111586,1,0,0:0:0:0:
64,192,111704,1,0,0:0:0:0:
192,192,111704,1,0,0:0:0:0:
320,192,111704,1,0,0:0:0:0:
448,192,111821,1,0,0:0:0:0:
448,192,111934,1,0,0:0:0:0:
64,192,112048,1,0,0:0:0:0:
192,192,112048,1,0,0:0:0:0:
448,192,112048,1,0,0:0:0:0:
64,192,112161,1,0,0:0:0:0:
192,192,112161,1,0,0:0:0:0:
320,192,112275,1,0,0:0:0:0:
448,192,112275,1,0,0:0:0:0:
192,192,112394,1,0,0:0:0:0:
320,192,112394,1,0,0:0:0:0:
448,192,112394,1,0,0:0:0:0:
320,192,112631,1,0,0:0:0:0:
448,192,112690,1,0,0:0:0:0:
64,192,112750,1,0,0:0:0:0:
448,192,112806,1,0,0:0:0:0:
64,192,112862,1,0,0:0:0:0:
448,192,112918,1,0,0:0:0:0:
64,192,112975,1,0,0:0:0:0:
192,192,113031,1,0,0:0:0:0:
320,192,113087,1,0,0:0:0:0:
448,192,113143,1,0,0:0:0:0:
64,192,113200,1,0,0:0:0:0:
320,192,113258,1,0,0:0:0:0:
64,192,113316,1,0,0:0:0:0:
320,192,113374,1,0,0:0:0:0:
64,192,113432,1,0,0:0:0:0:
192,192,113490,1,0,0:0:0:0:
320,192,113548,1,0,0:0:0:0:
448,192,113606,1,0,0:0:0:0:
320,0,113664,128,0,114356:1:0:0:0:
192,0,113664,128,0,115626:1:0:0:0:
64,0,113664,128,0,115683:1:0:0:0:
