osu file format v13

[General]
AudioFilename: 01 DARK LEGACY.ogg
AudioLeadIn: 2
PreviewTime: 30632
Countdown: 0
SampleSet: Normal
StackLeniency: 0.7
Mode: 3
LetterboxInBreaks: 0
SpecialStyle: 0
WidescreenStoryboard: 0

[Editor]
DistanceSpacing: 0.8
BeatDivisor: 4
GridSize: 8
TimelineZoom: 1

[Metadata]
Title:Yolomania Vol. 3A
TitleUnicode:Yolomania Vol. 3A
Artist:Various
ArtistUnicode:Various
Creator:Fullerene-
Version:BaSTeT - DARK LEGACY [Wafles] 14
Source:
Tags:Stepmania yolo3 volume
BeatmapID:563157
BeatmapSetID:243027

[Difficulty]
HPDrainRate:8
CircleSize:4
OverallDifficulty:5
ApproachRate:10
SliderMultiplier:1.4
SliderTickRate:1

[Events]
//Background and Video events
0,0,"dark legacy.jpg",0,0
//Break Periods
//Storyboard Layer 0 (Background)
//Storyboard Layer 1 (Fail)
//Storyboard Layer 2 (Pass)
//Storyboard Layer 3 (Foreground)
//Storyboard Sound Samples
//Background Colour Transformations

[TimingPoints]
2009.97,306.1224,4,1,0,15,1,0

[HitObjects]
192,0,2015,128,0,2054:1:0:0:0:
320,0,2015,128,0,2054:1:0:0:0:
448,0,2015,128,0,2054:1:0:0:0:
64,192,2163,1,0,0:0:0:0:
192,192,2316,1,0,0:0:0:0:
320,192,2469,1,0,0:0:0:0:
192,192,2622,1,0,0:0:0:0:
448,192,2622,1,0,0:0:0:0:
64,192,2775,1,0,0:0:0:0:
192,192,2928,1,0,0:0:0:0:
320,192,3081,1,0,0:0:0:0:
448,192,3157,1,0,0:0:0:0:
192,192,3234,1,0,0:0:0:0:
320,192,3234,1,0,0:0:0:0:
64,192,3387,1,0,0:0:0:0:
192,192,3540,1,0,0:0:0:0:
320,192,3693,1,0,0:0:0:0:
448,192,3770,1,0,0:0:0:0:
192,192,3846,1,0,0:0:0:0:
320,192,3846,1,0,0:0:0:0:
64,192,3999,1,0,0:0:0:0:
192,192,4152,1,0,0:0:0:0:
192,192,4305,1,0,0:0:0:0:
320,192,4305,1,0,0:0:0:0:
320,0,4458,128,0,4497:1:0:0:0:
448,0,4458,128,0,4497:1:0:0:0:
64,192,4612,1,0,0:0:0:0:
192,192,4765,1,0,0:0:0:0:
320,192,4918,1,0,0:0:0:0:
192,192,5071,1,0,0:0:0:0:
448,192,5071,1,0,0:0:0:0:
64,192,5224,1,0,0:0:0:0:
192,192,5377,1,0,0:0:0:0:
320,192,5530,1,0,0:0:0:0:
448,192,5606,1,0,0:0:0:0:
192,192,5683,1,0,0:0:0:0:
320,192,5683,1,0,0:0:0:0:
64,192,5836,1,0,0:0:0:0:
192,192,5989,1,0,0:0:0:0:
320,192,6142,1,0,0:0:0:0:
192,192,6219,1,0,0:0:0:0:
64,192,6295,1,0,0:0:0:0:
448,192,6295,1,0,0:0:0:0:
320,192,6448,1,0,0:0:0:0:
192,192,6601,1,0,0:0:0:0:
64,192,6754,1,0,0:0:0:0:
192,192,6754,1,0,0:0:0:0:
64,192,6907,1,0,0:0:0:0:
320,192,6907,1,0,0:0:0:0:
448,192,6907,1,0,0:0:0:0:
64,192,7060,1,0,0:0:0:0:
192,192,7214,1,0,0:0:0:0:
320,192,7367,1,0,0:0:0:0:
192,192,7520,1,0,0:0:0:0:
448,192,7520,1,0,0:0:0:0:
64,192,7673,1,0,0:0:0:0:
192,192,7826,1,0,0:0:0:0:
320,192,7979,1,0,0:0:0:0:
448,192,8055,1,0,0:0:0:0:
192,192,8132,1,0,0:0:0:0:
320,192,8132,1,0,0:0:0:0:
64,192,8285,1,0,0:0:0:0:
192,192,8438,1,0,0:0:0:0:
320,192,8591,1,0,0:0:0:0:
448,192,8668,1,0,0:0:0:0:
192,192,8744,1,0,0:0:0:0:
320,192,8744,1,0,0:0:0:0:
64,192,8897,1,0,0:0:0:0:
192,192,9050,1,0,0:0:0:0:
192,192,9203,1,0,0:0:0:0:
320,192,9203,1,0,0:0:0:0:
192,192,9356,1,0,0:0:0:0:
448,192,9356,1,0,0:0:0:0:
64,192,9509,1,0,0:0:0:0:
192,192,9663,1,0,0:0:0:0:
320,192,9816,1,0,0:0:0:0:
192,192,9969,1,0,0:0:0:0:
448,192,9969,1,0,0:0:0:0:
64,192,10122,1,0,0:0:0:0:
192,192,10275,1,0,0:0:0:0:
320,192,10428,1,0,0:0:0:0:
192,192,10504,1,0,0:0:0:0:
448,192,10581,1,0,0:0:0:0:
320,0,10581,128,0,10606:1:0:0:0:
64,0,10734,128,0,10759:1:0:0:0:
192,0,10887,128,0,10913:1:0:0:0:
320,0,11040,128,0,11066:1:0:0:0:
64,192,11193,1,0,0:0:0:0:
448,0,11193,128,0,11219:1:0:0:0:
320,0,11346,128,0,11359:1:0:0:0:
448,0,11397,128,0,11410:1:0:0:0:
320,0,11448,128,0,11461:1:0:0:0:
192,0,11499,128,0,11525:1:0:0:0:
192,192,11652,1,0,0:0:0:0:
64,0,11652,128,0,11678:1:0:0:0:
64,0,11805,128,0,11844:1:0:0:0:
320,0,11805,128,0,11844:1:0:0:0:
448,0,11805,128,0,11844:1:0:0:0:
64,192,11958,1,0,0:0:0:0:
192,192,12111,1,0,0:0:0:0:
320,192,12265,1,0,0:0:0:0:
192,192,12418,1,0,0:0:0:0:
448,192,12418,1,0,0:0:0:0:
64,192,12571,1,0,0:0:0:0:
192,192,12724,1,0,0:0:0:0:
320,192,12877,1,0,0:0:0:0:
192,192,12953,1,0,0:0:0:0:
64,192,13030,1,0,0:0:0:0:
448,192,13030,1,0,0:0:0:0:
320,192,13183,1,0,0:0:0:0:
192,192,13336,1,0,0:0:0:0:
64,192,13489,1,0,0:0:0:0:
192,192,13566,1,0,0:0:0:0:
64,192,13642,1,0,0:0:0:0:
320,192,13642,1,0,0:0:0:0:
192,192,13795,1,0,0:0:0:0:
320,192,13948,1,0,0:0:0:0:
320,192,14101,1,0,0:0:0:0:
448,192,14101,1,0,0:0:0:0:
64,192,14254,1,0,0:0:0:0:
320,192,14254,1,0,0:0:0:0:
192,192,14407,1,0,0:0:0:0:
320,192,14560,1,0,0:0:0:0:
448,192,14714,1,0,0:0:0:0:
64,192,14867,1,0,0:0:0:0:
320,192,14867,1,0,0:0:0:0:
192,192,15020,1,0,0:0:0:0:
320,192,15173,1,0,0:0:0:0:
448,192,15326,1,0,0:0:0:0:
320,192,15402,1,0,0:0:0:0:
192,192,15479,1,0,0:0:0:0:
448,192,15479,1,0,0:0:0:0:
320,192,15632,1,0,0:0:0:0:
192,192,15785,1,0,0:0:0:0:
64,192,15938,1,0,0:0:0:0:
192,192,16015,1,0,0:0:0:0:
64,0,16091,128,0,16110:1:0:0:0:
320,0,16091,128,0,16110:1:0:0:0:
448,0,16091,128,0,16110:1:0:0:0:
320,192,16244,1,0,0:0:0:0:
192,192,16397,1,0,0:0:0:0:
64,192,16550,1,0,0:0:0:0:
192,192,16550,1,0,0:0:0:0:
64,192,16703,1,0,0:0:0:0:
320,192,16703,1,0,0:0:0:0:
448,192,16703,1,0,0:0:0:0:
64,192,16856,1,0,0:0:0:0:
192,192,17009,1,0,0:0:0:0:
320,192,17163,1,0,0:0:0:0:
192,192,17316,1,0,0:0:0:0:
448,192,17316,1,0,0:0:0:0:
64,192,17469,1,0,0:0:0:0:
192,192,17622,1,0,0:0:0:0:
320,192,17775,1,0,0:0:0:0:
192,192,17851,1,0,0:0:0:0:
64,192,17928,1,0,0:0:0:0:
448,192,17928,1,0,0:0:0:0:
320,192,18081,1,0,0:0:0:0:
192,192,18234,1,0,0:0:0:0:
64,192,18387,1,0,0:0:0:0:
192,192,18464,1,0,0:0:0:0:
64,192,18540,1,0,0:0:0:0:
320,192,18540,1,0,0:0:0:0:
192,192,18693,1,0,0:0:0:0:
320,192,18846,1,0,0:0:0:0:
320,192,18999,1,0,0:0:0:0:
448,192,18999,1,0,0:0:0:0:
64,192,19152,1,0,0:0:0:0:
320,192,19152,1,0,0:0:0:0:
448,192,19152,1,0,0:0:0:0:
192,192,19305,1,0,0:0:0:0:
320,192,19458,1,0,0:0:0:0:
448,192,19612,1,0,0:0:0:0:
64,192,19765,1,0,0:0:0:0:
320,192,19765,1,0,0:0:0:0:
192,192,19918,1,0,0:0:0:0:
320,192,20071,1,0,0:0:0:0:
448,192,20224,1,0,0:0:0:0:
320,192,20300,1,0,0:0:0:0:
192,192,20377,1,0,0:0:0:0:
448,192,20377,1,0,0:0:0:0:
320,192,20530,1,0,0:0:0:0:
192,192,20683,1,0,0:0:0:0:
64,192,20836,1,0,0:0:0:0:
64,192,20989,1,0,0:0:0:0:
448,192,20989,1,0,0:0:0:0:
320,192,21066,1,0,0:0:0:0:
192,192,21142,1,0,0:0:0:0:
64,192,21219,1,0,0:0:0:0:
320,192,21295,1,0,0:0:0:0:
448,192,21295,1,0,0:0:0:0:
192,192,21372,1,0,0:0:0:0:
64,192,21448,1,0,0:0:0:0:
320,192,21525,1,0,0:0:0:0:
64,192,21601,1,0,0:0:0:0:
192,192,21601,1,0,0:0:0:0:
448,192,21601,1,0,0:0:0:0:
64,192,21754,1,0,0:0:0:0:
192,192,21754,1,0,0:0:0:0:
448,192,21754,1,0,0:0:0:0:
64,192,22061,1,0,0:0:0:0:
192,192,22061,1,0,0:0:0:0:
448,192,22061,1,0,0:0:0:0:
64,192,22214,1,0,0:0:0:0:
192,192,22214,1,0,0:0:0:0:
448,192,22214,1,0,0:0:0:0:
64,192,22520,1,0,0:0:0:0:
192,192,22520,1,0,0:0:0:0:
448,192,22520,1,0,0:0:0:0:
64,192,22673,1,0,0:0:0:0:
192,192,22673,1,0,0:0:0:0:
448,192,22673,1,0,0:0:0:0:
64,192,22979,1,0,0:0:0:0:
192,192,22979,1,0,0:0:0:0:
448,192,22979,1,0,0:0:0:0:
64,192,23132,1,0,0:0:0:0:
192,192,23132,1,0,0:0:0:0:
448,192,23132,1,0,0:0:0:0:
320,192,23362,1,0,0:0:0:0:
64,0,23438,128,0,23515:1:0:0:0:
64,0,23591,128,0,23668:1:0:0:0:
448,0,23744,128,0,23821:1:0:0:0:
448,0,23897,128,0,23974:1:0:0:0:
64,192,24050,1,0,0:0:0:0:
320,192,24050,1,0,0:0:0:0:
448,192,24050,1,0,0:0:0:0:
64,192,24203,1,0,0:0:0:0:
320,192,24203,1,0,0:0:0:0:
448,192,24203,1,0,0:0:0:0:
64,192,24509,1,0,0:0:0:0:
320,192,24509,1,0,0:0:0:0:
448,192,24509,1,0,0:0:0:0:
64,192,24663,1,0,0:0:0:0:
320,192,24663,1,0,0:0:0:0:
448,192,24663,1,0,0:0:0:0:
64,192,24969,1,0,0:0:0:0:
320,192,24969,1,0,0:0:0:0:
448,192,24969,1,0,0:0:0:0:
64,192,25122,1,0,0:0:0:0:
320,192,25122,1,0,0:0:0:0:
448,192,25122,1,0,0:0:0:0:
64,192,25428,1,0,0:0:0:0:
320,192,25428,1,0,0:0:0:0:
448,192,25428,1,0,0:0:0:0:
64,192,25581,1,0,0:0:0:0:
320,192,25581,1,0,0:0:0:0:
448,192,25581,1,0,0:0:0:0:
192,192,25734,1,0,0:0:0:0:
320,192,25811,1,0,0:0:0:0:
448,192,25887,1,0,0:0:0:0:
64,192,25964,1,0,0:0:0:0:
320,192,26040,1,0,0:0:0:0:
64,192,26117,1,0,0:0:0:0:
320,192,26193,1,0,0:0:0:0:
192,192,26270,1,0,0:0:0:0:
64,192,26346,1,0,0:0:0:0:
320,192,26423,1,0,0:0:0:0:
64,192,26499,1,0,0:0:0:0:
192,192,26499,1,0,0:0:0:0:
448,192,26499,1,0,0:0:0:0:
64,192,26652,1,0,0:0:0:0:
192,192,26652,1,0,0:0:0:0:
448,192,26652,1,0,0:0:0:0:
64,192,26958,1,0,0:0:0:0:
192,192,26958,1,0,0:0:0:0:
448,192,26958,1,0,0:0:0:0:
64,192,27112,1,0,0:0:0:0:
192,192,27112,1,0,0:0:0:0:
448,192,27112,1,0,0:0:0:0:
64,192,27418,1,0,0:0:0:0:
192,192,27418,1,0,0:0:0:0:
448,192,27418,1,0,0:0:0:0:
64,192,27571,1,0,0:0:0:0:
192,192,27571,1,0,0:0:0:0:
448,192,27571,1,0,0:0:0:0:
64,192,27877,1,0,0:0:0:0:
192,192,27877,1,0,0:0:0:0:
448,192,27877,1,0,0:0:0:0:
64,192,28030,1,0,0:0:0:0:
192,192,28030,1,0,0:0:0:0:
448,192,28030,1,0,0:0:0:0:
448,0,28336,128,0,28413:1:0:0:0:
64,192,28413,1,0,0:0:0:0:
448,0,28489,128,0,28566:1:0:0:0:
64,192,28566,1,0,0:0:0:0:
320,0,28642,128,0,28719:1:0:0:0:
64,192,28719,1,0,0:0:0:0:
320,0,28795,128,0,28872:1:0:0:0:
64,192,28872,1,0,0:0:0:0:
192,192,28948,1,0,0:0:0:0:
320,192,28948,1,0,0:0:0:0:
448,192,28948,1,0,0:0:0:0:
192,192,29101,1,0,0:0:0:0:
320,192,29101,1,0,0:0:0:0:
448,192,29101,1,0,0:0:0:0:
192,192,29407,1,0,0:0:0:0:
320,192,29407,1,0,0:0:0:0:
448,192,29407,1,0,0:0:0:0:
192,192,29561,1,0,0:0:0:0:
320,192,29561,1,0,0:0:0:0:
448,192,29561,1,0,0:0:0:0:
64,192,29867,1,0,0:0:0:0:
320,192,29867,1,0,0:0:0:0:
448,192,29867,1,0,0:0:0:0:
64,192,30020,1,0,0:0:0:0:
320,192,30020,1,0,0:0:0:0:
448,192,30020,1,0,0:0:0:0:
64,192,30326,1,0,0:0:0:0:
320,192,30326,1,0,0:0:0:0:
448,192,30326,1,0,0:0:0:0:
64,192,30479,1,0,0:0:0:0:
320,192,30479,1,0,0:0:0:0:
448,192,30479,1,0,0:0:0:0:
320,0,30785,128,0,30862:1:0:0:0:
448,0,30785,128,0,30862:1:0:0:0:
64,0,30785,128,0,31321:1:0:0:0:
64,192,31397,1,0,0:0:0:0:
320,192,31397,1,0,0:0:0:0:
448,192,31397,1,0,0:0:0:0:
192,192,31550,1,0,0:0:0:0:
320,192,31550,1,0,0:0:0:0:
320,192,31703,1,0,0:0:0:0:
448,192,31703,1,0,0:0:0:0:
448,0,31933,128,0,31971:1:0:0:0:
320,0,32010,128,0,32048:1:0:0:0:
64,192,32163,1,0,0:0:0:0:
192,192,32163,1,0,0:0:0:0:
192,192,32316,1,0,0:0:0:0:
448,192,32316,1,0,0:0:0:0:
64,0,32545,128,0,32583:1:0:0:0:
448,192,32622,1,0,0:0:0:0:
192,0,32622,128,0,32660:1:0:0:0:
64,192,32928,1,0,0:0:0:0:
448,192,32928,1,0,0:0:0:0:
64,0,33234,128,0,33272:1:0:0:0:
320,192,33387,1,0,0:0:0:0:
448,192,33387,1,0,0:0:0:0:
64,192,33540,1,0,0:0:0:0:
448,192,33540,1,0,0:0:0:0:
192,0,33540,128,0,33578:1:0:0:0:
320,192,33693,1,0,0:0:0:0:
448,192,33846,1,0,0:0:0:0:
320,0,33846,128,0,33885:1:0:0:0:
64,192,34152,1,0,0:0:0:0:
192,192,34152,1,0,0:0:0:0:
448,0,34152,128,0,34191:1:0:0:0:
192,0,34458,128,0,34497:1:0:0:0:
448,0,34663,128,0,34688:1:0:0:0:
320,0,34714,128,0,34739:1:0:0:0:
64,192,34765,1,0,0:0:0:0:
192,0,34765,128,0,34803:1:0:0:0:
320,192,35071,1,0,0:0:0:0:
448,0,35071,128,0,35109:1:0:0:0:
64,192,35377,1,0,0:0:0:0:
448,192,35377,1,0,0:0:0:0:
320,0,35377,128,0,35415:1:0:0:0:
320,192,35530,1,0,0:0:0:0:
192,0,35683,128,0,35759:1:0:0:0:
320,192,35836,1,0,0:0:0:0:
448,192,35836,1,0,0:0:0:0:
192,192,35989,1,0,0:0:0:0:
448,192,35989,1,0,0:0:0:0:
64,0,35989,128,0,36027:1:0:0:0:
448,192,36295,1,0,0:0:0:0:
320,0,36295,128,0,36333:1:0:0:0:
64,192,36601,1,0,0:0:0:0:
320,192,36601,1,0,0:0:0:0:
448,0,36601,128,0,36640:1:0:0:0:
448,192,36907,1,0,0:0:0:0:
192,192,36984,1,0,0:0:0:0:
64,192,37060,1,0,0:0:0:0:
320,192,37137,1,0,0:0:0:0:
192,192,37214,1,0,0:0:0:0:
64,192,37290,1,0,0:0:0:0:
320,192,37367,1,0,0:0:0:0:
192,192,37443,1,0,0:0:0:0:
64,192,37520,1,0,0:0:0:0:
448,192,37520,1,0,0:0:0:0:
192,192,37673,1,0,0:0:0:0:
192,192,37826,1,0,0:0:0:0:
448,192,37826,1,0,0:0:0:0:
192,192,37979,1,0,0:0:0:0:
192,0,38132,128,0,38170:1:0:0:0:
320,192,38285,1,0,0:0:0:0:
448,192,38285,1,0,0:0:0:0:
320,192,38438,1,0,0:0:0:0:
448,192,38438,1,0,0:0:0:0:
64,0,38438,128,0,38476:1:0:0:0:
64,192,38744,1,0,0:0:0:0:
192,0,38744,128,0,38782:1:0:0:0:
64,192,39050,1,0,0:0:0:0:
192,192,39050,1,0,0:0:0:0:
448,0,39050,128,0,39089:1:0:0:0:
320,192,39356,1,0,0:0:0:0:
64,192,39509,1,0,0:0:0:0:
192,192,39509,1,0,0:0:0:0:
64,192,39663,1,0,0:0:0:0:
448,192,39663,1,0,0:0:0:0:
64,192,39969,1,0,0:0:0:0:
192,0,39969,128,0,40007:1:0:0:0:
64,192,40275,1,0,0:0:0:0:
320,192,40275,1,0,0:0:0:0:
448,0,40275,128,0,40313:1:0:0:0:
320,192,40428,1,0,0:0:0:0:
192,0,40581,128,0,40619:1:0:0:0:
320,0,40657,128,0,40696:1:0:0:0:
192,0,40734,128,0,40772:1:0:0:0:
64,0,40887,128,0,40925:1:0:0:0:
320,192,41117,1,0,0:0:0:0:
448,192,41117,1,0,0:0:0:0:
192,192,41193,1,0,0:0:0:0:
64,0,41193,128,0,41499:1:0:0:0:
320,0,41499,128,0,41652:1:0:0:0:
448,0,41729,128,0,41767:1:0:0:0:
64,192,41805,1,0,0:0:0:0:
192,0,41805,128,0,41844:1:0:0:0:
320,192,41882,1,0,0:0:0:0:
448,192,41882,1,0,0:0:0:0:
64,192,41958,1,0,0:0:0:0:
192,192,41958,1,0,0:0:0:0:
320,192,42035,1,0,0:0:0:0:
64,192,42112,1,0,0:0:0:0:
192,192,42112,1,0,0:0:0:0:
448,192,42112,1,0,0:0:0:0:
64,0,42341,128,0,42379:1:0:0:0:
192,0,42418,128,0,42456:1:0:0:0:
320,192,42494,1,0,0:0:0:0:
192,192,42571,1,0,0:0:0:0:
320,192,42647,1,0,0:0:0:0:
64,192,42724,1,0,0:0:0:0:
448,192,42724,1,0,0:0:0:0:
192,0,43030,128,0,43068:1:0:0:0:
320,192,43183,1,0,0:0:0:0:
448,192,43183,1,0,0:0:0:0:
64,192,43336,1,0,0:0:0:0:
320,0,43336,128,0,43374:1:0:0:0:
320,192,43642,1,0,0:0:0:0:
448,0,43642,128,0,43680:1:0:0:0:
64,192,43948,1,0,0:0:0:0:
448,192,43948,1,0,0:0:0:0:
192,0,43948,128,0,43987:1:0:0:0:
320,0,44254,128,0,44293:1:0:0:0:
64,192,44407,1,0,0:0:0:0:
192,192,44407,1,0,0:0:0:0:
64,192,44561,1,0,0:0:0:0:
448,0,44561,128,0,44599:1:0:0:0:
320,0,44714,128,0,44752:1:0:0:0:
448,0,44790,128,0,44828:1:0:0:0:
320,0,44867,128,0,44905:1:0:0:0:
64,192,44943,1,0,0:0:0:0:
192,192,45020,1,0,0:0:0:0:
320,192,45096,1,0,0:0:0:0:
64,192,45173,1,0,0:0:0:0:
448,0,45173,128,0,45211:1:0:0:0:
64,192,45326,1,0,0:0:0:0:
448,192,45326,1,0,0:0:0:0:
320,0,45479,128,0,45517:1:0:0:0:
64,192,45632,1,0,0:0:0:0:
192,192,45632,1,0,0:0:0:0:
64,192,45785,1,0,0:0:0:0:
320,0,45785,128,0,45823:1:0:0:0:
192,0,45938,128,0,45963:1:0:0:0:
320,0,45989,128,0,46014:1:0:0:0:
192,0,46040,128,0,46066:1:0:0:0:
448,192,46091,1,0,0:0:0:0:
64,0,46091,128,0,46129:1:0:0:0:
64,192,46397,1,0,0:0:0:0:
320,192,46397,1,0,0:0:0:0:
448,0,46397,128,0,46435:1:0:0:0:
448,192,46627,1,0,0:0:0:0:
320,192,46703,1,0,0:0:0:0:
192,192,46780,1,0,0:0:0:0:
64,192,46856,1,0,0:0:0:0:
320,192,46933,1,0,0:0:0:0:
192,192,47009,1,0,0:0:0:0:
64,192,47086,1,0,0:0:0:0:
320,192,47162,1,0,0:0:0:0:
448,192,47239,1,0,0:0:0:0:
64,192,47316,1,0,0:0:0:0:
192,192,47316,1,0,0:0:0:0:
64,192,47622,1,0,0:0:0:0:
448,0,47622,128,0,47928:1:0:0:0:
192,192,47928,1,0,0:0:0:0:
320,192,48081,1,0,0:0:0:0:
448,192,48081,1,0,0:0:0:0:
192,192,48234,1,0,0:0:0:0:
448,192,48234,1,0,0:0:0:0:
64,0,48234,128,0,48272:1:0:0:0:
64,192,48540,1,0,0:0:0:0:
192,0,48540,128,0,48578:1:0:0:0:
64,192,48846,1,0,0:0:0:0:
320,192,48846,1,0,0:0:0:0:
448,0,48846,128,0,48884:1:0:0:0:
320,192,49152,1,0,0:0:0:0:
64,192,49305,1,0,0:0:0:0:
192,192,49305,1,0,0:0:0:0:
64,192,49458,1,0,0:0:0:0:
448,192,49458,1,0,0:0:0:0:
320,192,49765,1,0,0:0:0:0:
448,0,49765,128,0,49803:1:0:0:0:
64,192,50071,1,0,0:0:0:0:
448,192,50071,1,0,0:0:0:0:
320,0,50071,128,0,50109:1:0:0:0:
192,0,50377,128,0,50415:1:0:0:0:
320,0,50453,128,0,50492:1:0:0:0:
448,192,50530,1,0,0:0:0:0:
192,0,50530,128,0,50568:1:0:0:0:
320,192,50683,1,0,0:0:0:0:
448,192,50683,1,0,0:0:0:0:
64,0,50683,128,0,50721:1:0:0:0:
192,192,50912,1,0,0:0:0:0:
64,192,50989,1,0,0:0:0:0:
320,192,50989,1,0,0:0:0:0:
448,192,50989,1,0,0:0:0:0:
320,192,51142,1,0,0:0:0:0:
448,192,51142,1,0,0:0:0:0:
320,192,51295,1,0,0:0:0:0:
448,192,51295,1,0,0:0:0:0:
64,192,51448,1,0,0:0:0:0:
192,192,51448,1,0,0:0:0:0:
448,192,51448,1,0,0:0:0:0:
64,192,51601,1,0,0:0:0:0:
192,192,51601,1,0,0:0:0:0:
64,192,51754,1,0,0:0:0:0:
192,192,51754,1,0,0:0:0:0:
64,192,51907,1,0,0:0:0:0:
320,192,51907,1,0,0:0:0:0:
64,192,52060,1,0,0:0:0:0:
448,192,52060,1,0,0:0:0:0:
192,192,52162,1,0,0:0:0:0:
320,192,52213,1,0,0:0:0:0:
64,192,52367,1,0,0:0:0:0:
448,192,52367,1,0,0:0:0:0:
192,192,52469,1,0,0:0:0:0:
320,192,52520,1,0,0:0:0:0:
64,192,52673,1,0,0:0:0:0:
320,192,52749,1,0,0:0:0:0:
448,192,52826,1,0,0:0:0:0:
64,192,52902,1,0,0:0:0:0:
192,192,52979,1,0,0:0:0:0:
320,192,53055,1,0,0:0:0:0:
64,192,53132,1,0,0:0:0:0:
320,192,53208,1,0,0:0:0:0:
192,192,53285,1,0,0:0:0:0:
64,192,53362,1,0,0:0:0:0:
192,192,53438,1,0,0:0:0:0:
320,192,53438,1,0,0:0:0:0:
448,192,53438,1,0,0:0:0:0:
320,192,53591,1,0,0:0:0:0:
448,192,53591,1,0,0:0:0:0:
320,192,53744,1,0,0:0:0:0:
448,192,53744,1,0,0:0:0:0:
64,192,53897,1,0,0:0:0:0:
192,192,53897,1,0,0:0:0:0:
320,192,53897,1,0,0:0:0:0:
64,192,54050,1,0,0:0:0:0:
192,192,54050,1,0,0:0:0:0:
64,192,54203,1,0,0:0:0:0:
192,192,54203,1,0,0:0:0:0:
64,192,54356,1,0,0:0:0:0:
320,192,54356,1,0,0:0:0:0:
192,192,54509,1,0,0:0:0:0:
320,192,54509,1,0,0:0:0:0:
64,192,54611,1,0,0:0:0:0:
448,192,54663,1,0,0:0:0:0:
64,192,54816,1,0,0:0:0:0:
320,192,54816,1,0,0:0:0:0:
320,192,54969,1,0,0:0:0:0:
64,192,55122,1,0,0:0:0:0:
448,192,55122,1,0,0:0:0:0:
192,192,55198,1,0,0:0:0:0:
320,192,55275,1,0,0:0:0:0:
448,192,55351,1,0,0:0:0:0:
192,192,55428,1,0,0:0:0:0:
320,192,55504,1,0,0:0:0:0:
64,192,55581,1,0,0:0:0:0:
320,192,55657,1,0,0:0:0:0:
64,192,55734,1,0,0:0:0:0:
192,192,55811,1,0,0:0:0:0:
64,192,55887,1,0,0:0:0:0:
320,192,55887,1,0,0:0:0:0:
448,192,55887,1,0,0:0:0:0:
320,192,56040,1,0,0:0:0:0:
448,192,56040,1,0,0:0:0:0:
192,192,56117,1,0,0:0:0:0:
320,192,56193,1,0,0:0:0:0:
448,192,56193,1,0,0:0:0:0:
64,192,56346,1,0,0:0:0:0:
192,192,56346,1,0,0:0:0:0:
448,192,56346,1,0,0:0:0:0:
64,192,56499,1,0,0:0:0:0:
192,192,56499,1,0,0:0:0:0:
320,192,56576,1,0,0:0:0:0:
64,192,56652,1,0,0:0:0:0:
192,192,56652,1,0,0:0:0:0:
64,192,56805,1,0,0:0:0:0:
320,192,56805,1,0,0:0:0:0:
192,192,56959,1,0,0:0:0:0:
448,192,56959,1,0,0:0:0:0:
320,192,57112,1,0,0:0:0:0:
192,192,57265,1,0,0:0:0:0:
448,192,57265,1,0,0:0:0:0:
320,192,57418,1,0,0:0:0:0:
192,192,57571,1,0,0:0:0:0:
320,192,57724,1,0,0:0:0:0:
448,192,57800,1,0,0:0:0:0:
192,192,57877,1,0,0:0:0:0:
320,192,57953,1,0,0:0:0:0:
64,192,58030,1,0,0:0:0:0:
320,192,58106,1,0,0:0:0:0:
64,192,58183,1,0,0:0:0:0:
192,192,58260,1,0,0:0:0:0:
64,192,58336,1,0,0:0:0:0:
320,192,58336,1,0,0:0:0:0:
448,192,58336,1,0,0:0:0:0:
320,192,58489,1,0,0:0:0:0:
448,192,58489,1,0,0:0:0:0:
192,192,58566,1,0,0:0:0:0:
320,192,58642,1,0,0:0:0:0:
448,192,58642,1,0,0:0:0:0:
64,192,58795,1,0,0:0:0:0:
192,192,58795,1,0,0:0:0:0:
448,192,58795,1,0,0:0:0:0:
64,192,58948,1,0,0:0:0:0:
192,192,58948,1,0,0:0:0:0:
320,192,59025,1,0,0:0:0:0:
64,192,59101,1,0,0:0:0:0:
192,192,59101,1,0,0:0:0:0:
192,192,59254,1,0,0:0:0:0:
448,192,59254,1,0,0:0:0:0:
320,192,59331,1,0,0:0:0:0:
64,192,59408,1,0,0:0:0:0:
448,192,59408,1,0,0:0:0:0:
192,192,59561,1,0,0:0:0:0:
320,192,59561,1,0,0:0:0:0:
64,192,59714,1,0,0:0:0:0:
448,192,59714,1,0,0:0:0:0:
192,192,59867,1,0,0:0:0:0:
64,192,60020,1,0,0:0:0:0:
192,192,60096,1,0,0:0:0:0:
320,192,60173,1,0,0:0:0:0:
448,192,60249,1,0,0:0:0:0:
192,192,60326,1,0,0:0:0:0:
448,192,60402,1,0,0:0:0:0:
64,192,60479,1,0,0:0:0:0:
448,192,60555,1,0,0:0:0:0:
192,192,60632,1,0,0:0:0:0:
320,192,60709,1,0,0:0:0:0:
64,192,60785,1,0,0:0:0:0:
192,192,60785,1,0,0:0:0:0:
448,192,60785,1,0,0:0:0:0:
320,192,60938,1,0,0:0:0:0:
448,192,60938,1,0,0:0:0:0:
320,192,61091,1,0,0:0:0:0:
448,192,61091,1,0,0:0:0:0:
64,192,61244,1,0,0:0:0:0:
192,192,61244,1,0,0:0:0:0:
448,192,61244,1,0,0:0:0:0:
64,192,61397,1,0,0:0:0:0:
192,192,61397,1,0,0:0:0:0:
64,192,61550,1,0,0:0:0:0:
192,192,61550,1,0,0:0:0:0:
192,192,61703,1,0,0:0:0:0:
320,192,61703,1,0,0:0:0:0:
192,192,61856,1,0,0:0:0:0:
448,192,61856,1,0,0:0:0:0:
320,192,61959,1,0,0:0:0:0:
64,192,62010,1,0,0:0:0:0:
192,192,62010,1,0,0:0:0:0:
192,192,62163,1,0,0:0:0:0:
448,192,62163,1,0,0:0:0:0:
320,192,62316,1,0,0:0:0:0:
64,192,62469,1,0,0:0:0:0:
192,192,62622,1,0,0:0:0:0:
448,192,62698,1,0,0:0:0:0:
192,192,62775,1,0,0:0:0:0:
320,192,62851,1,0,0:0:0:0:
64,192,62928,1,0,0:0:0:0:
320,192,63004,1,0,0:0:0:0:
64,192,63081,1,0,0:0:0:0:
192,192,63158,1,0,0:0:0:0:
64,192,63234,1,0,0:0:0:0:
320,192,63234,1,0,0:0:0:0:
448,192,63234,1,0,0:0:0:0:
320,192,63387,1,0,0:0:0:0:
448,192,63387,1,0,0:0:0:0:
320,192,63540,1,0,0:0:0:0:
448,192,63540,1,0,0:0:0:0:
64,192,63693,1,0,0:0:0:0:
192,192,63693,1,0,0:0:0:0:
448,192,63693,1,0,0:0:0:0:
64,192,63846,1,0,0:0:0:0:
192,192,63846,1,0,0:0:0:0:
64,192,63999,1,0,0:0:0:0:
192,192,63999,1,0,0:0:0:0:
192,192,64152,1,0,0:0:0:0:
320,192,64152,1,0,0:0:0:0:
64,192,64305,1,0,0:0:0:0:
448,192,64305,1,0,0:0:0:0:
192,192,64407,1,0,0:0:0:0:
320,192,64459,1,0,0:0:0:0:
448,192,64459,1,0,0:0:0:0:
64,192,64612,1,0,0:0:0:0:
448,192,64612,1,0,0:0:0:0:
320,192,64765,1,0,0:0:0:0:
192,192,64918,1,0,0:0:0:0:
320,192,65071,1,0,0:0:0:0:
448,192,65147,1,0,0:0:0:0:
192,192,65224,1,0,0:0:0:0:
320,192,65300,1,0,0:0:0:0:
64,192,65377,1,0,0:0:0:0:
320,192,65453,1,0,0:0:0:0:
64,192,65530,1,0,0:0:0:0:
192,192,65606,1,0,0:0:0:0:
64,192,65683,1,0,0:0:0:0:
320,192,65683,1,0,0:0:0:0:
448,192,65683,1,0,0:0:0:0:
320,192,65836,1,0,0:0:0:0:
448,192,65836,1,0,0:0:0:0:
192,192,65913,1,0,0:0:0:0:
320,192,65989,1,0,0:0:0:0:
448,192,65989,1,0,0:0:0:0:
64,192,66142,1,0,0:0:0:0:
192,192,66142,1,0,0:0:0:0:
448,192,66142,1,0,0:0:0:0:
64,192,66295,1,0,0:0:0:0:
192,192,66295,1,0,0:0:0:0:
320,192,66372,1,0,0:0:0:0:
64,192,66448,1,0,0:0:0:0:
192,192,66448,1,0,0:0:0:0:
64,192,66601,1,0,0:0:0:0:
320,192,66601,1,0,0:0:0:0:
320,192,66754,1,0,0:0:0:0:
448,192,66754,1,0,0:0:0:0:
192,192,66856,1,0,0:0:0:0:
64,192,66907,1,0,0:0:0:0:
320,192,66907,1,0,0:0:0:0:
320,192,67060,1,0,0:0:0:0:
448,192,67060,1,0,0:0:0:0:
64,192,67214,1,0,0:0:0:0:
320,192,67214,1,0,0:0:0:0:
192,192,67367,1,0,0:0:0:0:
320,192,67520,1,0,0:0:0:0:
448,192,67596,1,0,0:0:0:0:
192,192,67673,1,0,0:0:0:0:
448,192,67749,1,0,0:0:0:0:
192,192,67826,1,0,0:0:0:0:
320,192,67902,1,0,0:0:0:0:
64,192,67979,1,0,0:0:0:0:
192,192,68055,1,0,0:0:0:0:
64,192,68132,1,0,0:0:0:0:
320,192,68132,1,0,0:0:0:0:
448,192,68132,1,0,0:0:0:0:
192,192,68285,1,0,0:0:0:0:
320,192,68285,1,0,0:0:0:0:
448,192,68361,1,0,0:0:0:0:
192,192,68438,1,0,0:0:0:0:
320,192,68438,1,0,0:0:0:0:
64,192,68591,1,0,0:0:0:0:
192,192,68591,1,0,0:0:0:0:
320,192,68591,1,0,0:0:0:0:
64,192,68744,1,0,0:0:0:0:
192,192,68744,1,0,0:0:0:0:
320,192,68821,1,0,0:0:0:0:
64,192,68897,1,0,0:0:0:0:
192,192,68897,1,0,0:0:0:0:
64,192,69050,1,0,0:0:0:0:
192,192,69050,1,0,0:0:0:0:
192,192,69203,1,0,0:0:0:0:
448,192,69203,1,0,0:0:0:0:
320,192,69305,1,0,0:0:0:0:
64,192,69356,1,0,0:0:0:0:
192,192,69356,1,0,0:0:0:0:
192,192,69509,1,0,0:0:0:0:
448,192,69509,1,0,0:0:0:0:
320,192,69611,1,0,0:0:0:0:
64,192,69662,1,0,0:0:0:0:
192,192,69662,1,0,0:0:0:0:
192,192,69815,1,0,0:0:0:0:
320,192,69968,1,0,0:0:0:0:
448,192,70045,1,0,0:0:0:0:
192,192,70121,1,0,0:0:0:0:
448,192,70198,1,0,0:0:0:0:
64,192,70275,1,0,0:0:0:0:
320,192,70351,1,0,0:0:0:0:
64,192,70428,1,0,0:0:0:0:
192,192,70504,1,0,0:0:0:0:
320,192,70581,1,0,0:0:0:0:
448,192,70581,1,0,0:0:0:0:
64,0,70581,128,0,73030:1:0:0:0:
192,0,73030,128,0,74178:1:0:0:0:
448,0,74254,128,0,74292:1:0:0:0:
320,0,74254,128,0,74866:1:0:0:0:
192,0,74866,128,0,75326:1:0:0:0:
64,192,75173,1,0,0:0:0:0:
320,192,75249,1,0,0:0:0:0:
448,192,75326,1,0,0:0:0:0:
320,192,75402,1,0,0:0:0:0:
192,0,75479,128,0,75517:1:0:0:0:
448,0,75479,128,0,75517:1:0:0:0:
64,0,75479,128,0,77928:1:0:0:0:
448,0,76703,128,0,77315:1:0:0:0:
192,0,77315,128,0,77928:1:0:0:0:
320,0,77928,128,0,79152:1:0:0:0:
448,0,77928,128,0,80071:1:0:0:0:
192,0,79152,128,0,79190:1:0:0:0:
64,0,79152,128,0,79764:1:0:0:0:
320,0,79764,128,0,80377:1:0:0:0:
64,192,80224,1,0,0:0:0:0:
192,192,80300,1,0,0:0:0:0:
64,192,80377,1,0,0:0:0:0:
448,192,80377,1,0,0:0:0:0:
192,192,80453,1,0,0:0:0:0:
320,192,80530,1,0,0:0:0:0:
64,192,80606,1,0,0:0:0:0:
320,192,80683,1,0,0:0:0:0:
448,192,80683,1,0,0:0:0:0:
192,192,80759,1,0,0:0:0:0:
320,192,80836,1,0,0:0:0:0:
192,192,80912,1,0,0:0:0:0:
64,192,80989,1,0,0:0:0:0:
320,192,80989,1,0,0:0:0:0:
448,192,81065,1,0,0:0:0:0:
192,192,81142,1,0,0:0:0:0:
448,192,81218,1,0,0:0:0:0:
192,192,81295,1,0,0:0:0:0:
320,192,81295,1,0,0:0:0:0:
64,192,81372,1,0,0:0:0:0:
448,192,81448,1,0,0:0:0:0:
64,192,81525,1,0,0:0:0:0:
192,192,81601,1,0,0:0:0:0:
448,192,81601,1,0,0:0:0:0:
320,192,81678,1,0,0:0:0:0:
64,192,81754,1,0,0:0:0:0:
320,192,81831,1,0,0:0:0:0:
64,192,81907,1,0,0:0:0:0:
448,192,81907,1,0,0:0:0:0:
192,192,81984,1,0,0:0:0:0:
320,192,82060,1,0,0:0:0:0:
192,192,82137,1,0,0:0:0:0:
64,192,82213,1,0,0:0:0:0:
320,192,82213,1,0,0:0:0:0:
448,192,82290,1,0,0:0:0:0:
192,192,82366,1,0,0:0:0:0:
448,192,82443,1,0,0:0:0:0:
64,192,82520,1,0,0:0:0:0:
192,192,82520,1,0,0:0:0:0:
320,192,82596,1,0,0:0:0:0:
448,192,82673,1,0,0:0:0:0:
320,192,82749,1,0,0:0:0:0:
192,192,82826,1,0,0:0:0:0:
448,192,82826,1,0,0:0:0:0:
64,192,82902,1,0,0:0:0:0:
448,192,82979,1,0,0:0:0:0:
64,192,83055,1,0,0:0:0:0:
320,192,83132,1,0,0:0:0:0:
448,192,83132,1,0,0:0:0:0:
192,192,83208,1,0,0:0:0:0:
64,192,83285,1,0,0:0:0:0:
192,192,83361,1,0,0:0:0:0:
64,192,83438,1,0,0:0:0:0:
320,192,83438,1,0,0:0:0:0:
448,192,83514,1,0,0:0:0:0:
192,192,83591,1,0,0:0:0:0:
448,192,83667,1,0,0:0:0:0:
192,192,83744,1,0,0:0:0:0:
320,192,83744,1,0,0:0:0:0:
64,192,83821,1,0,0:0:0:0:
320,192,83897,1,0,0:0:0:0:
64,192,83974,1,0,0:0:0:0:
320,192,84050,1,0,0:0:0:0:
448,192,84050,1,0,0:0:0:0:
192,192,84127,1,0,0:0:0:0:
320,192,84203,1,0,0:0:0:0:
192,192,84280,1,0,0:0:0:0:
64,192,84356,1,0,0:0:0:0:
320,192,84356,1,0,0:0:0:0:
448,192,84433,1,0,0:0:0:0:
64,192,84509,1,0,0:0:0:0:
448,192,84586,1,0,0:0:0:0:
64,192,84662,1,0,0:0:0:0:
192,192,84662,1,0,0:0:0:0:
320,192,84739,1,0,0:0:0:0:
448,192,84815,1,0,0:0:0:0:
320,192,84892,1,0,0:0:0:0:
192,192,84969,1,0,0:0:0:0:
448,192,84969,1,0,0:0:0:0:
64,192,85045,1,0,0:0:0:0:
320,192,85122,1,0,0:0:0:0:
64,192,85198,1,0,0:0:0:0:
320,192,85275,1,0,0:0:0:0:
448,192,85275,1,0,0:0:0:0:
192,192,85351,1,0,0:0:0:0:
320,192,85428,1,0,0:0:0:0:
192,192,85504,1,0,0:0:0:0:
64,192,85581,1,0,0:0:0:0:
320,192,85581,1,0,0:0:0:0:
448,192,85657,1,0,0:0:0:0:
192,192,85734,1,0,0:0:0:0:
448,192,85810,1,0,0:0:0:0:
64,192,85887,1,0,0:0:0:0:
192,192,85887,1,0,0:0:0:0:
320,192,85963,1,0,0:0:0:0:
448,192,86040,1,0,0:0:0:0:
320,192,86116,1,0,0:0:0:0:
192,192,86193,1,0,0:0:0:0:
448,192,86193,1,0,0:0:0:0:
64,192,86270,1,0,0:0:0:0:
192,192,86346,1,0,0:0:0:0:
64,192,86423,1,0,0:0:0:0:
192,192,86499,1,0,0:0:0:0:
320,192,86499,1,0,0:0:0:0:
448,192,86576,1,0,0:0:0:0:
64,192,86652,1,0,0:0:0:0:
448,192,86729,1,0,0:0:0:0:
64,192,86805,1,0,0:0:0:0:
320,192,86805,1,0,0:0:0:0:
192,192,86882,1,0,0:0:0:0:
448,192,86958,1,0,0:0:0:0:
192,192,87035,1,0,0:0:0:0:
64,192,87111,1,0,0:0:0:0:
448,192,87111,1,0,0:0:0:0:
320,192,87188,1,0,0:0:0:0:
192,192,87264,1,0,0:0:0:0:
320,192,87341,1,0,0:0:0:0:
192,192,87418,1,0,0:0:0:0:
448,192,87418,1,0,0:0:0:0:
64,192,87494,1,0,0:0:0:0:
448,192,87571,1,0,0:0:0:0:
64,192,87647,1,0,0:0:0:0:
320,192,87724,1,0,0:0:0:0:
448,192,87724,1,0,0:0:0:0:
192,192,87800,1,0,0:0:0:0:
64,192,87877,1,0,0:0:0:0:
192,192,87953,1,0,0:0:0:0:
64,192,88030,1,0,0:0:0:0:
448,192,88030,1,0,0:0:0:0:
320,192,88106,1,0,0:0:0:0:
192,192,88183,1,0,0:0:0:0:
320,192,88259,1,0,0:0:0:0:
64,192,88336,1,0,0:0:0:0:
192,192,88336,1,0,0:0:0:0:
448,192,88412,1,0,0:0:0:0:
320,192,88489,1,0,0:0:0:0:
448,192,88565,1,0,0:0:0:0:
64,192,88642,1,0,0:0:0:0:
192,192,88642,1,0,0:0:0:0:
320,192,88719,1,0,0:0:0:0:
448,192,88795,1,0,0:0:0:0:
320,192,88872,1,0,0:0:0:0:
64,192,88948,1,0,0:0:0:0:
192,192,88948,1,0,0:0:0:0:
320,192,89025,1,0,0:0:0:0:
448,192,89025,1,0,0:0:0:0:
64,192,89101,1,0,0:0:0:0:
192,192,89101,1,0,0:0:0:0:
320,192,89178,1,0,0:0:0:0:
448,192,89178,1,0,0:0:0:0:
64,192,89254,1,0,0:0:0:0:
192,192,89254,1,0,0:0:0:0:
320,192,89331,1,0,0:0:0:0:
448,192,89331,1,0,0:0:0:0:
64,192,89407,1,0,0:0:0:0:
192,192,89407,1,0,0:0:0:0:
320,192,89484,1,0,0:0:0:0:
448,192,89484,1,0,0:0:0:0:
64,192,89560,1,0,0:0:0:0:
192,0,89560,128,0,89637:1:0:0:0:
64,192,89867,1,0,0:0:0:0:
192,192,89943,1,0,0:0:0:0:
320,192,90020,1,0,0:0:0:0:
192,192,90096,1,0,0:0:0:0:
64,192,90173,1,0,0:0:0:0:
320,192,90173,1,0,0:0:0:0:
448,192,90173,1,0,0:0:0:0:
192,192,90249,1,0,0:0:0:0:
320,192,90326,1,0,0:0:0:0:
448,192,90402,1,0,0:0:0:0:
64,192,90479,1,0,0:0:0:0:
192,192,90479,1,0,0:0:0:0:
320,192,90479,1,0,0:0:0:0:
448,192,90555,1,0,0:0:0:0:
192,192,90632,1,0,0:0:0:0:
320,192,90708,1,0,0:0:0:0:
64,192,90785,1,0,0:0:0:0:
192,192,90785,1,0,0:0:0:0:
448,192,90785,1,0,0:0:0:0:
320,192,90861,1,0,0:0:0:0:
192,192,90938,1,0,0:0:0:0:
64,192,91014,1,0,0:0:0:0:
192,192,91091,1,0,0:0:0:0:
320,192,91091,1,0,0:0:0:0:
448,192,91091,1,0,0:0:0:0:
64,192,91168,1,0,0:0:0:0:
192,192,91244,1,0,0:0:0:0:
320,192,91321,1,0,0:0:0:0:
64,192,91397,1,0,0:0:0:0:
192,192,91397,1,0,0:0:0:0:
448,192,91397,1,0,0:0:0:0:
320,192,91474,1,0,0:0:0:0:
192,192,91550,1,0,0:0:0:0:
320,192,91627,1,0,0:0:0:0:
64,192,91703,1,0,0:0:0:0:
448,192,91703,1,0,0:0:0:0:
192,192,91780,1,0,0:0:0:0:
448,192,91856,1,0,0:0:0:0:
320,192,91933,1,0,0:0:0:0:
64,192,92009,1,0,0:0:0:0:
192,192,92009,1,0,0:0:0:0:
448,192,92009,1,0,0:0:0:0:
320,192,92086,1,0,0:0:0:0:
448,192,92162,1,0,0:0:0:0:
192,192,92239,1,0,0:0:0:0:
64,192,92316,1,0,0:0:0:0:
320,192,92316,1,0,0:0:0:0:
448,192,92316,1,0,0:0:0:0:
192,192,92392,1,0,0:0:0:0:
320,192,92469,1,0,0:0:0:0:
448,192,92469,1,0,0:0:0:0:
192,192,92545,1,0,0:0:0:0:
64,192,92622,1,0,0:0:0:0:
320,192,92622,1,0,0:0:0:0:
448,192,92622,1,0,0:0:0:0:
192,192,92698,1,0,0:0:0:0:
64,192,92775,1,0,0:0:0:0:
320,192,92851,1,0,0:0:0:0:
64,192,92928,1,0,0:0:0:0:
192,192,92928,1,0,0:0:0:0:
448,192,92928,1,0,0:0:0:0:
320,192,93004,1,0,0:0:0:0:
448,192,93081,1,0,0:0:0:0:
192,192,93157,1,0,0:0:0:0:
64,192,93234,1,0,0:0:0:0:
320,192,93234,1,0,0:0:0:0:
448,192,93234,1,0,0:0:0:0:
192,192,93310,1,0,0:0:0:0:
64,192,93387,1,0,0:0:0:0:
320,192,93463,1,0,0:0:0:0:
64,192,93540,1,0,0:0:0:0:
192,192,93540,1,0,0:0:0:0:
448,192,93540,1,0,0:0:0:0:
320,192,93617,1,0,0:0:0:0:
448,192,93693,1,0,0:0:0:0:
64,192,93770,1,0,0:0:0:0:
192,192,93846,1,0,0:0:0:0:
320,192,93846,1,0,0:0:0:0:
448,192,93846,1,0,0:0:0:0:
64,192,93923,1,0,0:0:0:0:
320,192,93999,1,0,0:0:0:0:
192,192,94076,1,0,0:0:0:0:
64,192,94152,1,0,0:0:0:0:
448,192,94152,1,0,0:0:0:0:
320,192,94229,1,0,0:0:0:0:
192,192,94305,1,0,0:0:0:0:
448,192,94382,1,0,0:0:0:0:
64,192,94458,1,0,0:0:0:0:
192,192,94458,1,0,0:0:0:0:
320,192,94458,1,0,0:0:0:0:
448,192,94535,1,0,0:0:0:0:
320,192,94611,1,0,0:0:0:0:
192,192,94688,1,0,0:0:0:0:
320,192,94764,1,0,0:0:0:0:
448,192,94764,1,0,0:0:0:0:
192,192,94841,1,0,0:0:0:0:
64,192,94866,1,0,0:0:0:0:
448,192,94917,1,0,0:0:0:0:
320,192,94968,1,0,0:0:0:0:
192,192,94994,1,0,0:0:0:0:
64,192,95071,1,0,0:0:0:0:
448,192,95071,1,0,0:0:0:0:
192,192,95147,1,0,0:0:0:0:
448,192,95224,1,0,0:0:0:0:
320,192,95300,1,0,0:0:0:0:
64,192,95377,1,0,0:0:0:0:
192,192,95377,1,0,0:0:0:0:
448,192,95377,1,0,0:0:0:0:
320,192,95453,1,0,0:0:0:0:
64,192,95530,1,0,0:0:0:0:
192,192,95606,1,0,0:0:0:0:
64,192,95683,1,0,0:0:0:0:
320,192,95683,1,0,0:0:0:0:
448,192,95683,1,0,0:0:0:0:
192,192,95759,1,0,0:0:0:0:
320,192,95836,1,0,0:0:0:0:
64,192,95912,1,0,0:0:0:0:
192,192,95989,1,0,0:0:0:0:
320,192,95989,1,0,0:0:0:0:
448,192,95989,1,0,0:0:0:0:
64,192,96065,1,0,0:0:0:0:
192,192,96142,1,0,0:0:0:0:
320,192,96218,1,0,0:0:0:0:
64,192,96295,1,0,0:0:0:0:
192,192,96295,1,0,0:0:0:0:
448,192,96295,1,0,0:0:0:0:
320,192,96372,1,0,0:0:0:0:
448,192,96448,1,0,0:0:0:0:
192,192,96525,1,0,0:0:0:0:
64,192,96601,1,0,0:0:0:0:
320,192,96601,1,0,0:0:0:0:
448,192,96601,1,0,0:0:0:0:
192,192,96678,1,0,0:0:0:0:
320,192,96754,1,0,0:0:0:0:
64,192,96831,1,0,0:0:0:0:
192,192,96907,1,0,0:0:0:0:
320,192,96907,1,0,0:0:0:0:
448,192,96907,1,0,0:0:0:0:
64,192,96984,1,0,0:0:0:0:
192,192,97060,1,0,0:0:0:0:
320,192,97137,1,0,0:0:0:0:
64,192,97213,1,0,0:0:0:0:
192,192,97213,1,0,0:0:0:0:
448,192,97213,1,0,0:0:0:0:
320,192,97290,1,0,0:0:0:0:
192,192,97366,1,0,0:0:0:0:
448,192,97443,1,0,0:0:0:0:
64,192,97520,1,0,0:0:0:0:
192,192,97520,1,0,0:0:0:0:
320,192,97520,1,0,0:0:0:0:
448,192,97596,1,0,0:0:0:0:
64,192,97673,1,0,0:0:0:0:
192,192,97749,1,0,0:0:0:0:
320,192,97826,1,0,0:0:0:0:
448,192,97826,1,0,0:0:0:0:
64,192,97902,1,0,0:0:0:0:
192,192,97979,1,0,0:0:0:0:
320,192,98055,1,0,0:0:0:0:
448,192,98055,1,0,0:0:0:0:
64,192,98132,1,0,0:0:0:0:
192,192,98132,1,0,0:0:0:0:
320,192,98208,1,0,0:0:0:0:
448,192,98285,1,0,0:0:0:0:
64,192,98361,1,0,0:0:0:0:
192,192,98438,1,0,0:0:0:0:
448,192,98438,1,0,0:0:0:0:
64,192,98514,1,0,0:0:0:0:
320,192,98514,1,0,0:0:0:0:
192,192,98591,1,0,0:0:0:0:
448,192,98591,1,0,0:0:0:0:
64,192,98667,1,0,0:0:0:0:
320,192,98667,1,0,0:0:0:0:
192,192,98744,1,0,0:0:0:0:
448,192,98744,1,0,0:0:0:0:
320,192,98821,1,0,0:0:0:0:
64,192,98897,1,0,0:0:0:0:
448,192,98897,1,0,0:0:0:0:
192,192,98974,1,0,0:0:0:0:
320,192,99050,1,0,0:0:0:0:
192,192,99127,1,0,0:0:0:0:
64,192,99203,1,0,0:0:0:0:
448,192,99203,1,0,0:0:0:0:
320,192,99280,1,0,0:0:0:0:
64,192,99356,1,0,0:0:0:0:
192,192,99356,1,0,0:0:0:0:
448,192,99356,1,0,0:0:0:0:
320,192,99433,1,0,0:0:0:0:
448,192,99509,1,0,0:0:0:0:
320,192,99586,1,0,0:0:0:0:
64,192,99662,1,0,0:0:0:0:
192,192,99662,1,0,0:0:0:0:
320,192,99739,1,0,0:0:0:0:
448,192,99739,1,0,0:0:0:0:
64,192,99815,1,0,0:0:0:0:
192,192,99815,1,0,0:0:0:0:
320,192,99892,1,0,0:0:0:0:
448,192,99892,1,0,0:0:0:0:
64,192,99969,1,0,0:0:0:0:
192,192,99969,1,0,0:0:0:0:
320,192,100045,1,0,0:0:0:0:
448,192,100122,1,0,0:0:0:0:
320,192,100198,1,0,0:0:0:0:
64,192,100275,1,0,0:0:0:0:
192,192,100275,1,0,0:0:0:0:
448,192,100275,1,0,0:0:0:0:
320,192,100351,1,0,0:0:0:0:
64,192,100428,1,0,0:0:0:0:
192,192,100504,1,0,0:0:0:0:
64,192,100581,1,0,0:0:0:0:
320,192,100581,1,0,0:0:0:0:
448,192,100581,1,0,0:0:0:0:
192,192,100657,1,0,0:0:0:0:
320,192,100734,1,0,0:0:0:0:
64,192,100810,1,0,0:0:0:0:
192,192,100887,1,0,0:0:0:0:
320,192,100887,1,0,0:0:0:0:
448,192,100887,1,0,0:0:0:0:
64,192,100963,1,0,0:0:0:0:
448,192,101040,1,0,0:0:0:0:
320,192,101116,1,0,0:0:0:0:
64,192,101193,1,0,0:0:0:0:
192,192,101193,1,0,0:0:0:0:
448,192,101193,1,0,0:0:0:0:
320,192,101270,1,0,0:0:0:0:
448,192,101346,1,0,0:0:0:0:
192,192,101423,1,0,0:0:0:0:
64,192,101499,1,0,0:0:0:0:
448,192,101499,1,0,0:0:0:0:
320,192,101576,1,0,0:0:0:0:
192,192,101652,1,0,0:0:0:0:
448,192,101729,1,0,0:0:0:0:
64,192,101805,1,0,0:0:0:0:
192,192,101805,1,0,0:0:0:0:
320,192,101805,1,0,0:0:0:0:
448,192,101882,1,0,0:0:0:0:
320,192,101958,1,0,0:0:0:0:
192,192,102035,1,0,0:0:0:0:
64,192,102111,1,0,0:0:0:0:
320,192,102111,1,0,0:0:0:0:
448,192,102111,1,0,0:0:0:0:
192,192,102188,1,0,0:0:0:0:
320,192,102264,1,0,0:0:0:0:
448,192,102264,1,0,0:0:0:0:
64,192,102341,1,0,0:0:0:0:
192,192,102418,1,0,0:0:0:0:
320,192,102418,1,0,0:0:0:0:
448,192,102418,1,0,0:0:0:0:
64,192,102494,1,0,0:0:0:0:
192,192,102571,1,0,0:0:0:0:
320,192,102647,1,0,0:0:0:0:
64,192,102724,1,0,0:0:0:0:
192,192,102724,1,0,0:0:0:0:
448,192,102724,1,0,0:0:0:0:
320,192,102800,1,0,0:0:0:0:
448,192,102877,1,0,0:0:0:0:
64,192,102953,1,0,0:0:0:0:
192,192,103030,1,0,0:0:0:0:
320,192,103030,1,0,0:0:0:0:
448,192,103030,1,0,0:0:0:0:
64,192,103106,1,0,0:0:0:0:
320,192,103183,1,0,0:0:0:0:
192,192,103259,1,0,0:0:0:0:
64,192,103336,1,0,0:0:0:0:
320,192,103336,1,0,0:0:0:0:
448,192,103336,1,0,0:0:0:0:
192,192,103412,1,0,0:0:0:0:
320,192,103489,1,0,0:0:0:0:
448,192,103565,1,0,0:0:0:0:
64,192,103642,1,0,0:0:0:0:
192,192,103642,1,0,0:0:0:0:
320,192,103642,1,0,0:0:0:0:
448,192,103719,1,0,0:0:0:0:
320,192,103795,1,0,0:0:0:0:
192,192,103872,1,0,0:0:0:0:
64,192,103948,1,0,0:0:0:0:
320,192,103948,1,0,0:0:0:0:
192,192,104025,1,0,0:0:0:0:
448,192,104101,1,0,0:0:0:0:
320,192,104178,1,0,0:0:0:0:
64,192,104254,1,0,0:0:0:0:
192,192,104254,1,0,0:0:0:0:
448,192,104254,1,0,0:0:0:0:
320,192,104331,1,0,0:0:0:0:
448,192,104407,1,0,0:0:0:0:
192,192,104484,1,0,0:0:0:0:
64,192,104560,1,0,0:0:0:0:
320,192,104560,1,0,0:0:0:0:
448,192,104637,1,0,0:0:0:0:
192,192,104662,1,0,0:0:0:0:
320,192,104713,1,0,0:0:0:0:
448,192,104764,1,0,0:0:0:0:
192,192,104790,1,0,0:0:0:0:
64,192,104866,1,0,0:0:0:0:
320,192,104866,1,0,0:0:0:0:
192,192,104943,1,0,0:0:0:0:
448,192,105019,1,0,0:0:0:0:
320,192,105096,1,0,0:0:0:0:
64,192,105173,1,0,0:0:0:0:
192,192,105173,1,0,0:0:0:0:
448,192,105173,1,0,0:0:0:0:
320,192,105249,1,0,0:0:0:0:
64,192,105326,1,0,0:0:0:0:
192,192,105402,1,0,0:0:0:0:
64,192,105479,1,0,0:0:0:0:
320,192,105479,1,0,0:0:0:0:
448,192,105479,1,0,0:0:0:0:
192,192,105555,1,0,0:0:0:0:
320,192,105632,1,0,0:0:0:0:
64,192,105708,1,0,0:0:0:0:
192,192,105785,1,0,0:0:0:0:
320,192,105785,1,0,0:0:0:0:
448,192,105785,1,0,0:0:0:0:
64,192,105861,1,0,0:0:0:0:
320,192,105938,1,0,0:0:0:0:
448,192,106014,1,0,0:0:0:0:
64,192,106091,1,0,0:0:0:0:
192,192,106091,1,0,0:0:0:0:
320,192,106091,1,0,0:0:0:0:
448,192,106167,1,0,0:0:0:0:
192,192,106244,1,0,0:0:0:0:
64,192,106320,1,0,0:0:0:0:
192,192,106397,1,0,0:0:0:0:
448,192,106397,1,0,0:0:0:0:
320,192,106474,1,0,0:0:0:0:
192,192,106550,1,0,0:0:0:0:
64,192,106627,1,0,0:0:0:0:
192,192,106703,1,0,0:0:0:0:
448,192,106703,1,0,0:0:0:0:
320,192,106780,1,0,0:0:0:0:
448,192,106856,1,0,0:0:0:0:
192,192,106933,1,0,0:0:0:0:
64,192,107009,1,0,0:0:0:0:
448,192,107009,1,0,0:0:0:0:
320,192,107086,1,0,0:0:0:0:
192,192,107162,1,0,0:0:0:0:
64,192,107239,1,0,0:0:0:0:
320,192,107315,1,0,0:0:0:0:
448,192,107315,1,0,0:0:0:0:
192,192,107392,1,0,0:0:0:0:
320,192,107468,1,0,0:0:0:0:
192,192,107545,1,0,0:0:0:0:
64,192,107622,1,0,0:0:0:0:
448,192,107622,1,0,0:0:0:0:
320,192,107698,1,0,0:0:0:0:
192,192,107775,1,0,0:0:0:0:
64,192,107851,1,0,0:0:0:0:
192,192,107928,1,0,0:0:0:0:
448,192,107928,1,0,0:0:0:0:
320,192,108004,1,0,0:0:0:0:
448,192,108081,1,0,0:0:0:0:
320,192,108157,1,0,0:0:0:0:
64,192,108234,1,0,0:0:0:0:
192,192,108234,1,0,0:0:0:0:
448,192,108310,1,0,0:0:0:0:
192,192,108387,1,0,0:0:0:0:
448,192,108463,1,0,0:0:0:0:
64,192,108540,1,0,0:0:0:0:
320,192,108540,1,0,0:0:0:0:
192,192,108616,1,0,0:0:0:0:
320,192,108693,1,0,0:0:0:0:
192,192,108769,1,0,0:0:0:0:
64,192,108846,1,0,0:0:0:0:
448,192,108846,1,0,0:0:0:0:
320,192,108923,1,0,0:0:0:0:
64,192,108999,1,0,0:0:0:0:
320,192,109076,1,0,0:0:0:0:
192,192,109152,1,0,0:0:0:0:
448,192,109152,1,0,0:0:0:0:
64,0,109152,128,0,109229:1:0:0:0:
320,192,109229,1,0,0:0:0:0:
192,192,109305,1,0,0:0:0:0:
64,192,109382,1,0,0:0:0:0:
320,192,109458,1,0,0:0:0:0:
448,192,109458,1,0,0:0:0:0:
192,192,109535,1,0,0:0:0:0:
64,192,109611,1,0,0:0:0:0:
320,192,109688,1,0,0:0:0:0:
64,192,109764,1,0,0:0:0:0:
192,192,109764,1,0,0:0:0:0:
448,192,109764,1,0,0:0:0:0:
64,192,109917,1,0,0:0:0:0:
192,192,109917,1,0,0:0:0:0:
448,192,109917,1,0,0:0:0:0:
64,192,110224,1,0,0:0:0:0:
192,192,110224,1,0,0:0:0:0:
448,192,110224,1,0,0:0:0:0:
64,192,110377,1,0,0:0:0:0:
192,192,110377,1,0,0:0:0:0:
448,192,110377,1,0,0:0:0:0:
64,192,110683,1,0,0:0:0:0:
192,192,110683,1,0,0:0:0:0:
448,192,110683,1,0,0:0:0:0:
64,192,110836,1,0,0:0:0:0:
192,192,110836,1,0,0:0:0:0:
448,192,110836,1,0,0:0:0:0:
64,192,111142,1,0,0:0:0:0:
192,192,111142,1,0,0:0:0:0:
448,192,111142,1,0,0:0:0:0:
64,192,111295,1,0,0:0:0:0:
192,192,111295,1,0,0:0:0:0:
448,192,111295,1,0,0:0:0:0:
64,192,111601,1,0,0:0:0:0:
320,192,111601,1,0,0:0:0:0:
448,192,111601,1,0,0:0:0:0:
64,192,111754,1,0,0:0:0:0:
320,192,111754,1,0,0:0:0:0:
448,192,111754,1,0,0:0:0:0:
192,192,111831,1,0,0:0:0:0:
320,192,111907,1,0,0:0:0:0:
192,192,111984,1,0,0:0:0:0:
64,192,112060,1,0,0:0:0:0:
320,192,112060,1,0,0:0:0:0:
448,192,112060,1,0,0:0:0:0:
64,192,112213,1,0,0:0:0:0:
192,192,112213,1,0,0:0:0:0:
448,192,112213,1,0,0:0:0:0:
320,192,112290,1,0,0:0:0:0:
192,192,112366,1,0,0:0:0:0:
320,192,112443,1,0,0:0:0:0:
64,192,112520,1,0,0:0:0:0:
192,192,112520,1,0,0:0:0:0:
448,192,112520,1,0,0:0:0:0:
64,192,112673,1,0,0:0:0:0:
320,192,112673,1,0,0:0:0:0:
448,192,112673,1,0,0:0:0:0:
192,192,112749,1,0,0:0:0:0:
320,192,112826,1,0,0:0:0:0:
192,192,112902,1,0,0:0:0:0:
64,192,112979,1,0,0:0:0:0:
320,192,112979,1,0,0:0:0:0:
448,192,112979,1,0,0:0:0:0:
64,192,113132,1,0,0:0:0:0:
192,192,113132,1,0,0:0:0:0:
448,192,113132,1,0,0:0:0:0:
320,192,113208,1,0,0:0:0:0:
192,192,113285,1,0,0:0:0:0:
320,192,113361,1,0,0:0:0:0:
64,192,113438,1,0,0:0:0:0:
192,192,113438,1,0,0:0:0:0:
448,192,113438,1,0,0:0:0:0:
64,192,113591,1,0,0:0:0:0:
192,192,113591,1,0,0:0:0:0:
448,192,113591,1,0,0:0:0:0:
64,192,113897,1,0,0:0:0:0:
192,192,113897,1,0,0:0:0:0:
448,192,113897,1,0,0:0:0:0:
64,192,114050,1,0,0:0:0:0:
192,192,114050,1,0,0:0:0:0:
448,192,114050,1,0,0:0:0:0:
64,192,114356,1,0,0:0:0:0:
192,192,114356,1,0,0:0:0:0:
448,192,114356,1,0,0:0:0:0:
64,192,114509,1,0,0:0:0:0:
192,192,114509,1,0,0:0:0:0:
448,192,114509,1,0,0:0:0:0:
64,192,114815,1,0,0:0:0:0:
192,192,114815,1,0,0:0:0:0:
448,192,114815,1,0,0:0:0:0:
64,192,114969,1,0,0:0:0:0:
192,192,114969,1,0,0:0:0:0:
448,192,114969,1,0,0:0:0:0:
192,192,115275,1,0,0:0:0:0:
320,192,115275,1,0,0:0:0:0:
448,192,115275,1,0,0:0:0:0:
192,192,115428,1,0,0:0:0:0:
320,192,115428,1,0,0:0:0:0:
448,192,115428,1,0,0:0:0:0:
192,192,115734,1,0,0:0:0:0:
320,192,115734,1,0,0:0:0:0:
448,192,115734,1,0,0:0:0:0:
192,192,115887,1,0,0:0:0:0:
320,192,115887,1,0,0:0:0:0:
448,192,115887,1,0,0:0:0:0:
192,192,116193,1,0,0:0:0:0:
320,192,116193,1,0,0:0:0:0:
448,192,116193,1,0,0:0:0:0:
192,192,116346,1,0,0:0:0:0:
320,192,116346,1,0,0:0:0:0:
448,192,116346,1,0,0:0:0:0:
320,192,116652,1,0,0:0:0:0:
448,192,116652,1,0,0:0:0:0:
320,0,116805,128,0,116882:1:0:0:0:
448,0,116805,128,0,116958:1:0:0:0:
448,0,118336,128,0,118374:1:0:0:0:
64,0,118336,128,0,118412:1:0:0:0:
64,192,118642,1,0,0:0:0:0:
192,192,118795,1,0,0:0:0:0:
448,192,118948,1,0,0:0:0:0:
320,192,119101,1,0,0:0:0:0:
192,192,119254,1,0,0:0:0:0:
64,192,119407,1,0,0:0:0:0:
192,192,119560,1,0,0:0:0:0:
320,192,119713,1,0,0:0:0:0:
64,192,119867,1,0,0:0:0:0:
192,192,120020,1,0,0:0:0:0:
320,192,120173,1,0,0:0:0:0:
192,192,120326,1,0,0:0:0:0:
448,192,120479,1,0,0:0:0:0:
64,192,120632,1,0,0:0:0:0:
320,192,120785,1,0,0:0:0:0:
192,192,120938,1,0,0:0:0:0:
320,192,121091,1,0,0:0:0:0:
448,192,121244,1,0,0:0:0:0:
192,192,121397,1,0,0:0:0:0:
64,0,121397,128,0,121474:1:0:0:0:
320,192,121550,1,0,0:0:0:0:
192,192,121703,1,0,0:0:0:0:
320,192,121856,1,0,0:0:0:0:
448,192,122009,1,0,0:0:0:0:
64,192,122162,1,0,0:0:0:0:
192,192,122316,1,0,0:0:0:0:
320,192,122469,1,0,0:0:0:0:
192,192,122622,1,0,0:0:0:0:
448,192,122775,1,0,0:0:0:0:
