osu file format v13

[General]
AudioFilename: Baby I.ogg
AudioLeadIn: 2
PreviewTime: 42783
Countdown: 0
SampleSet: Normal
StackLeniency: 0.7
Mode: 3
LetterboxInBreaks: 0
SpecialStyle: 0
WidescreenStoryboard: 0

[Editor]
DistanceSpacing: 0.8
BeatDivisor: 4
GridSize: 8
TimelineZoom: 1

[Metadata]
Title:Yolomania Vol. 3A
TitleUnicode:Yolomania Vol. 3A
Artist:Various
ArtistUnicode:Various
Creator:Fullerene-
Version:Ariana Grande - Baby I [Leo137] 14
Source:
Tags:Stepmania yolo3 volume
BeatmapID:560734
BeatmapSetID:243027

[Difficulty]
HPDrainRate:8
CircleSize:4
OverallDifficulty:5
ApproachRate:10
SliderMultiplier:1.4
SliderTickRate:1

[Events]
//Background and Video events
0,0,"baby i.jpg",0,0
//Break Periods
//Storyboard Layer 0 (Background)
//Storyboard Layer 1 (Fail)
//Storyboard Layer 2 (Pass)
//Storyboard Layer 3 (Foreground)
//Storyboard Sound Samples

[TimingPoints]
430.167,588.2353,4,1,0,15,1,0

[HitObjects]
192,0,482,128,0,5188:1:0:0:0:
64,0,5136,128,0,5234:1:0:0:0:
320,0,5136,128,0,5234:1:0:0:0:
448,0,5136,128,0,5234:1:0:0:0:
64,0,5283,128,0,5381:1:0:0:0:
320,0,5283,128,0,5381:1:0:0:0:
448,0,5283,128,0,5381:1:0:0:0:
64,0,5430,128,0,5528:1:0:0:0:
320,0,5430,128,0,5528:1:0:0:0:
448,0,5430,128,0,5528:1:0:0:0:
64,0,5577,128,0,5675:1:0:0:0:
320,0,5577,128,0,5675:1:0:0:0:
448,0,5577,128,0,5675:1:0:0:0:
64,0,6018,128,0,6116:1:0:0:0:
320,0,6018,128,0,6116:1:0:0:0:
448,0,6018,128,0,6116:1:0:0:0:
64,0,6165,128,0,6263:1:0:0:0:
320,0,6165,128,0,6263:1:0:0:0:
448,0,6165,128,0,6263:1:0:0:0:
64,0,6312,128,0,6410:1:0:0:0:
320,0,6312,128,0,6410:1:0:0:0:
448,0,6312,128,0,6410:1:0:0:0:
64,0,6459,128,0,6557:1:0:0:0:
320,0,6459,128,0,6557:1:0:0:0:
448,0,6459,128,0,6557:1:0:0:0:
64,192,6900,1,0,0:0:0:0:
320,192,6900,1,0,0:0:0:0:
192,192,7047,1,0,0:0:0:0:
64,192,7194,1,0,0:0:0:0:
320,192,7341,1,0,0:0:0:0:
64,0,7488,128,0,7587:1:0:0:0:
192,0,7488,128,0,7587:1:0:0:0:
448,0,7488,128,0,7587:1:0:0:0:
64,0,7636,128,0,7734:1:0:0:0:
192,0,7636,128,0,7734:1:0:0:0:
448,0,7636,128,0,7734:1:0:0:0:
64,0,7783,128,0,7881:1:0:0:0:
192,0,7783,128,0,7881:1:0:0:0:
448,0,7783,128,0,7881:1:0:0:0:
64,0,7930,128,0,8028:1:0:0:0:
192,0,7930,128,0,8028:1:0:0:0:
448,0,7930,128,0,8028:1:0:0:0:
64,0,8371,128,0,8469:1:0:0:0:
192,0,8371,128,0,8469:1:0:0:0:
448,0,8371,128,0,8469:1:0:0:0:
64,0,8518,128,0,8616:1:0:0:0:
192,0,8518,128,0,8616:1:0:0:0:
448,0,8518,128,0,8616:1:0:0:0:
64,0,8665,128,0,8763:1:0:0:0:
192,0,8665,128,0,8763:1:0:0:0:
448,0,8665,128,0,8763:1:0:0:0:
64,0,8812,128,0,8910:1:0:0:0:
192,0,8812,128,0,8910:1:0:0:0:
448,0,8812,128,0,8910:1:0:0:0:
320,0,9253,128,0,9841:1:0:0:0:
64,0,9841,128,0,9939:1:0:0:0:
192,0,9841,128,0,9939:1:0:0:0:
448,0,9841,128,0,9939:1:0:0:0:
64,192,10136,1,0,0:0:0:0:
192,192,10283,1,0,0:0:0:0:
320,192,10283,1,0,0:0:0:0:
64,192,10430,1,0,0:0:0:0:
448,192,10430,1,0,0:0:0:0:
320,192,10577,1,0,0:0:0:0:
192,192,10724,1,0,0:0:0:0:
192,192,10871,1,0,0:0:0:0:
192,192,11165,1,0,0:0:0:0:
192,192,11312,1,0,0:0:0:0:
448,192,11312,1,0,0:0:0:0:
320,192,11459,1,0,0:0:0:0:
64,192,11606,1,0,0:0:0:0:
448,192,11606,1,0,0:0:0:0:
320,192,11753,1,0,0:0:0:0:
64,192,11900,1,0,0:0:0:0:
64,192,12047,1,0,0:0:0:0:
64,192,12194,1,0,0:0:0:0:
192,192,12194,1,0,0:0:0:0:
320,192,12268,1,0,0:0:0:0:
192,192,12341,1,0,0:0:0:0:
448,192,12415,1,0,0:0:0:0:
64,192,12488,1,0,0:0:0:0:
192,192,12562,1,0,0:0:0:0:
320,192,12636,1,0,0:0:0:0:
448,192,12636,1,0,0:0:0:0:
192,192,12709,1,0,0:0:0:0:
64,192,12783,1,0,0:0:0:0:
320,192,12783,1,0,0:0:0:0:
192,192,12930,1,0,0:0:0:0:
192,192,13224,1,0,0:0:0:0:
192,192,13518,1,0,0:0:0:0:
320,192,13665,1,0,0:0:0:0:
448,192,13665,1,0,0:0:0:0:
320,192,13812,1,0,0:0:0:0:
64,192,13959,1,0,0:0:0:0:
448,192,13959,1,0,0:0:0:0:
192,0,14106,128,0,14400:1:0:0:0:
64,0,14547,128,0,14645:1:0:0:0:
192,0,14547,128,0,14645:1:0:0:0:
448,0,14547,128,0,14645:1:0:0:0:
448,0,14841,128,0,14988:1:0:0:0:
192,192,14988,1,0,0:0:0:0:
320,192,14988,1,0,0:0:0:0:
64,192,15136,1,0,0:0:0:0:
448,0,15136,128,0,15283:1:0:0:0:
320,192,15283,1,0,0:0:0:0:
448,0,15430,128,0,15577:1:0:0:0:
448,0,15724,128,0,15871:1:0:0:0:
320,192,16018,1,0,0:0:0:0:
448,0,16018,128,0,16165:1:0:0:0:
192,192,16165,1,0,0:0:0:0:
64,192,16312,1,0,0:0:0:0:
320,192,16312,1,0,0:0:0:0:
192,192,16386,1,0,0:0:0:0:
448,192,16459,1,0,0:0:0:0:
320,192,16508,1,0,0:0:0:0:
192,192,16606,1,0,0:0:0:0:
64,0,16606,128,0,16753:1:0:0:0:
320,192,16753,1,0,0:0:0:0:
448,192,16753,1,0,0:0:0:0:
192,192,16900,1,0,0:0:0:0:
64,0,16900,128,0,17047:1:0:0:0:
320,192,16974,1,0,0:0:0:0:
192,192,17047,1,0,0:0:0:0:
448,192,17121,1,0,0:0:0:0:
64,0,17194,128,0,17341:1:0:0:0:
192,192,17268,1,0,0:0:0:0:
320,192,17341,1,0,0:0:0:0:
448,192,17341,1,0,0:0:0:0:
192,192,17415,1,0,0:0:0:0:
64,0,17488,128,0,17636:1:0:0:0:
320,192,17783,1,0,0:0:0:0:
64,0,17783,128,0,17930:1:0:0:0:
448,192,17881,1,0,0:0:0:0:
320,192,17979,1,0,0:0:0:0:
64,0,18077,128,0,18224:1:0:0:0:
320,192,18273,1,0,0:0:0:0:
192,192,18371,1,0,0:0:0:0:
64,0,18371,128,0,18518:1:0:0:0:
448,192,18469,1,0,0:0:0:0:
320,192,18665,1,0,0:0:0:0:
64,192,18861,1,0,0:0:0:0:
192,192,19057,1,0,0:0:0:0:
192,0,19253,128,0,19351:1:0:0:0:
320,0,19253,128,0,19351:1:0:0:0:
448,0,19253,128,0,19351:1:0:0:0:
64,192,19400,1,0,0:0:0:0:
192,192,19547,1,0,0:0:0:0:
64,192,19694,1,0,0:0:0:0:
320,192,19694,1,0,0:0:0:0:
192,192,19841,1,0,0:0:0:0:
448,192,19841,1,0,0:0:0:0:
320,192,19988,1,0,0:0:0:0:
448,192,20136,1,0,0:0:0:0:
448,192,20283,1,0,0:0:0:0:
448,192,20577,1,0,0:0:0:0:
320,192,20724,1,0,0:0:0:0:
448,192,20724,1,0,0:0:0:0:
192,192,20871,1,0,0:0:0:0:
64,192,21018,1,0,0:0:0:0:
448,192,21018,1,0,0:0:0:0:
192,192,21165,1,0,0:0:0:0:
320,192,21312,1,0,0:0:0:0:
320,192,21459,1,0,0:0:0:0:
64,192,21606,1,0,0:0:0:0:
320,192,21606,1,0,0:0:0:0:
192,192,21680,1,0,0:0:0:0:
448,192,21753,1,0,0:0:0:0:
192,192,21827,1,0,0:0:0:0:
320,192,21900,1,0,0:0:0:0:
64,192,21974,1,0,0:0:0:0:
320,192,22047,1,0,0:0:0:0:
448,192,22047,1,0,0:0:0:0:
192,192,22121,1,0,0:0:0:0:
64,192,22194,1,0,0:0:0:0:
448,192,22194,1,0,0:0:0:0:
320,192,22341,1,0,0:0:0:0:
320,192,22636,1,0,0:0:0:0:
320,192,22930,1,0,0:0:0:0:
64,192,23077,1,0,0:0:0:0:
192,192,23077,1,0,0:0:0:0:
448,192,23224,1,0,0:0:0:0:
64,192,23371,1,0,0:0:0:0:
320,192,23371,1,0,0:0:0:0:
192,192,23518,1,0,0:0:0:0:
64,0,23959,128,0,24057:1:0:0:0:
192,0,23959,128,0,24057:1:0:0:0:
320,0,23959,128,0,24057:1:0:0:0:
64,0,24253,128,0,24400:1:0:0:0:
320,192,24400,1,0,0:0:0:0:
448,192,24400,1,0,0:0:0:0:
448,192,24547,1,0,0:0:0:0:
64,0,24547,128,0,24694:1:0:0:0:
320,192,24694,1,0,0:0:0:0:
64,0,24841,128,0,24988:1:0:0:0:
64,0,25136,128,0,25283:1:0:0:0:
192,192,25430,1,0,0:0:0:0:
64,0,25430,128,0,25577:1:0:0:0:
320,192,25577,1,0,0:0:0:0:
64,192,25724,1,0,0:0:0:0:
448,192,25724,1,0,0:0:0:0:
320,192,25797,1,0,0:0:0:0:
192,192,25871,1,0,0:0:0:0:
64,192,25920,1,0,0:0:0:0:
320,192,26018,1,0,0:0:0:0:
448,0,26018,128,0,26165:1:0:0:0:
192,192,26165,1,0,0:0:0:0:
320,192,26165,1,0,0:0:0:0:
64,192,26312,1,0,0:0:0:0:
448,0,26312,128,0,26459:1:0:0:0:
192,192,26386,1,0,0:0:0:0:
320,192,26459,1,0,0:0:0:0:
64,192,26533,1,0,0:0:0:0:
448,0,26606,128,0,26753:1:0:0:0:
192,192,26680,1,0,0:0:0:0:
64,192,26753,1,0,0:0:0:0:
320,192,26753,1,0,0:0:0:0:
192,192,26827,1,0,0:0:0:0:
64,192,26900,1,0,0:0:0:0:
448,0,26900,128,0,27047:1:0:0:0:
64,192,27194,1,0,0:0:0:0:
448,0,27194,128,0,27341:1:0:0:0:
192,192,27292,1,0,0:0:0:0:
64,192,27390,1,0,0:0:0:0:
192,0,27488,128,0,27636:1:0:0:0:
320,192,27685,1,0,0:0:0:0:
64,192,27783,1,0,0:0:0:0:
192,192,27783,1,0,0:0:0:0:
448,192,27881,1,0,0:0:0:0:
320,0,28077,128,0,28224:1:0:0:0:
192,192,28273,1,0,0:0:0:0:
320,192,28469,1,0,0:0:0:0:
64,0,28665,128,0,28763:1:0:0:0:
320,0,28665,128,0,28763:1:0:0:0:
448,0,28665,128,0,28763:1:0:0:0:
192,192,28959,1,0,0:0:0:0:
192,192,29106,1,0,0:0:0:0:
320,192,29106,1,0,0:0:0:0:
64,192,29253,1,0,0:0:0:0:
448,192,29253,1,0,0:0:0:0:
320,192,29400,1,0,0:0:0:0:
192,0,29547,128,0,29841:1:0:0:0:
192,0,29988,128,0,30136:1:0:0:0:
320,192,30136,1,0,0:0:0:0:
448,192,30136,1,0,0:0:0:0:
192,192,30283,1,0,0:0:0:0:
64,192,30430,1,0,0:0:0:0:
448,192,30430,1,0,0:0:0:0:
320,192,30577,1,0,0:0:0:0:
320,192,30724,1,0,0:0:0:0:
64,192,31018,1,0,0:0:0:0:
192,192,31018,1,0,0:0:0:0:
448,192,31091,1,0,0:0:0:0:
320,192,31165,1,0,0:0:0:0:
192,192,31238,1,0,0:0:0:0:
448,192,31312,1,0,0:0:0:0:
320,192,31386,1,0,0:0:0:0:
64,192,31459,1,0,0:0:0:0:
192,192,31459,1,0,0:0:0:0:
448,192,31533,1,0,0:0:0:0:
64,192,31606,1,0,0:0:0:0:
320,192,31606,1,0,0:0:0:0:
192,0,31900,128,0,32194:1:0:0:0:
192,0,32341,128,0,32488:1:0:0:0:
320,192,32488,1,0,0:0:0:0:
448,192,32488,1,0,0:0:0:0:
192,192,32636,1,0,0:0:0:0:
64,192,32783,1,0,0:0:0:0:
448,0,32783,128,0,32930:1:0:0:0:
64,192,32930,1,0,0:0:0:0:
320,0,33077,128,0,33224:1:0:0:0:
448,0,33371,128,0,33469:1:0:0:0:
64,0,33371,128,0,33518:1:0:0:0:
320,0,33371,128,0,33518:1:0:0:0:
192,192,33665,1,0,0:0:0:0:
192,192,33812,1,0,0:0:0:0:
448,192,33812,1,0,0:0:0:0:
64,0,33959,128,0,34106:1:0:0:0:
320,0,33959,128,0,34106:1:0:0:0:
448,192,34106,1,0,0:0:0:0:
192,0,34547,128,0,34694:1:0:0:0:
320,192,34841,1,0,0:0:0:0:
448,192,34841,1,0,0:0:0:0:
192,192,34988,1,0,0:0:0:0:
64,192,35136,1,0,0:0:0:0:
448,0,35136,128,0,35283:1:0:0:0:
320,192,35283,1,0,0:0:0:0:
192,192,35430,1,0,0:0:0:0:
64,0,35430,128,0,35577:1:0:0:0:
192,192,35577,1,0,0:0:0:0:
320,192,35577,1,0,0:0:0:0:
448,192,35724,1,0,0:0:0:0:
64,0,35724,128,0,35871:1:0:0:0:
192,192,35797,1,0,0:0:0:0:
320,192,35871,1,0,0:0:0:0:
192,192,35944,1,0,0:0:0:0:
448,192,36018,1,0,0:0:0:0:
64,192,36091,1,0,0:0:0:0:
320,192,36165,1,0,0:0:0:0:
448,192,36165,1,0,0:0:0:0:
192,192,36239,1,0,0:0:0:0:
64,192,36312,1,0,0:0:0:0:
448,192,36312,1,0,0:0:0:0:
320,192,36704,1,0,0:0:0:0:
192,192,36802,1,0,0:0:0:0:
320,192,36900,1,0,0:0:0:0:
192,192,37096,1,0,0:0:0:0:
320,192,37194,1,0,0:0:0:0:
448,0,37194,128,0,37293:1:0:0:0:
192,192,37293,1,0,0:0:0:0:
320,0,37489,128,0,37587:1:0:0:0:
320,192,37685,1,0,0:0:0:0:
64,0,37783,128,0,37881:1:0:0:0:
192,192,37881,1,0,0:0:0:0:
64,0,38077,128,0,38175:1:0:0:0:
320,0,38077,128,0,38175:1:0:0:0:
448,0,38077,128,0,38175:1:0:0:0:
64,192,38371,1,0,0:0:0:0:
448,192,38371,1,0,0:0:0:0:
192,192,38518,1,0,0:0:0:0:
64,192,38665,1,0,0:0:0:0:
448,192,38665,1,0,0:0:0:0:
192,192,38812,1,0,0:0:0:0:
64,192,38959,1,0,0:0:0:0:
320,192,38959,1,0,0:0:0:0:
64,192,39253,1,0,0:0:0:0:
320,192,39253,1,0,0:0:0:0:
64,192,39547,1,0,0:0:0:0:
448,192,39547,1,0,0:0:0:0:
192,192,39695,1,0,0:0:0:0:
64,192,39842,1,0,0:0:0:0:
448,192,39842,1,0,0:0:0:0:
192,192,39989,1,0,0:0:0:0:
64,192,40136,1,0,0:0:0:0:
448,192,40136,1,0,0:0:0:0:
192,192,40430,1,0,0:0:0:0:
448,192,40430,1,0,0:0:0:0:
320,192,40503,1,0,0:0:0:0:
64,192,40577,1,0,0:0:0:0:
320,192,40650,1,0,0:0:0:0:
192,192,40724,1,0,0:0:0:0:
448,192,40724,1,0,0:0:0:0:
64,192,40797,1,0,0:0:0:0:
320,192,40871,1,0,0:0:0:0:
64,192,40945,1,0,0:0:0:0:
192,192,41018,1,0,0:0:0:0:
448,192,41018,1,0,0:0:0:0:
320,192,41092,1,0,0:0:0:0:
192,192,41165,1,0,0:0:0:0:
64,192,41239,1,0,0:0:0:0:
192,192,41312,1,0,0:0:0:0:
320,192,41312,1,0,0:0:0:0:
448,192,41386,1,0,0:0:0:0:
320,192,41459,1,0,0:0:0:0:
64,192,41533,1,0,0:0:0:0:
192,192,41606,1,0,0:0:0:0:
320,192,41606,1,0,0:0:0:0:
64,192,41680,1,0,0:0:0:0:
192,192,41753,1,0,0:0:0:0:
320,192,41827,1,0,0:0:0:0:
64,192,41900,1,0,0:0:0:0:
448,192,41900,1,0,0:0:0:0:
192,192,42048,1,0,0:0:0:0:
64,192,42195,1,0,0:0:0:0:
448,192,42195,1,0,0:0:0:0:
192,192,42342,1,0,0:0:0:0:
64,192,42489,1,0,0:0:0:0:
448,192,42489,1,0,0:0:0:0:
192,0,42783,128,0,42881:1:0:0:0:
320,0,42783,128,0,42881:1:0:0:0:
448,0,42783,128,0,42881:1:0:0:0:
192,0,42930,128,0,43028:1:0:0:0:
320,0,42930,128,0,43028:1:0:0:0:
448,0,42930,128,0,43028:1:0:0:0:
192,0,43077,128,0,43175:1:0:0:0:
320,0,43077,128,0,43175:1:0:0:0:
448,0,43077,128,0,43175:1:0:0:0:
192,0,43224,128,0,43322:1:0:0:0:
320,0,43224,128,0,43322:1:0:0:0:
448,0,43224,128,0,43322:1:0:0:0:
192,0,43665,128,0,43763:1:0:0:0:
320,0,43665,128,0,43763:1:0:0:0:
448,0,43665,128,0,43763:1:0:0:0:
192,0,43812,128,0,43910:1:0:0:0:
320,0,43812,128,0,43910:1:0:0:0:
448,0,43812,128,0,43910:1:0:0:0:
192,0,43959,128,0,44057:1:0:0:0:
320,0,43959,128,0,44057:1:0:0:0:
448,0,43959,128,0,44057:1:0:0:0:
192,0,44106,128,0,44204:1:0:0:0:
320,0,44106,128,0,44204:1:0:0:0:
448,0,44106,128,0,44204:1:0:0:0:
192,192,44400,1,0,0:0:0:0:
64,192,44548,1,0,0:0:0:0:
192,192,44695,1,0,0:0:0:0:
64,192,44842,1,0,0:0:0:0:
192,192,44989,1,0,0:0:0:0:
64,0,45136,128,0,45234:1:0:0:0:
320,0,45136,128,0,45234:1:0:0:0:
448,0,45136,128,0,45234:1:0:0:0:
64,0,45283,128,0,45381:1:0:0:0:
320,0,45283,128,0,45381:1:0:0:0:
448,0,45283,128,0,45381:1:0:0:0:
64,0,45430,128,0,45528:1:0:0:0:
320,0,45430,128,0,45528:1:0:0:0:
448,0,45430,128,0,45528:1:0:0:0:
64,0,45577,128,0,45675:1:0:0:0:
320,0,45577,128,0,45675:1:0:0:0:
448,0,45577,128,0,45675:1:0:0:0:
192,0,46312,128,0,46410:1:0:0:0:
320,0,46312,128,0,46410:1:0:0:0:
64,0,46312,128,0,46606:1:0:0:0:
64,0,46753,128,0,46851:1:0:0:0:
320,0,46753,128,0,46851:1:0:0:0:
448,0,46753,128,0,47048:1:0:0:0:
192,0,47195,128,0,47293:1:0:0:0:
448,0,47195,128,0,47293:1:0:0:0:
320,0,47195,128,0,47489:1:0:0:0:
448,192,47489,1,0,0:0:0:0:
64,0,47489,128,0,47636:1:0:0:0:
192,192,47636,1,0,0:0:0:0:
320,192,47783,1,0,0:0:0:0:
448,192,47783,1,0,0:0:0:0:
64,192,47930,1,0,0:0:0:0:
448,192,47930,1,0,0:0:0:0:
64,192,48077,1,0,0:0:0:0:
192,192,48077,1,0,0:0:0:0:
320,192,48371,1,0,0:0:0:0:
448,0,48371,128,0,48518:1:0:0:0:
192,192,48518,1,0,0:0:0:0:
320,0,48665,128,0,48812:1:0:0:0:
64,192,48959,1,0,0:0:0:0:
320,192,48959,1,0,0:0:0:0:
320,192,49106,1,0,0:0:0:0:
64,192,49253,1,0,0:0:0:0:
192,192,49253,1,0,0:0:0:0:
64,192,49548,1,0,0:0:0:0:
192,0,49548,128,0,49695:1:0:0:0:
320,0,49842,128,0,49989:1:0:0:0:
448,192,49989,1,0,0:0:0:0:
64,192,50136,1,0,0:0:0:0:
192,192,50136,1,0,0:0:0:0:
64,192,50283,1,0,0:0:0:0:
448,192,50283,1,0,0:0:0:0:
64,192,50430,1,0,0:0:0:0:
192,192,50430,1,0,0:0:0:0:
320,192,50724,1,0,0:0:0:0:
448,192,50724,1,0,0:0:0:0:
192,192,50871,1,0,0:0:0:0:
64,0,51018,128,0,51116:1:0:0:0:
448,0,51018,128,0,51116:1:0:0:0:
320,0,51018,128,0,51312:1:0:0:0:
64,192,51312,1,0,0:0:0:0:
448,192,51312,1,0,0:0:0:0:
64,0,51459,128,0,51557:1:0:0:0:
320,0,51459,128,0,51557:1:0:0:0:
192,0,51459,128,0,51753:1:0:0:0:
448,192,51606,1,0,0:0:0:0:
192,0,51900,128,0,51998:1:0:0:0:
320,0,51900,128,0,51998:1:0:0:0:
448,0,51900,128,0,52195:1:0:0:0:
192,192,52195,1,0,0:0:0:0:
64,0,52195,128,0,52342:1:0:0:0:
320,192,52342,1,0,0:0:0:0:
64,192,52489,1,0,0:0:0:0:
192,192,52489,1,0,0:0:0:0:
64,192,52636,1,0,0:0:0:0:
448,192,52636,1,0,0:0:0:0:
64,192,52783,1,0,0:0:0:0:
192,192,52783,1,0,0:0:0:0:
448,192,53077,1,0,0:0:0:0:
320,0,53077,128,0,53224:1:0:0:0:
64,192,53224,1,0,0:0:0:0:
192,0,53371,128,0,53518:1:0:0:0:
64,192,53665,1,0,0:0:0:0:
448,192,53665,1,0,0:0:0:0:
64,192,53812,1,0,0:0:0:0:
192,192,53959,1,0,0:0:0:0:
192,0,54253,128,0,54400:1:0:0:0:
448,192,54548,1,0,0:0:0:0:
320,0,54548,128,0,54695:1:0:0:0:
192,192,54695,1,0,0:0:0:0:
320,192,54842,1,0,0:0:0:0:
64,192,54989,1,0,0:0:0:0:
192,192,54989,1,0,0:0:0:0:
320,192,55136,1,0,0:0:0:0:
448,192,55136,1,0,0:0:0:0:
192,192,55430,1,0,0:0:0:0:
448,192,55430,1,0,0:0:0:0:
320,192,55577,1,0,0:0:0:0:
64,0,55724,128,0,55798:1:0:0:0:
448,0,55724,128,0,55798:1:0:0:0:
192,0,55724,128,0,56018:1:0:0:0:
64,192,55871,1,0,0:0:0:0:
448,192,55871,1,0,0:0:0:0:
64,192,56018,1,0,0:0:0:0:
448,192,56018,1,0,0:0:0:0:
64,0,56165,128,0,56263:1:0:0:0:
192,0,56165,128,0,56263:1:0:0:0:
320,0,56165,128,0,56459:1:0:0:0:
448,192,56312,1,0,0:0:0:0:
320,0,56606,128,0,56705:1:0:0:0:
448,0,56606,128,0,56705:1:0:0:0:
64,0,56606,128,0,56901:1:0:0:0:
448,192,56901,1,0,0:0:0:0:
320,0,56901,128,0,57048:1:0:0:0:
320,192,57195,1,0,0:0:0:0:
448,192,57195,1,0,0:0:0:0:
64,192,57342,1,0,0:0:0:0:
448,192,57342,1,0,0:0:0:0:
64,192,57489,1,0,0:0:0:0:
192,192,57489,1,0,0:0:0:0:
448,192,57783,1,0,0:0:0:0:
320,0,57783,128,0,57930:1:0:0:0:
448,192,58077,1,0,0:0:0:0:
192,0,58077,128,0,58224:1:0:0:0:
192,192,58371,1,0,0:0:0:0:
320,192,58371,1,0,0:0:0:0:
448,192,58518,1,0,0:0:0:0:
64,192,58665,1,0,0:0:0:0:
192,192,58665,1,0,0:0:0:0:
192,192,58959,1,0,0:0:0:0:
448,0,58959,128,0,59107:1:0:0:0:
64,192,59254,1,0,0:0:0:0:
192,0,59254,128,0,59401:1:0:0:0:
320,192,59548,1,0,0:0:0:0:
448,192,59548,1,0,0:0:0:0:
192,192,59695,1,0,0:0:0:0:
448,192,59695,1,0,0:0:0:0:
192,192,59842,1,0,0:0:0:0:
320,192,59842,1,0,0:0:0:0:
448,192,60136,1,0,0:0:0:0:
320,0,60136,128,0,60283:1:0:0:0:
448,192,60430,1,0,0:0:0:0:
192,0,60430,128,0,60577:1:0:0:0:
64,192,60724,1,0,0:0:0:0:
320,192,60724,1,0,0:0:0:0:
192,192,60871,1,0,0:0:0:0:
64,192,61018,1,0,0:0:0:0:
448,192,61018,1,0,0:0:0:0:
192,192,61312,1,0,0:0:0:0:
320,192,61459,1,0,0:0:0:0:
448,192,61459,1,0,0:0:0:0:
320,192,61607,1,0,0:0:0:0:
448,192,61607,1,0,0:0:0:0:
192,192,61680,1,0,0:0:0:0:
64,192,61754,1,0,0:0:0:0:
448,192,61754,1,0,0:0:0:0:
320,192,61827,1,0,0:0:0:0:
64,192,61901,1,0,0:0:0:0:
448,192,61901,1,0,0:0:0:0:
192,192,61974,1,0,0:0:0:0:
320,192,62048,1,0,0:0:0:0:
448,192,62048,1,0,0:0:0:0:
64,192,62121,1,0,0:0:0:0:
192,192,62195,1,0,0:0:0:0:
320,192,62195,1,0,0:0:0:0:
448,192,62268,1,0,0:0:0:0:
64,192,62342,1,0,0:0:0:0:
192,192,62342,1,0,0:0:0:0:
448,192,62415,1,0,0:0:0:0:
192,192,62489,1,0,0:0:0:0:
320,192,62489,1,0,0:0:0:0:
64,192,62562,1,0,0:0:0:0:
320,192,62636,1,0,0:0:0:0:
448,192,62636,1,0,0:0:0:0:
192,192,62709,1,0,0:0:0:0:
64,192,62783,1,0,0:0:0:0:
320,192,62783,1,0,0:0:0:0:
192,192,62857,1,0,0:0:0:0:
64,192,62930,1,0,0:0:0:0:
448,192,62930,1,0,0:0:0:0:
320,192,63004,1,0,0:0:0:0:
64,192,63077,1,0,0:0:0:0:
448,192,63077,1,0,0:0:0:0:
320,192,63151,1,0,0:0:0:0:
192,192,63224,1,0,0:0:0:0:
448,192,63224,1,0,0:0:0:0:
64,192,63298,1,0,0:0:0:0:
320,192,63371,1,0,0:0:0:0:
448,192,63371,1,0,0:0:0:0:
64,192,63445,1,0,0:0:0:0:
320,192,63518,1,0,0:0:0:0:
448,192,63518,1,0,0:0:0:0:
192,192,63592,1,0,0:0:0:0:
64,192,63665,1,0,0:0:0:0:
320,192,63665,1,0,0:0:0:0:
448,192,63739,1,0,0:0:0:0:
64,192,63812,1,0,0:0:0:0:
192,192,63812,1,0,0:0:0:0:
320,192,63886,1,0,0:0:0:0:
64,0,63960,128,0,64058:1:0:0:0:
192,0,63960,128,0,64058:1:0:0:0:
448,0,63960,128,0,64058:1:0:0:0:
64,0,64107,128,0,64205:1:0:0:0:
192,0,64107,128,0,64205:1:0:0:0:
448,0,64107,128,0,64205:1:0:0:0:
64,0,64254,128,0,64352:1:0:0:0:
192,0,64254,128,0,64352:1:0:0:0:
448,0,64254,128,0,64352:1:0:0:0:
64,0,64401,128,0,64499:1:0:0:0:
192,0,64401,128,0,64499:1:0:0:0:
448,0,64401,128,0,64499:1:0:0:0:
64,0,64842,128,0,64940:1:0:0:0:
192,0,64842,128,0,64940:1:0:0:0:
448,0,64842,128,0,64940:1:0:0:0:
64,0,64989,128,0,65087:1:0:0:0:
192,0,64989,128,0,65087:1:0:0:0:
448,0,64989,128,0,65087:1:0:0:0:
64,0,65136,128,0,65234:1:0:0:0:
192,0,65136,128,0,65234:1:0:0:0:
448,0,65136,128,0,65234:1:0:0:0:
64,0,65283,128,0,65381:1:0:0:0:
192,0,65283,128,0,65381:1:0:0:0:
448,0,65283,128,0,65381:1:0:0:0:
320,192,65577,1,0,0:0:0:0:
64,192,65724,1,0,0:0:0:0:
448,192,65724,1,0,0:0:0:0:
192,192,65785,1,0,0:0:0:0:
320,192,65847,1,0,0:0:0:0:
448,192,65908,1,0,0:0:0:0:
64,192,65969,1,0,0:0:0:0:
192,192,66031,1,0,0:0:0:0:
320,192,66092,1,0,0:0:0:0:
448,192,66153,1,0,0:0:0:0:
192,192,66214,1,0,0:0:0:0:
64,0,66313,128,0,66411:1:0:0:0:
320,0,66313,128,0,66411:1:0:0:0:
448,0,66313,128,0,66411:1:0:0:0:
192,192,66607,1,0,0:0:0:0:
320,192,66754,1,0,0:0:0:0:
448,192,66754,1,0,0:0:0:0:
64,192,66901,1,0,0:0:0:0:
448,192,66901,1,0,0:0:0:0:
192,192,67048,1,0,0:0:0:0:
320,192,67195,1,0,0:0:0:0:
320,192,67342,1,0,0:0:0:0:
320,192,67636,1,0,0:0:0:0:
64,192,67783,1,0,0:0:0:0:
320,192,67783,1,0,0:0:0:0:
192,192,67930,1,0,0:0:0:0:
64,192,68077,1,0,0:0:0:0:
448,192,68077,1,0,0:0:0:0:
320,192,68224,1,0,0:0:0:0:
192,192,68371,1,0,0:0:0:0:
192,192,68519,1,0,0:0:0:0:
64,192,68666,1,0,0:0:0:0:
192,192,68666,1,0,0:0:0:0:
320,192,68739,1,0,0:0:0:0:
64,192,68813,1,0,0:0:0:0:
192,192,68886,1,0,0:0:0:0:
320,192,68960,1,0,0:0:0:0:
64,192,69033,1,0,0:0:0:0:
320,192,69107,1,0,0:0:0:0:
448,192,69107,1,0,0:0:0:0:
192,192,69180,1,0,0:0:0:0:
64,192,69254,1,0,0:0:0:0:
448,192,69254,1,0,0:0:0:0:
192,192,69401,1,0,0:0:0:0:
192,192,69695,1,0,0:0:0:0:
320,192,70136,1,0,0:0:0:0:
448,192,70136,1,0,0:0:0:0:
192,192,70283,1,0,0:0:0:0:
64,192,70430,1,0,0:0:0:0:
320,192,70430,1,0,0:0:0:0:
192,0,70577,128,0,70872:1:0:0:0:
64,0,71019,128,0,71117:1:0:0:0:
192,0,71019,128,0,71117:1:0:0:0:
448,0,71019,128,0,71117:1:0:0:0:
64,0,71313,128,0,71460:1:0:0:0:
320,192,71460,1,0,0:0:0:0:
448,192,71460,1,0,0:0:0:0:
448,192,71607,1,0,0:0:0:0:
64,0,71607,128,0,71754:1:0:0:0:
192,192,71754,1,0,0:0:0:0:
64,0,71901,128,0,72048:1:0:0:0:
64,0,72195,128,0,72342:1:0:0:0:
192,192,72489,1,0,0:0:0:0:
64,0,72489,128,0,72636:1:0:0:0:
320,192,72636,1,0,0:0:0:0:
64,192,72783,1,0,0:0:0:0:
448,192,72783,1,0,0:0:0:0:
192,192,72857,1,0,0:0:0:0:
320,192,72930,1,0,0:0:0:0:
64,192,72979,1,0,0:0:0:0:
320,192,73077,1,0,0:0:0:0:
448,0,73077,128,0,73224:1:0:0:0:
192,192,73224,1,0,0:0:0:0:
320,192,73224,1,0,0:0:0:0:
64,192,73371,1,0,0:0:0:0:
448,0,73371,128,0,73518:1:0:0:0:
192,192,73445,1,0,0:0:0:0:
320,192,73518,1,0,0:0:0:0:
64,192,73592,1,0,0:0:0:0:
192,192,73666,1,0,0:0:0:0:
448,0,73666,128,0,73813:1:0:0:0:
320,192,73739,1,0,0:0:0:0:
64,192,73813,1,0,0:0:0:0:
192,192,73813,1,0,0:0:0:0:
320,192,73886,1,0,0:0:0:0:
64,192,73960,1,0,0:0:0:0:
448,0,73960,128,0,74107:1:0:0:0:
64,192,74254,1,0,0:0:0:0:
448,0,74254,128,0,74401:1:0:0:0:
320,192,74548,1,0,0:0:0:0:
448,0,74548,128,0,74695:1:0:0:0:
192,192,74695,1,0,0:0:0:0:
320,192,74695,1,0,0:0:0:0:
192,192,74842,1,0,0:0:0:0:
64,0,74842,128,0,74989:1:0:0:0:
320,192,74989,1,0,0:0:0:0:
448,192,75136,1,0,0:0:0:0:
64,0,75136,128,0,75283:1:0:0:0:
192,192,75283,1,0,0:0:0:0:
448,192,75283,1,0,0:0:0:0:
320,192,75430,1,0,0:0:0:0:
448,0,75430,128,0,75577:1:0:0:0:
64,0,75724,128,0,75822:1:0:0:0:
192,0,75724,128,0,75822:1:0:0:0:
448,0,75724,128,0,75822:1:0:0:0:
320,192,76019,1,0,0:0:0:0:
64,192,76166,1,0,0:0:0:0:
192,192,76166,1,0,0:0:0:0:
64,192,76313,1,0,0:0:0:0:
448,192,76313,1,0,0:0:0:0:
320,192,76460,1,0,0:0:0:0:
192,192,76607,1,0,0:0:0:0:
192,192,76754,1,0,0:0:0:0:
448,192,77048,1,0,0:0:0:0:
192,192,77195,1,0,0:0:0:0:
448,192,77195,1,0,0:0:0:0:
320,192,77342,1,0,0:0:0:0:
64,192,77489,1,0,0:0:0:0:
448,192,77489,1,0,0:0:0:0:
192,192,77636,1,0,0:0:0:0:
192,192,77783,1,0,0:0:0:0:
320,192,77930,1,0,0:0:0:0:
64,192,78078,1,0,0:0:0:0:
448,192,78078,1,0,0:0:0:0:
192,192,78151,1,0,0:0:0:0:
320,192,78225,1,0,0:0:0:0:
192,192,78298,1,0,0:0:0:0:
448,192,78372,1,0,0:0:0:0:
320,192,78445,1,0,0:0:0:0:
64,192,78519,1,0,0:0:0:0:
192,192,78519,1,0,0:0:0:0:
320,192,78592,1,0,0:0:0:0:
64,192,78666,1,0,0:0:0:0:
448,192,78666,1,0,0:0:0:0:
192,192,78825,1,0,0:0:0:0:
320,192,79095,1,0,0:0:0:0:
320,192,79414,1,0,0:0:0:0:
64,192,79548,1,0,0:0:0:0:
192,192,79548,1,0,0:0:0:0:
320,192,79696,1,0,0:0:0:0:
64,192,79843,1,0,0:0:0:0:
448,192,79843,1,0,0:0:0:0:
448,192,79990,1,0,0:0:0:0:
320,192,80284,1,0,0:0:0:0:
64,0,80431,128,0,80529:1:0:0:0:
320,0,80431,128,0,80529:1:0:0:0:
448,0,80431,128,0,80529:1:0:0:0:
320,0,80725,128,0,80872:1:0:0:0:
64,192,80872,1,0,0:0:0:0:
192,192,80872,1,0,0:0:0:0:
320,0,81019,128,0,81166:1:0:0:0:
448,192,81166,1,0,0:0:0:0:
320,0,81313,128,0,81460:1:0:0:0:
320,0,81607,128,0,81754:1:0:0:0:
64,192,81901,1,0,0:0:0:0:
320,0,81901,128,0,82049:1:0:0:0:
64,192,82049,1,0,0:0:0:0:
192,192,82196,1,0,0:0:0:0:
448,192,82196,1,0,0:0:0:0:
320,192,82269,1,0,0:0:0:0:
64,192,82343,1,0,0:0:0:0:
192,192,82392,1,0,0:0:0:0:
320,192,82490,1,0,0:0:0:0:
448,0,82490,128,0,82637:1:0:0:0:
192,192,82637,1,0,0:0:0:0:
320,192,82637,1,0,0:0:0:0:
192,192,82784,1,0,0:0:0:0:
64,0,82784,128,0,82931:1:0:0:0:
320,192,82857,1,0,0:0:0:0:
448,192,82931,1,0,0:0:0:0:
192,192,83004,1,0,0:0:0:0:
64,0,83078,128,0,83225:1:0:0:0:
448,192,83151,1,0,0:0:0:0:
192,192,83225,1,0,0:0:0:0:
320,192,83225,1,0,0:0:0:0:
448,192,83298,1,0,0:0:0:0:
64,0,83372,128,0,83519:1:0:0:0:
320,192,83666,1,0,0:0:0:0:
64,0,83666,128,0,83813:1:0:0:0:
320,192,83960,1,0,0:0:0:0:
192,0,83960,128,0,84107:1:0:0:0:
64,192,84107,1,0,0:0:0:0:
448,192,84107,1,0,0:0:0:0:
320,192,84254,1,0,0:0:0:0:
448,192,84254,1,0,0:0:0:0:
192,192,84401,1,0,0:0:0:0:
64,192,84549,1,0,0:0:0:0:
320,0,84549,128,0,84696:1:0:0:0:
192,192,84696,1,0,0:0:0:0:
64,0,85137,128,0,85235:1:0:0:0:
320,0,85137,128,0,85235:1:0:0:0:
448,0,85137,128,0,85235:1:0:0:0:
64,192,85431,1,0,0:0:0:0:
64,192,85578,1,0,0:0:0:0:
320,192,85578,1,0,0:0:0:0:
192,192,85725,1,0,0:0:0:0:
448,192,85725,1,0,0:0:0:0:
320,192,85872,1,0,0:0:0:0:
448,0,86019,128,0,86313:1:0:0:0:
448,0,86460,128,0,86607:1:0:0:0:
64,192,86607,1,0,0:0:0:0:
192,192,86607,1,0,0:0:0:0:
320,192,86755,1,0,0:0:0:0:
192,192,86902,1,0,0:0:0:0:
64,192,87049,1,0,0:0:0:0:
192,192,87196,1,0,0:0:0:0:
320,192,87196,1,0,0:0:0:0:
320,192,87490,1,0,0:0:0:0:
448,192,87490,1,0,0:0:0:0:
64,192,87563,1,0,0:0:0:0:
192,192,87637,1,0,0:0:0:0:
320,192,87710,1,0,0:0:0:0:
64,192,87784,1,0,0:0:0:0:
320,192,87858,1,0,0:0:0:0:
192,192,87931,1,0,0:0:0:0:
448,192,87931,1,0,0:0:0:0:
320,192,88005,1,0,0:0:0:0:
64,192,88078,1,0,0:0:0:0:
192,192,88078,1,0,0:0:0:0:
320,0,88372,128,0,88666:1:0:0:0:
320,0,88813,128,0,88961:1:0:0:0:
64,192,88961,1,0,0:0:0:0:
192,192,88961,1,0,0:0:0:0:
192,192,89108,1,0,0:0:0:0:
448,192,89255,1,0,0:0:0:0:
64,0,89255,128,0,89402:1:0:0:0:
320,192,89402,1,0,0:0:0:0:
192,0,89549,128,0,89696:1:0:0:0:
448,0,89843,128,0,89941:1:0:0:0:
64,0,89843,128,0,89990:1:0:0:0:
320,0,89843,128,0,89990:1:0:0:0:
192,192,90137,1,0,0:0:0:0:
320,192,90284,1,0,0:0:0:0:
448,192,90284,1,0,0:0:0:0:
64,0,90431,128,0,90578:1:0:0:0:
448,0,90431,128,0,90578:1:0:0:0:
192,192,90578,1,0,0:0:0:0:
320,0,91019,128,0,91167:1:0:0:0:
64,192,91314,1,0,0:0:0:0:
192,192,91314,1,0,0:0:0:0:
448,0,91461,128,0,91608:1:0:0:0:
64,192,91608,1,0,0:0:0:0:
320,192,91608,1,0,0:0:0:0:
192,192,91755,1,0,0:0:0:0:
320,192,91902,1,0,0:0:0:0:
448,0,91902,128,0,92049:1:0:0:0:
192,192,92049,1,0,0:0:0:0:
320,192,92049,1,0,0:0:0:0:
192,192,92196,1,0,0:0:0:0:
448,0,92196,128,0,92343:1:0:0:0:
64,192,92270,1,0,0:0:0:0:
192,192,92343,1,0,0:0:0:0:
64,192,92417,1,0,0:0:0:0:
320,192,92490,1,0,0:0:0:0:
192,192,92564,1,0,0:0:0:0:
64,192,92637,1,0,0:0:0:0:
320,192,92637,1,0,0:0:0:0:
448,192,92711,1,0,0:0:0:0:
64,192,92784,1,0,0:0:0:0:
192,192,92784,1,0,0:0:0:0:
320,192,93176,1,0,0:0:0:0:
192,192,93274,1,0,0:0:0:0:
320,192,93372,1,0,0:0:0:0:
192,192,93568,1,0,0:0:0:0:
320,192,93666,1,0,0:0:0:0:
448,0,93666,128,0,93765:1:0:0:0:
192,192,93765,1,0,0:0:0:0:
320,0,93961,128,0,94059:1:0:0:0:
320,192,94157,1,0,0:0:0:0:
64,0,94255,128,0,94353:1:0:0:0:
192,192,94353,1,0,0:0:0:0:
64,0,94549,128,0,94647:1:0:0:0:
320,0,94549,128,0,94647:1:0:0:0:
448,0,94549,128,0,94647:1:0:0:0:
64,192,94843,1,0,0:0:0:0:
448,192,94843,1,0,0:0:0:0:
320,192,94990,1,0,0:0:0:0:
64,192,95137,1,0,0:0:0:0:
448,192,95137,1,0,0:0:0:0:
320,192,95284,1,0,0:0:0:0:
192,192,95431,1,0,0:0:0:0:
448,192,95431,1,0,0:0:0:0:
192,192,95725,1,0,0:0:0:0:
448,192,95725,1,0,0:0:0:0:
64,192,96019,1,0,0:0:0:0:
448,192,96019,1,0,0:0:0:0:
320,192,96167,1,0,0:0:0:0:
64,192,96314,1,0,0:0:0:0:
448,192,96314,1,0,0:0:0:0:
320,192,96461,1,0,0:0:0:0:
64,192,96608,1,0,0:0:0:0:
448,192,96608,1,0,0:0:0:0:
192,192,96902,1,0,0:0:0:0:
448,192,96902,1,0,0:0:0:0:
64,192,96975,1,0,0:0:0:0:
192,192,97049,1,0,0:0:0:0:
320,192,97122,1,0,0:0:0:0:
192,192,97196,1,0,0:0:0:0:
448,192,97196,1,0,0:0:0:0:
64,192,97270,1,0,0:0:0:0:
192,192,97343,1,0,0:0:0:0:
320,192,97417,1,0,0:0:0:0:
192,192,97490,1,0,0:0:0:0:
448,192,97490,1,0,0:0:0:0:
320,192,97564,1,0,0:0:0:0:
192,192,97637,1,0,0:0:0:0:
64,192,97711,1,0,0:0:0:0:
192,192,97784,1,0,0:0:0:0:
320,192,97784,1,0,0:0:0:0:
448,192,97858,1,0,0:0:0:0:
320,192,97931,1,0,0:0:0:0:
64,192,98005,1,0,0:0:0:0:
192,192,98078,1,0,0:0:0:0:
320,192,98078,1,0,0:0:0:0:
64,192,98152,1,0,0:0:0:0:
192,192,98225,1,0,0:0:0:0:
320,192,98299,1,0,0:0:0:0:
64,192,98373,1,0,0:0:0:0:
448,192,98373,1,0,0:0:0:0:
320,192,98520,1,0,0:0:0:0:
64,192,98667,1,0,0:0:0:0:
448,192,98667,1,0,0:0:0:0:
320,192,98814,1,0,0:0:0:0:
64,192,98961,1,0,0:0:0:0:
448,192,98961,1,0,0:0:0:0:
192,0,99255,128,0,99353:1:0:0:0:
320,0,99255,128,0,99353:1:0:0:0:
448,0,99255,128,0,99353:1:0:0:0:
192,0,99402,128,0,99500:1:0:0:0:
320,0,99402,128,0,99500:1:0:0:0:
448,0,99402,128,0,99500:1:0:0:0:
192,0,99549,128,0,99647:1:0:0:0:
320,0,99549,128,0,99647:1:0:0:0:
448,0,99549,128,0,99647:1:0:0:0:
192,0,99696,128,0,99794:1:0:0:0:
320,0,99696,128,0,99794:1:0:0:0:
448,0,99696,128,0,99794:1:0:0:0:
192,0,100137,128,0,100235:1:0:0:0:
320,0,100137,128,0,100235:1:0:0:0:
448,0,100137,128,0,100235:1:0:0:0:
192,0,100284,128,0,100382:1:0:0:0:
320,0,100284,128,0,100382:1:0:0:0:
448,0,100284,128,0,100382:1:0:0:0:
192,0,100431,128,0,100529:1:0:0:0:
320,0,100431,128,0,100529:1:0:0:0:
448,0,100431,128,0,100529:1:0:0:0:
192,0,100579,128,0,100677:1:0:0:0:
320,0,100579,128,0,100677:1:0:0:0:
448,0,100579,128,0,100677:1:0:0:0:
192,192,100873,1,0,0:0:0:0:
64,192,101020,1,0,0:0:0:0:
192,192,101167,1,0,0:0:0:0:
64,192,101314,1,0,0:0:0:0:
192,192,101461,1,0,0:0:0:0:
64,0,101608,128,0,101706:1:0:0:0:
320,0,101608,128,0,101706:1:0:0:0:
448,0,101608,128,0,101706:1:0:0:0:
64,0,101755,128,0,101853:1:0:0:0:
320,0,101755,128,0,101853:1:0:0:0:
448,0,101755,128,0,101853:1:0:0:0:
64,0,101902,128,0,102000:1:0:0:0:
320,0,101902,128,0,102000:1:0:0:0:
448,0,101902,128,0,102000:1:0:0:0:
64,0,102049,128,0,102147:1:0:0:0:
320,0,102049,128,0,102147:1:0:0:0:
448,0,102049,128,0,102147:1:0:0:0:
192,0,102785,128,0,102883:1:0:0:0:
320,0,102785,128,0,102883:1:0:0:0:
64,0,102785,128,0,103079:1:0:0:0:
192,0,103226,128,0,103324:1:0:0:0:
320,0,103226,128,0,103324:1:0:0:0:
448,0,103226,128,0,103520:1:0:0:0:
64,0,103667,128,0,103765:1:0:0:0:
448,0,103667,128,0,103765:1:0:0:0:
192,0,103667,128,0,103961:1:0:0:0:
64,192,103961,1,0,0:0:0:0:
448,0,103961,128,0,104108:1:0:0:0:
320,192,104108,1,0,0:0:0:0:
64,192,104255,1,0,0:0:0:0:
192,192,104255,1,0,0:0:0:0:
192,192,104402,1,0,0:0:0:0:
320,192,104402,1,0,0:0:0:0:
320,192,104549,1,0,0:0:0:0:
448,192,104549,1,0,0:0:0:0:
448,192,104844,1,0,0:0:0:0:
64,0,104844,128,0,104991:1:0:0:0:
320,192,104991,1,0,0:0:0:0:
192,0,105138,128,0,105285:1:0:0:0:
192,192,105432,1,0,0:0:0:0:
448,192,105432,1,0,0:0:0:0:
192,192,105579,1,0,0:0:0:0:
320,192,105726,1,0,0:0:0:0:
448,192,105726,1,0,0:0:0:0:
448,192,106020,1,0,0:0:0:0:
192,0,106020,128,0,106167:1:0:0:0:
320,0,106314,128,0,106461:1:0:0:0:
448,192,106461,1,0,0:0:0:0:
64,192,106608,1,0,0:0:0:0:
192,192,106608,1,0,0:0:0:0:
64,192,106755,1,0,0:0:0:0:
448,192,106755,1,0,0:0:0:0:
320,192,106902,1,0,0:0:0:0:
448,192,106902,1,0,0:0:0:0:
64,192,107197,1,0,0:0:0:0:
192,192,107197,1,0,0:0:0:0:
448,192,107344,1,0,0:0:0:0:
64,0,107491,128,0,107589:1:0:0:0:
192,0,107491,128,0,107589:1:0:0:0:
320,0,107491,128,0,107785:1:0:0:0:
64,192,107785,1,0,0:0:0:0:
448,192,107785,1,0,0:0:0:0:
64,0,107932,128,0,108030:1:0:0:0:
320,0,107932,128,0,108030:1:0:0:0:
192,0,107932,128,0,108226:1:0:0:0:
448,192,108079,1,0,0:0:0:0:
192,0,108373,128,0,108471:1:0:0:0:
320,0,108373,128,0,108471:1:0:0:0:
448,0,108373,128,0,108667:1:0:0:0:
192,192,108667,1,0,0:0:0:0:
64,0,108667,128,0,108814:1:0:0:0:
320,192,108814,1,0,0:0:0:0:
192,192,108961,1,0,0:0:0:0:
448,192,108961,1,0,0:0:0:0:
64,192,109108,1,0,0:0:0:0:
448,192,109108,1,0,0:0:0:0:
64,192,109256,1,0,0:0:0:0:
192,192,109256,1,0,0:0:0:0:
64,192,109550,1,0,0:0:0:0:
320,0,109550,128,0,109697:1:0:0:0:
448,192,109697,1,0,0:0:0:0:
192,0,109844,128,0,109991:1:0:0:0:
64,192,110138,1,0,0:0:0:0:
448,192,110138,1,0,0:0:0:0:
64,192,110285,1,0,0:0:0:0:
192,192,110432,1,0,0:0:0:0:
192,0,110726,128,0,110873:1:0:0:0:
448,192,111020,1,0,0:0:0:0:
320,0,111020,128,0,111167:1:0:0:0:
192,192,111167,1,0,0:0:0:0:
320,192,111314,1,0,0:0:0:0:
192,192,111461,1,0,0:0:0:0:
448,192,111461,1,0,0:0:0:0:
64,192,111608,1,0,0:0:0:0:
320,192,111608,1,0,0:0:0:0:
192,192,111903,1,0,0:0:0:0:
448,192,111903,1,0,0:0:0:0:
320,192,112050,1,0,0:0:0:0:
64,0,112197,128,0,112270:1:0:0:0:
448,0,112197,128,0,112270:1:0:0:0:
192,0,112197,128,0,112491:1:0:0:0:
64,192,112344,1,0,0:0:0:0:
448,192,112344,1,0,0:0:0:0:
64,192,112491,1,0,0:0:0:0:
448,192,112491,1,0,0:0:0:0:
192,0,112638,128,0,112736:1:0:0:0:
448,0,112638,128,0,112736:1:0:0:0:
320,0,112638,128,0,112932:1:0:0:0:
64,192,112785,1,0,0:0:0:0:
192,0,113079,128,0,113177:1:0:0:0:
448,0,113079,128,0,113177:1:0:0:0:
64,0,113079,128,0,113373:1:0:0:0:
448,192,113373,1,0,0:0:0:0:
192,0,113373,128,0,113520:1:0:0:0:
320,192,113667,1,0,0:0:0:0:
448,192,113667,1,0,0:0:0:0:
64,192,113814,1,0,0:0:0:0:
320,192,113814,1,0,0:0:0:0:
64,192,113961,1,0,0:0:0:0:
192,192,113961,1,0,0:0:0:0:
448,192,114255,1,0,0:0:0:0:
320,0,114255,128,0,114402:1:0:0:0:
448,192,114550,1,0,0:0:0:0:
192,0,114550,128,0,114697:1:0:0:0:
64,192,114844,1,0,0:0:0:0:
448,192,114844,1,0,0:0:0:0:
320,192,114991,1,0,0:0:0:0:
64,192,115138,1,0,0:0:0:0:
192,192,115138,1,0,0:0:0:0:
192,192,115432,1,0,0:0:0:0:
448,0,115432,128,0,115579:1:0:0:0:
64,192,115726,1,0,0:0:0:0:
192,0,115726,128,0,115873:1:0:0:0:
64,192,116020,1,0,0:0:0:0:
192,192,116020,1,0,0:0:0:0:
320,192,116167,1,0,0:0:0:0:
448,192,116167,1,0,0:0:0:0:
192,192,116314,1,0,0:0:0:0:
448,192,116314,1,0,0:0:0:0:
64,192,116608,1,0,0:0:0:0:
320,0,116608,128,0,116755:1:0:0:0:
448,192,116903,1,0,0:0:0:0:
192,0,116903,128,0,117050:1:0:0:0:
320,192,117197,1,0,0:0:0:0:
448,192,117197,1,0,0:0:0:0:
192,192,117344,1,0,0:0:0:0:
64,192,117491,1,0,0:0:0:0:
448,192,117491,1,0,0:0:0:0:
192,192,117785,1,0,0:0:0:0:
320,192,117932,1,0,0:0:0:0:
448,192,117932,1,0,0:0:0:0:
320,192,118079,1,0,0:0:0:0:
448,192,118079,1,0,0:0:0:0:
64,192,118153,1,0,0:0:0:0:
192,192,118226,1,0,0:0:0:0:
320,192,118226,1,0,0:0:0:0:
448,192,118300,1,0,0:0:0:0:
64,192,118373,1,0,0:0:0:0:
320,192,118373,1,0,0:0:0:0:
192,192,118447,1,0,0:0:0:0:
64,192,118520,1,0,0:0:0:0:
320,192,118520,1,0,0:0:0:0:
448,192,118594,1,0,0:0:0:0:
192,192,118667,1,0,0:0:0:0:
320,192,118667,1,0,0:0:0:0:
64,192,118741,1,0,0:0:0:0:
320,192,118814,1,0,0:0:0:0:
448,192,118814,1,0,0:0:0:0:
192,192,118888,1,0,0:0:0:0:
64,192,118961,1,0,0:0:0:0:
448,192,118961,1,0,0:0:0:0:
320,192,119035,1,0,0:0:0:0:
64,192,119108,1,0,0:0:0:0:
448,192,119108,1,0,0:0:0:0:
320,192,119182,1,0,0:0:0:0:
64,192,119256,1,0,0:0:0:0:
192,192,119256,1,0,0:0:0:0:
448,192,119329,1,0,0:0:0:0:
192,192,119403,1,0,0:0:0:0:
320,192,119403,1,0,0:0:0:0:
64,192,119476,1,0,0:0:0:0:
192,192,119550,1,0,0:0:0:0:
448,192,119550,1,0,0:0:0:0:
320,192,119623,1,0,0:0:0:0:
192,192,119697,1,0,0:0:0:0:
448,192,119697,1,0,0:0:0:0:
64,192,119770,1,0,0:0:0:0:
192,192,119844,1,0,0:0:0:0:
320,192,119844,1,0,0:0:0:0:
448,192,119917,1,0,0:0:0:0:
64,192,119991,1,0,0:0:0:0:
192,192,119991,1,0,0:0:0:0:
320,192,120064,1,0,0:0:0:0:
64,192,120138,1,0,0:0:0:0:
448,192,120138,1,0,0:0:0:0:
320,192,120211,1,0,0:0:0:0:
64,192,120285,1,0,0:0:0:0:
448,192,120285,1,0,0:0:0:0:
320,192,120358,1,0,0:0:0:0:
64,0,120432,128,0,120530:1:0:0:0:
192,0,120432,128,0,120530:1:0:0:0:
448,0,120432,128,0,120530:1:0:0:0:
64,0,120579,128,0,120677:1:0:0:0:
192,0,120579,128,0,120677:1:0:0:0:
448,0,120579,128,0,120677:1:0:0:0:
64,0,120726,128,0,120824:1:0:0:0:
192,0,120726,128,0,120824:1:0:0:0:
448,0,120726,128,0,120824:1:0:0:0:
64,0,120873,128,0,120971:1:0:0:0:
192,0,120873,128,0,120971:1:0:0:0:
448,0,120873,128,0,120971:1:0:0:0:
320,192,121020,1,0,0:0:0:0:
64,0,121314,128,0,121412:1:0:0:0:
192,0,121314,128,0,121412:1:0:0:0:
448,0,121314,128,0,121412:1:0:0:0:
64,0,121462,128,0,121560:1:0:0:0:
192,0,121462,128,0,121560:1:0:0:0:
448,0,121462,128,0,121560:1:0:0:0:
64,0,121609,128,0,121707:1:0:0:0:
192,0,121609,128,0,121707:1:0:0:0:
448,0,121609,128,0,121707:1:0:0:0:
64,0,121756,128,0,121854:1:0:0:0:
192,0,121756,128,0,121854:1:0:0:0:
448,0,121756,128,0,121854:1:0:0:0:
320,192,121903,1,0,0:0:0:0:
448,192,122050,1,0,0:0:0:0:
320,192,122197,1,0,0:0:0:0:
448,192,122344,1,0,0:0:0:0:
320,192,122491,1,0,0:0:0:0:
448,192,122638,1,0,0:0:0:0:
64,0,122785,128,0,122883:1:0:0:0:
192,0,122785,128,0,122883:1:0:0:0:
320,0,122785,128,0,122883:1:0:0:0:
192,0,122932,128,0,123030:1:0:0:0:
320,0,122932,128,0,123030:1:0:0:0:
448,0,122932,128,0,123030:1:0:0:0:
64,0,123079,128,0,123177:1:0:0:0:
320,0,123079,128,0,123177:1:0:0:0:
448,0,123079,128,0,123177:1:0:0:0:
64,0,123226,128,0,123324:1:0:0:0:
192,0,123226,128,0,123324:1:0:0:0:
320,0,123226,128,0,123324:1:0:0:0:
448,192,123373,1,0,0:0:0:0:
192,0,123668,128,0,123766:1:0:0:0:
320,0,123668,128,0,123766:1:0:0:0:
448,0,123668,128,0,123766:1:0:0:0:
64,0,123815,128,0,123913:1:0:0:0:
192,0,123815,128,0,123913:1:0:0:0:
448,0,123815,128,0,123913:1:0:0:0:
64,0,123962,128,0,124060:1:0:0:0:
192,0,123962,128,0,124060:1:0:0:0:
320,0,123962,128,0,124060:1:0:0:0:
64,0,124109,128,0,124207:1:0:0:0:
320,0,124109,128,0,124207:1:0:0:0:
448,0,124109,128,0,124207:1:0:0:0:
192,0,124256,128,0,124452:1:0:0:0:
320,0,124550,128,0,124844:1:0:0:0:
320,192,125138,1,0,0:0:0:0:
448,0,125138,128,0,125432:1:0:0:0:
192,0,125432,128,0,125530:1:0:0:0:
64,0,125579,128,0,125678:1:0:0:0:
192,192,125727,1,0,0:0:0:0:
448,192,125727,1,0,0:0:0:0:
64,0,125874,128,0,125972:1:0:0:0:
320,192,126021,1,0,0:0:0:0:
448,192,126021,1,0,0:0:0:0:
320,0,126315,128,0,126609:1:0:0:0:
64,192,126609,1,0,0:0:0:0:
192,0,126609,128,0,126707:1:0:0:0:
320,0,126756,128,0,126854:1:0:0:0:
64,192,126903,1,0,0:0:0:0:
448,192,126903,1,0,0:0:0:0:
192,0,127050,128,0,127148:1:0:0:0:
320,192,127197,1,0,0:0:0:0:
64,192,127491,1,0,0:0:0:0:
192,0,127491,128,0,127786:1:0:0:0:
320,0,127786,128,0,127884:1:0:0:0:
192,0,127933,128,0,128031:1:0:0:0:
64,192,128080,1,0,0:0:0:0:
320,192,128080,1,0,0:0:0:0:
192,0,128227,128,0,128325:1:0:0:0:
320,192,128374,1,0,0:0:0:0:
448,192,128374,1,0,0:0:0:0:
64,0,128668,128,0,128962:1:0:0:0:
448,192,128962,1,0,0:0:0:0:
192,0,128962,128,0,129060:1:0:0:0:
320,0,129109,128,0,129207:1:0:0:0:
64,192,129256,1,0,0:0:0:0:
448,192,129256,1,0,0:0:0:0:
192,0,129403,128,0,129501:1:0:0:0:
320,192,129550,1,0,0:0:0:0:
320,192,129845,1,0,0:0:0:0:
64,0,129845,128,0,130139:1:0:0:0:
192,0,130139,128,0,130237:1:0:0:0:
192,0,130286,128,0,130384:1:0:0:0:
320,192,130433,1,0,0:0:0:0:
448,192,130433,1,0,0:0:0:0:
64,0,130580,128,0,130678:1:0:0:0:
192,192,130727,1,0,0:0:0:0:
64,0,130727,128,0,130825:1:0:0:0:
448,0,131021,128,0,131119:1:0:0:0:
448,0,131168,128,0,131266:1:0:0:0:
64,192,131315,1,0,0:0:0:0:
192,192,131315,1,0,0:0:0:0:
320,0,131462,128,0,131560:1:0:0:0:
64,192,131609,1,0,0:0:0:0:
320,0,131609,128,0,131707:1:0:0:0:
192,0,131903,128,0,132001:1:0:0:0:
320,192,132197,1,0,0:0:0:0:
448,0,132197,128,0,132492:1:0:0:0:
192,0,132492,128,0,132590:1:0:0:0:
320,0,132639,128,0,132737:1:0:0:0:
64,192,132786,1,0,0:0:0:0:
192,192,132786,1,0,0:0:0:0:
320,0,132933,128,0,133031:1:0:0:0:
64,192,133080,1,0,0:0:0:0:
448,0,133080,128,0,133178:1:0:0:0:
192,192,133178,1,0,0:0:0:0:
320,192,133276,1,0,0:0:0:0:
192,0,133374,128,0,133472:1:0:0:0:
320,0,133521,128,0,133619:1:0:0:0:
192,192,133570,1,0,0:0:0:0:
64,192,133668,1,0,0:0:0:0:
448,192,133668,1,0,0:0:0:0:
320,192,133766,1,0,0:0:0:0:
64,0,133815,128,0,133914:1:0:0:0:
192,0,133963,128,0,134061:1:0:0:0:
448,192,134159,1,0,0:0:0:0:
320,192,134257,1,0,0:0:0:0:
64,0,134257,128,0,134355:1:0:0:0:
448,192,134355,1,0,0:0:0:0:
192,0,134404,128,0,134477:1:0:0:0:
64,192,134551,1,0,0:0:0:0:
448,0,134551,128,0,134845:1:0:0:0:
192,192,134698,1,0,0:0:0:0:
320,0,134845,128,0,134992:1:0:0:0:
64,192,134992,1,0,0:0:0:0:
448,192,135139,1,0,0:0:0:0:
192,0,135139,128,0,135286:1:0:0:0:
448,192,135433,1,0,0:0:0:0:
320,0,135433,128,0,135580:1:0:0:0:
192,0,135727,128,0,136022:1:0:0:0:
64,192,136022,1,0,0:0:0:0:
320,192,136022,1,0,0:0:0:0:
320,192,136169,1,0,0:0:0:0:
448,192,136316,1,0,0:0:0:0:
64,0,136316,128,0,136904:1:0:0:0:
192,0,136610,128,0,137492:1:0:0:0:
320,192,136904,1,0,0:0:0:0:
448,192,136904,1,0,0:0:0:0:
448,192,137051,1,0,0:0:0:0:
320,192,137198,1,0,0:0:0:0:
64,192,137345,1,0,0:0:0:0:
320,192,137492,1,0,0:0:0:0:
448,0,137492,128,0,138080:1:0:0:0:
64,192,137786,1,0,0:0:0:0:
320,0,137786,128,0,138669:1:0:0:0:
192,192,137933,1,0,0:0:0:0:
64,192,138080,1,0,0:0:0:0:
64,192,138374,1,0,0:0:0:0:
192,192,138374,1,0,0:0:0:0:
64,192,138521,1,0,0:0:0:0:
192,192,138669,1,0,0:0:0:0:
448,192,138669,1,0,0:0:0:0:
64,0,138963,128,0,139061:1:0:0:0:
192,0,139110,128,0,139208:1:0:0:0:
64,192,139257,1,0,0:0:0:0:
448,0,139257,128,0,139355:1:0:0:0:
192,192,139404,1,0,0:0:0:0:
64,192,139551,1,0,0:0:0:0:
448,0,139551,128,0,139649:1:0:0:0:
64,192,139698,1,0,0:0:0:0:
320,192,139845,1,0,0:0:0:0:
448,0,139845,128,0,139943:1:0:0:0:
64,192,139992,1,0,0:0:0:0:
64,192,140139,1,0,0:0:0:0:
448,0,140139,128,0,140237:1:0:0:0:
192,192,140286,1,0,0:0:0:0:
64,192,140433,1,0,0:0:0:0:
448,0,140433,128,0,140629:1:0:0:0:
64,192,140580,1,0,0:0:0:0:
192,192,140727,1,0,0:0:0:0:
320,192,140727,1,0,0:0:0:0:
448,192,140874,1,0,0:0:0:0:
64,0,141021,128,0,141168:1:0:0:0:
448,0,141021,128,0,141168:1:0:0:0:
320,192,141315,1,0,0:0:0:0:
448,192,141315,1,0,0:0:0:0:
64,0,141609,128,0,141707:1:0:0:0:
192,0,141609,128,0,141707:1:0:0:0:
448,0,141609,128,0,141707:1:0:0:0:
64,0,141757,128,0,141855:1:0:0:0:
192,0,141757,128,0,141855:1:0:0:0:
448,0,141757,128,0,141855:1:0:0:0:
64,0,141904,128,0,142002:1:0:0:0:
192,0,141904,128,0,142002:1:0:0:0:
448,0,141904,128,0,142002:1:0:0:0:
64,0,142051,128,0,142149:1:0:0:0:
192,0,142051,128,0,142149:1:0:0:0:
448,0,142051,128,0,142149:1:0:0:0:
320,192,142198,1,0,0:0:0:0:
64,0,142492,128,0,142590:1:0:0:0:
192,0,142492,128,0,142590:1:0:0:0:
320,0,142492,128,0,142590:1:0:0:0:
64,0,142639,128,0,142737:1:0:0:0:
192,0,142639,128,0,142737:1:0:0:0:
320,0,142639,128,0,142737:1:0:0:0:
64,0,142786,128,0,142884:1:0:0:0:
192,0,142786,128,0,142884:1:0:0:0:
320,0,142786,128,0,142884:1:0:0:0:
64,0,142933,128,0,143031:1:0:0:0:
192,0,142933,128,0,143031:1:0:0:0:
320,0,142933,128,0,143031:1:0:0:0:
448,192,143080,1,0,0:0:0:0:
320,192,143227,1,0,0:0:0:0:
64,192,143374,1,0,0:0:0:0:
448,192,143374,1,0,0:0:0:0:
192,192,143668,1,0,0:0:0:0:
64,0,143962,128,0,144060:1:0:0:0:
192,0,143962,128,0,144060:1:0:0:0:
320,0,143962,128,0,144060:1:0:0:0:
64,0,144109,128,0,144207:1:0:0:0:
192,0,144109,128,0,144207:1:0:0:0:
320,0,144109,128,0,144207:1:0:0:0:
64,0,144256,128,0,144354:1:0:0:0:
192,0,144256,128,0,144354:1:0:0:0:
320,0,144256,128,0,144354:1:0:0:0:
64,0,144403,128,0,144501:1:0:0:0:
192,0,144403,128,0,144501:1:0:0:0:
320,0,144403,128,0,144501:1:0:0:0:
448,192,144550,1,0,0:0:0:0:
192,0,144844,128,0,144943:1:0:0:0:
320,0,144844,128,0,144943:1:0:0:0:
448,0,144844,128,0,144943:1:0:0:0:
192,0,144992,128,0,145090:1:0:0:0:
320,0,144992,128,0,145090:1:0:0:0:
448,0,144992,128,0,145090:1:0:0:0:
192,0,145139,128,0,145237:1:0:0:0:
320,0,145139,128,0,145237:1:0:0:0:
448,0,145139,128,0,145237:1:0:0:0:
192,0,145286,128,0,145384:1:0:0:0:
320,0,145286,128,0,145384:1:0:0:0:
448,0,145286,128,0,145384:1:0:0:0:
64,192,145433,1,0,0:0:0:0:
64,0,145580,128,0,145678:1:0:0:0:
448,0,145580,128,0,145678:1:0:0:0:
192,0,145580,128,0,145874:1:0:0:0:
320,192,145727,1,0,0:0:0:0:
64,0,146021,128,0,146119:1:0:0:0:
448,0,146021,128,0,146119:1:0:0:0:
320,0,146021,128,0,146609:1:0:0:0:
64,192,146315,1,0,0:0:0:0:
192,192,146315,1,0,0:0:0:0:
64,192,146609,1,0,0:0:0:0:
192,0,146609,128,0,146756:1:0:0:0:
64,192,146756,1,0,0:0:0:0:
448,192,146756,1,0,0:0:0:0:
448,192,146903,1,0,0:0:0:0:
320,0,146903,128,0,147050:1:0:0:0:
64,192,147197,1,0,0:0:0:0:
192,0,147197,128,0,147344:1:0:0:0:
320,0,147491,128,0,147639:1:0:0:0:
192,192,147786,1,0,0:0:0:0:
448,192,147786,1,0,0:0:0:0:
448,192,147933,1,0,0:0:0:0:
64,192,148080,1,0,0:0:0:0:
192,192,148080,1,0,0:0:0:0:
448,192,148374,1,0,0:0:0:0:
320,0,148374,128,0,148521:1:0:0:0:
448,192,148668,1,0,0:0:0:0:
192,0,148668,128,0,148815:1:0:0:0:
320,0,148962,128,0,149060:1:0:0:0:
448,0,148962,128,0,149060:1:0:0:0:
64,192,149109,1,0,0:0:0:0:
320,192,149109,1,0,0:0:0:0:
64,0,149256,128,0,149354:1:0:0:0:
448,0,149256,128,0,149354:1:0:0:0:
192,0,149403,128,0,149501:1:0:0:0:
64,0,149550,128,0,149648:1:0:0:0:
448,0,149550,128,0,149648:1:0:0:0:
192,0,149697,128,0,149795:1:0:0:0:
64,0,149844,128,0,149942:1:0:0:0:
448,0,149844,128,0,149942:1:0:0:0:
320,0,149844,128,0,150138:1:0:0:0:
64,192,150138,1,0,0:0:0:0:
448,192,150138,1,0,0:0:0:0:
320,0,150285,128,0,150384:1:0:0:0:
448,0,150285,128,0,150384:1:0:0:0:
192,0,150285,128,0,150580:1:0:0:0:
64,192,150433,1,0,0:0:0:0:
64,0,150727,128,0,150825:1:0:0:0:
320,0,150727,128,0,150825:1:0:0:0:
192,0,150727,128,0,151021:1:0:0:0:
64,192,151021,1,0,0:0:0:0:
448,0,151021,128,0,151168:1:0:0:0:
192,192,151168,1,0,0:0:0:0:
64,192,151315,1,0,0:0:0:0:
320,192,151315,1,0,0:0:0:0:
64,192,151462,1,0,0:0:0:0:
448,192,151462,1,0,0:0:0:0:
64,192,151609,1,0,0:0:0:0:
192,192,151609,1,0,0:0:0:0:
448,192,151903,1,0,0:0:0:0:
320,0,151903,128,0,152050:1:0:0:0:
192,192,152050,1,0,0:0:0:0:
64,0,152197,128,0,152344:1:0:0:0:
192,192,152491,1,0,0:0:0:0:
448,192,152491,1,0,0:0:0:0:
448,192,152638,1,0,0:0:0:0:
64,192,152785,1,0,0:0:0:0:
320,192,152785,1,0,0:0:0:0:
64,192,153080,1,0,0:0:0:0:
192,0,153080,128,0,153227:1:0:0:0:
448,192,153374,1,0,0:0:0:0:
320,0,153374,128,0,153521:1:0:0:0:
192,192,153521,1,0,0:0:0:0:
320,192,153668,1,0,0:0:0:0:
192,192,153815,1,0,0:0:0:0:
448,192,153815,1,0,0:0:0:0:
64,192,153962,1,0,0:0:0:0:
320,192,153962,1,0,0:0:0:0:
64,192,154256,1,0,0:0:0:0:
448,192,154256,1,0,0:0:0:0:
320,192,154403,1,0,0:0:0:0:
64,0,154550,128,0,154624:1:0:0:0:
448,0,154550,128,0,154624:1:0:0:0:
192,0,154550,128,0,154845:1:0:0:0:
320,192,154698,1,0,0:0:0:0:
448,192,154698,1,0,0:0:0:0:
320,192,154845,1,0,0:0:0:0:
448,192,154845,1,0,0:0:0:0:
64,0,154992,128,0,155090:1:0:0:0:
192,0,154992,128,0,155090:1:0:0:0:
448,0,154992,128,0,155286:1:0:0:0:
320,192,155139,1,0,0:0:0:0:
320,0,155433,128,0,155531:1:0:0:0:
448,0,155433,128,0,155531:1:0:0:0:
192,0,155433,128,0,155727:1:0:0:0:
448,192,155727,1,0,0:0:0:0:
320,0,155727,128,0,155874:1:0:0:0:
320,192,156021,1,0,0:0:0:0:
448,192,156021,1,0,0:0:0:0:
64,192,156168,1,0,0:0:0:0:
448,192,156168,1,0,0:0:0:0:
64,192,156315,1,0,0:0:0:0:
192,192,156315,1,0,0:0:0:0:
448,192,156610,1,0,0:0:0:0:
320,0,156610,128,0,156757:1:0:0:0:
448,192,156904,1,0,0:0:0:0:
192,0,156904,128,0,157051:1:0:0:0:
192,192,157198,1,0,0:0:0:0:
320,192,157198,1,0,0:0:0:0:
448,192,157345,1,0,0:0:0:0:
64,192,157492,1,0,0:0:0:0:
192,192,157492,1,0,0:0:0:0:
192,192,157786,1,0,0:0:0:0:
448,0,157786,128,0,157933:1:0:0:0:
64,192,158080,1,0,0:0:0:0:
192,0,158080,128,0,158227:1:0:0:0:
320,192,158374,1,0,0:0:0:0:
448,192,158374,1,0,0:0:0:0:
192,192,158521,1,0,0:0:0:0:
448,192,158521,1,0,0:0:0:0:
192,192,158668,1,0,0:0:0:0:
320,192,158668,1,0,0:0:0:0:
448,192,158963,1,0,0:0:0:0:
320,0,158963,128,0,159110:1:0:0:0:
448,192,159257,1,0,0:0:0:0:
192,0,159257,128,0,159551:1:0:0:0:
64,192,159551,1,0,0:0:0:0:
448,192,159551,1,0,0:0:0:0:
320,192,159698,1,0,0:0:0:0:
448,192,159845,1,0,0:0:0:0:
64,0,159845,128,0,160139:1:0:0:0:
192,192,160139,1,0,0:0:0:0:
320,192,160286,1,0,0:0:0:0:
448,192,160286,1,0,0:0:0:0:
320,192,160433,1,0,0:0:0:0:
448,192,160433,1,0,0:0:0:0:
192,192,160507,1,0,0:0:0:0:
64,192,160580,1,0,0:0:0:0:
448,192,160580,1,0,0:0:0:0:
320,192,160654,1,0,0:0:0:0:
64,192,160727,1,0,0:0:0:0:
448,192,160727,1,0,0:0:0:0:
192,192,160801,1,0,0:0:0:0:
320,192,160874,1,0,0:0:0:0:
448,192,160874,1,0,0:0:0:0:
64,192,160948,1,0,0:0:0:0:
192,192,161021,1,0,0:0:0:0:
320,192,161021,1,0,0:0:0:0:
448,192,161095,1,0,0:0:0:0:
64,192,161169,1,0,0:0:0:0:
192,192,161169,1,0,0:0:0:0:
448,192,161242,1,0,0:0:0:0:
192,192,161316,1,0,0:0:0:0:
320,192,161316,1,0,0:0:0:0:
64,192,161389,1,0,0:0:0:0:
320,192,161463,1,0,0:0:0:0:
448,192,161463,1,0,0:0:0:0:
192,192,161536,1,0,0:0:0:0:
64,192,161610,1,0,0:0:0:0:
320,192,161610,1,0,0:0:0:0:
192,192,161683,1,0,0:0:0:0:
64,192,161757,1,0,0:0:0:0:
448,192,161757,1,0,0:0:0:0:
320,192,161830,1,0,0:0:0:0:
64,192,161904,1,0,0:0:0:0:
448,192,161904,1,0,0:0:0:0:
320,192,161977,1,0,0:0:0:0:
192,192,162051,1,0,0:0:0:0:
448,192,162051,1,0,0:0:0:0:
64,192,162124,1,0,0:0:0:0:
320,192,162198,1,0,0:0:0:0:
448,192,162198,1,0,0:0:0:0:
64,192,162271,1,0,0:0:0:0:
320,192,162345,1,0,0:0:0:0:
448,192,162345,1,0,0:0:0:0:
192,192,162419,1,0,0:0:0:0:
64,192,162492,1,0,0:0:0:0:
320,192,162492,1,0,0:0:0:0:
448,192,162566,1,0,0:0:0:0:
64,192,162639,1,0,0:0:0:0:
192,192,162639,1,0,0:0:0:0:
320,192,162713,1,0,0:0:0:0:
64,0,162786,128,0,162884:1:0:0:0:
192,0,162786,128,0,162884:1:0:0:0:
448,0,162786,128,0,162884:1:0:0:0:
64,0,162933,128,0,163031:1:0:0:0:
192,0,162933,128,0,163031:1:0:0:0:
448,0,162933,128,0,163031:1:0:0:0:
64,0,163080,128,0,163178:1:0:0:0:
192,0,163080,128,0,163178:1:0:0:0:
448,0,163080,128,0,163178:1:0:0:0:
64,0,163227,128,0,163325:1:0:0:0:
192,0,163227,128,0,163325:1:0:0:0:
448,0,163227,128,0,163325:1:0:0:0:
320,192,163374,1,0,0:0:0:0:
64,0,163668,128,0,163767:1:0:0:0:
192,0,163668,128,0,163767:1:0:0:0:
448,0,163668,128,0,163767:1:0:0:0:
64,0,163816,128,0,163914:1:0:0:0:
192,0,163816,128,0,163914:1:0:0:0:
448,0,163816,128,0,163914:1:0:0:0:
64,0,163963,128,0,164061:1:0:0:0:
192,0,163963,128,0,164061:1:0:0:0:
448,0,163963,128,0,164061:1:0:0:0:
64,0,164110,128,0,164208:1:0:0:0:
192,0,164110,128,0,164208:1:0:0:0:
448,0,164110,128,0,164208:1:0:0:0:
320,192,164257,1,0,0:0:0:0:
192,192,164404,1,0,0:0:0:0:
64,192,164551,1,0,0:0:0:0:
320,0,164551,128,0,164698:1:0:0:0:
192,192,164698,1,0,0:0:0:0:
320,0,164845,128,0,164992:1:0:0:0:
192,192,164992,1,0,0:0:0:0:
64,0,165139,128,0,165237:1:0:0:0:
320,0,165139,128,0,165237:1:0:0:0:
448,0,165139,128,0,165237:1:0:0:0:
192,0,165286,128,0,165384:1:0:0:0:
320,0,165286,128,0,165384:1:0:0:0:
448,0,165286,128,0,165384:1:0:0:0:
64,0,165433,128,0,165531:1:0:0:0:
320,0,165433,128,0,165531:1:0:0:0:
448,0,165433,128,0,165531:1:0:0:0:
64,0,165580,128,0,165678:1:0:0:0:
320,0,165580,128,0,165678:1:0:0:0:
448,0,165580,128,0,165678:1:0:0:0:
192,192,165727,1,0,0:0:0:0:
64,0,166021,128,0,166119:1:0:0:0:
320,0,166021,128,0,166119:1:0:0:0:
448,0,166021,128,0,166119:1:0:0:0:
192,0,166168,128,0,166266:1:0:0:0:
320,0,166168,128,0,166266:1:0:0:0:
448,0,166168,128,0,166266:1:0:0:0:
64,0,166315,128,0,166413:1:0:0:0:
320,0,166315,128,0,166413:1:0:0:0:
448,0,166315,128,0,166413:1:0:0:0:
64,0,166462,128,0,166560:1:0:0:0:
320,0,166462,128,0,166560:1:0:0:0:
448,0,166462,128,0,166560:1:0:0:0:
192,192,166609,1,0,0:0:0:0:
320,192,166756,1,0,0:0:0:0:
192,192,166904,1,0,0:0:0:0:
64,0,166904,128,0,167051:1:0:0:0:
320,192,167198,1,0,0:0:0:0:
192,0,167198,128,0,167345:1:0:0:0:
320,192,167492,1,0,0:0:0:0:
448,0,167492,128,0,167786:1:0:0:0:
64,192,167786,1,0,0:0:0:0:
192,192,167786,1,0,0:0:0:0:
192,192,167933,1,0,0:0:0:0:
320,192,167933,1,0,0:0:0:0:
192,192,168080,1,0,0:0:0:0:
448,192,168080,1,0,0:0:0:0:
320,192,168374,1,0,0:0:0:0:
448,192,168374,1,0,0:0:0:0:
64,192,168668,1,0,0:0:0:0:
64,192,168962,1,0,0:0:0:0:
192,0,168962,128,0,169060:1:0:0:0:
64,192,169109,1,0,0:0:0:0:
64,192,169256,1,0,0:0:0:0:
192,0,169256,128,0,169354:1:0:0:0:
192,192,169550,1,0,0:0:0:0:
320,192,169550,1,0,0:0:0:0:
320,192,169844,1,0,0:0:0:0:
448,192,169844,1,0,0:0:0:0:
192,192,170139,1,0,0:0:0:0:
64,192,170286,1,0,0:0:0:0:
448,192,170286,1,0,0:0:0:0:
192,192,170433,1,0,0:0:0:0:
320,192,170433,1,0,0:0:0:0:
192,192,170580,1,0,0:0:0:0:
320,192,170727,1,0,0:0:0:0:
448,192,170727,1,0,0:0:0:0:
320,192,170874,1,0,0:0:0:0:
64,0,171021,128,0,171119:1:0:0:0:
448,0,171021,128,0,171119:1:0:0:0:
192,0,171021,128,0,171315:1:0:0:0:
64,192,171315,1,0,0:0:0:0:
448,192,171315,1,0,0:0:0:0:
192,0,171462,128,0,171560:1:0:0:0:
448,0,171462,128,0,171560:1:0:0:0:
320,0,171462,128,0,171756:1:0:0:0:
64,0,171609,128,0,171756:1:0:0:0:
64,0,171903,128,0,172001:1:0:0:0:
320,0,171903,128,0,172001:1:0:0:0:
448,0,171903,128,0,172050:1:0:0:0:
448,192,172197,1,0,0:0:0:0:
64,0,172197,128,0,172344:1:0:0:0:
320,192,172344,1,0,0:0:0:0:
192,192,172491,1,0,0:0:0:0:
448,192,172491,1,0,0:0:0:0:
64,192,172638,1,0,0:0:0:0:
448,192,172638,1,0,0:0:0:0:
320,192,172786,1,0,0:0:0:0:
448,192,172786,1,0,0:0:0:0:
320,192,173080,1,0,0:0:0:0:
448,192,173080,1,0,0:0:0:0:
192,192,173227,1,0,0:0:0:0:
64,192,173374,1,0,0:0:0:0:
320,192,173668,1,0,0:0:0:0:
448,192,173668,1,0,0:0:0:0:
192,0,173815,128,0,173889:1:0:0:0:
64,192,173962,1,0,0:0:0:0:
320,0,173962,128,0,174060:1:0:0:0:
448,0,174109,128,0,174207:1:0:0:0:
64,192,174257,1,0,0:0:0:0:
192,0,174257,128,0,174404:1:0:0:0:
320,0,174404,128,0,174502:1:0:0:0:
448,0,174551,128,0,174649:1:0:0:0:
64,0,174551,128,0,174698:1:0:0:0:
192,0,174698,128,0,174796:1:0:0:0:
320,0,174845,128,0,174943:1:0:0:0:
64,192,174992,1,0,0:0:0:0:
192,0,174992,128,0,175090:1:0:0:0:
320,192,175139,1,0,0:0:0:0:
64,0,175139,128,0,175237:1:0:0:0:
64,192,175433,1,0,0:0:0:0:
448,0,175433,128,0,175531:1:0:0:0:
192,0,175580,128,0,175678:1:0:0:0:
320,192,175727,1,0,0:0:0:0:
64,0,175727,128,0,175801:1:0:0:0:
448,0,175727,128,0,175801:1:0:0:0:
192,192,175875,1,0,0:0:0:0:
320,192,175875,1,0,0:0:0:0:
192,192,176022,1,0,0:0:0:0:
320,192,176022,1,0,0:0:0:0:
64,0,176169,128,0,176267:1:0:0:0:
448,0,176169,128,0,176267:1:0:0:0:
320,0,176169,128,0,176463:1:0:0:0:
192,192,176316,1,0,0:0:0:0:
320,0,176610,128,0,176708:1:0:0:0:
448,0,176610,128,0,176708:1:0:0:0:
64,0,176610,128,0,176904:1:0:0:0:
448,192,176904,1,0,0:0:0:0:
320,0,176904,128,0,177051:1:0:0:0:
448,192,177198,1,0,0:0:0:0:
320,0,177198,128,0,177345:1:0:0:0:
64,192,177345,1,0,0:0:0:0:
192,192,177345,1,0,0:0:0:0:
448,192,177492,1,0,0:0:0:0:
320,0,177492,128,0,177640:1:0:0:0:
64,192,177787,1,0,0:0:0:0:
320,0,177787,128,0,177934:1:0:0:0:
64,192,178081,1,0,0:0:0:0:
448,192,178081,1,0,0:0:0:0:
192,0,178081,128,0,178228:1:0:0:0:
320,192,178375,1,0,0:0:0:0:
448,192,178375,1,0,0:0:0:0:
192,0,178375,128,0,178522:1:0:0:0:
320,192,178522,1,0,0:0:0:0:
64,192,178669,1,0,0:0:0:0:
448,192,178669,1,0,0:0:0:0:
192,0,178669,128,0,178816:1:0:0:0:
64,192,178963,1,0,0:0:0:0:
320,192,178963,1,0,0:0:0:0:
192,0,178963,128,0,179110:1:0:0:0:
64,192,179257,1,0,0:0:0:0:
192,192,179257,1,0,0:0:0:0:
448,0,179257,128,0,179404:1:0:0:0:
192,192,179551,1,0,0:0:0:0:
320,192,179551,1,0,0:0:0:0:
64,0,179551,128,0,179698:1:0:0:0:
192,192,179698,1,0,0:0:0:0:
448,192,179698,1,0,0:0:0:0:
320,192,179845,1,0,0:0:0:0:
448,192,179845,1,0,0:0:0:0:
192,0,179845,128,0,179993:1:0:0:0:
320,192,180140,1,0,0:0:0:0:
448,192,180140,1,0,0:0:0:0:
64,192,180434,1,0,0:0:0:0:
448,192,180434,1,0,0:0:0:0:
192,0,180434,128,0,180728:1:0:0:0:
64,192,180728,1,0,0:0:0:0:
320,192,180728,1,0,0:0:0:0:
448,192,180875,1,0,0:0:0:0:
320,192,181022,1,0,0:0:0:0:
448,192,181022,1,0,0:0:0:0:
192,0,181022,128,0,181316:1:0:0:0:
64,192,181316,1,0,0:0:0:0:
320,192,181463,1,0,0:0:0:0:
448,192,181463,1,0,0:0:0:0:
320,192,181610,1,0,0:0:0:0:
448,192,181610,1,0,0:0:0:0:
192,192,181684,1,0,0:0:0:0:
64,192,181757,1,0,0:0:0:0:
448,192,181757,1,0,0:0:0:0:
320,192,181831,1,0,0:0:0:0:
64,192,181904,1,0,0:0:0:0:
448,192,181904,1,0,0:0:0:0:
192,192,181978,1,0,0:0:0:0:
320,192,182051,1,0,0:0:0:0:
448,192,182051,1,0,0:0:0:0:
64,192,182125,1,0,0:0:0:0:
192,192,182199,1,0,0:0:0:0:
320,192,182199,1,0,0:0:0:0:
448,192,182272,1,0,0:0:0:0:
64,192,182346,1,0,0:0:0:0:
192,192,182346,1,0,0:0:0:0:
448,192,182419,1,0,0:0:0:0:
192,192,182493,1,0,0:0:0:0:
320,192,182493,1,0,0:0:0:0:
64,192,182566,1,0,0:0:0:0:
320,192,182640,1,0,0:0:0:0:
448,192,182640,1,0,0:0:0:0:
192,192,182713,1,0,0:0:0:0:
64,192,182787,1,0,0:0:0:0:
320,192,182787,1,0,0:0:0:0:
192,192,182861,1,0,0:0:0:0:
64,192,182934,1,0,0:0:0:0:
448,192,182934,1,0,0:0:0:0:
320,192,183008,1,0,0:0:0:0:
64,192,183081,1,0,0:0:0:0:
448,192,183081,1,0,0:0:0:0:
320,192,183155,1,0,0:0:0:0:
192,192,183228,1,0,0:0:0:0:
448,192,183228,1,0,0:0:0:0:
64,192,183302,1,0,0:0:0:0:
320,0,183375,128,0,183424:1:0:0:0:
448,0,183375,128,0,183424:1:0:0:0:
64,192,183449,1,0,0:0:0:0:
320,192,183522,1,0,0:0:0:0:
448,192,183522,1,0,0:0:0:0:
192,192,183596,1,0,0:0:0:0:
64,0,183670,128,0,183719:1:0:0:0:
320,0,183670,128,0,183719:1:0:0:0:
448,192,183743,1,0,0:0:0:0:
64,0,183817,128,0,183866:1:0:0:0:
192,0,183817,128,0,183866:1:0:0:0:
320,192,183890,1,0,0:0:0:0:
64,0,183964,128,0,184013:1:0:0:0:
192,0,183964,128,0,184013:1:0:0:0:
448,192,184037,1,0,0:0:0:0:
192,192,184111,1,0,0:0:0:0:
320,192,184111,1,0,0:0:0:0:
448,192,184184,1,0,0:0:0:0:
64,0,184258,128,0,184307:1:0:0:0:
192,0,184258,128,0,184307:1:0:0:0:
320,192,184331,1,0,0:0:0:0:
64,192,184405,1,0,0:0:0:0:
192,192,184405,1,0,0:0:0:0:
320,192,184479,1,0,0:0:0:0:
64,192,184552,1,0,0:0:0:0:
448,192,184552,1,0,0:0:0:0:
192,192,184626,1,0,0:0:0:0:
64,192,184699,1,0,0:0:0:0:
448,192,184699,1,0,0:0:0:0:
320,192,184773,1,0,0:0:0:0:
64,192,184846,1,0,0:0:0:0:
192,192,184846,1,0,0:0:0:0:
448,192,184920,1,0,0:0:0:0:
64,192,184993,1,0,0:0:0:0:
320,192,184993,1,0,0:0:0:0:
448,192,185067,1,0,0:0:0:0:
64,192,185140,1,0,0:0:0:0:
192,192,185140,1,0,0:0:0:0:
448,192,185214,1,0,0:0:0:0:
192,192,185288,1,0,0:0:0:0:
320,192,185288,1,0,0:0:0:0:
64,192,185361,1,0,0:0:0:0:
192,192,185435,1,0,0:0:0:0:
448,192,185435,1,0,0:0:0:0:
64,192,185508,1,0,0:0:0:0:
192,192,185582,1,0,0:0:0:0:
448,192,185582,1,0,0:0:0:0:
64,192,185655,1,0,0:0:0:0:
320,192,185729,1,0,0:0:0:0:
448,192,185729,1,0,0:0:0:0:
192,192,185802,1,0,0:0:0:0:
320,192,185876,1,0,0:0:0:0:
448,192,185876,1,0,0:0:0:0:
64,192,185949,1,0,0:0:0:0:
192,192,186023,1,0,0:0:0:0:
320,192,186023,1,0,0:0:0:0:
448,192,186097,1,0,0:0:0:0:
64,192,186170,1,0,0:0:0:0:
192,192,186170,1,0,0:0:0:0:
448,192,186244,1,0,0:0:0:0:
64,0,186317,128,0,186366:1:0:0:0:
192,0,186317,128,0,186366:1:0:0:0:
320,192,186391,1,0,0:0:0:0:
192,0,186464,128,0,186513:1:0:0:0:
448,0,186464,128,0,186513:1:0:0:0:
320,192,186538,1,0,0:0:0:0:
64,0,186611,128,0,186660:1:0:0:0:
192,0,186611,128,0,186660:1:0:0:0:
320,192,186685,1,0,0:0:0:0:
192,0,186758,128,0,186808:1:0:0:0:
448,0,186758,128,0,186808:1:0:0:0:
64,192,186832,1,0,0:0:0:0:
320,0,186906,128,0,186955:1:0:0:0:
448,0,186906,128,0,186955:1:0:0:0:
192,192,186979,1,0,0:0:0:0:
64,0,187053,128,0,187102:1:0:0:0:
320,0,187053,128,0,187102:1:0:0:0:
192,192,187126,1,0,0:0:0:0:
320,0,187200,128,0,187249:1:0:0:0:
448,0,187200,128,0,187249:1:0:0:0:
192,192,187273,1,0,0:0:0:0:
64,0,187347,128,0,187396:1:0:0:0:
320,0,187347,128,0,187396:1:0:0:0:
448,192,187420,1,0,0:0:0:0:
64,0,187494,128,0,187543:1:0:0:0:
192,0,187494,128,0,187543:1:0:0:0:
320,192,187568,1,0,0:0:0:0:
192,0,187641,128,0,187690:1:0:0:0:
448,0,187641,128,0,187690:1:0:0:0:
320,192,187715,1,0,0:0:0:0:
64,0,187788,128,0,187837:1:0:0:0:
192,0,187788,128,0,187837:1:0:0:0:
448,192,187862,1,0,0:0:0:0:
192,0,187935,128,0,187984:1:0:0:0:
320,0,187935,128,0,187984:1:0:0:0:
448,192,188009,1,0,0:0:0:0:
64,0,188082,128,0,188131:1:0:0:0:
320,0,188082,128,0,188131:1:0:0:0:
448,192,188156,1,0,0:0:0:0:
64,0,188229,128,0,188278:1:0:0:0:
192,0,188229,128,0,188278:1:0:0:0:
320,192,188303,1,0,0:0:0:0:
192,0,188377,128,0,188426:1:0:0:0:
448,0,188377,128,0,188426:1:0:0:0:
320,192,188450,1,0,0:0:0:0:
64,0,188524,128,0,188573:1:0:0:0:
448,0,188524,128,0,188573:1:0:0:0:
192,192,188597,1,0,0:0:0:0:
64,0,188671,128,0,188769:1:0:0:0:
320,0,188671,128,0,188769:1:0:0:0:
448,0,188671,128,0,188769:1:0:0:0:
64,0,188818,128,0,188916:1:0:0:0:
320,0,188818,128,0,188916:1:0:0:0:
448,0,188818,128,0,188916:1:0:0:0:
64,0,188965,128,0,189063:1:0:0:0:
320,0,188965,128,0,189063:1:0:0:0:
448,0,188965,128,0,189063:1:0:0:0:
64,0,189112,128,0,189210:1:0:0:0:
320,0,189112,128,0,189210:1:0:0:0:
448,0,189112,128,0,189210:1:0:0:0:
192,0,189259,128,0,189357:1:0:0:0:
320,0,189406,128,0,189504:1:0:0:0:
64,0,189553,128,0,189651:1:0:0:0:
192,0,189553,128,0,189651:1:0:0:0:
448,0,189553,128,0,189651:1:0:0:0:
64,0,189700,128,0,189798:1:0:0:0:
192,0,189700,128,0,189798:1:0:0:0:
448,0,189700,128,0,189798:1:0:0:0:
64,0,189847,128,0,189945:1:0:0:0:
192,0,189847,128,0,189945:1:0:0:0:
448,0,189847,128,0,189945:1:0:0:0:
64,0,189994,128,0,190092:1:0:0:0:
192,0,189994,128,0,190092:1:0:0:0:
448,0,189994,128,0,190092:1:0:0:0:
320,0,190141,128,0,190239:1:0:0:0:
192,0,190288,128,0,190386:1:0:0:0:
320,0,190435,128,0,190533:1:0:0:0:
192,0,190582,128,0,190680:1:0:0:0:
320,0,190729,128,0,190827:1:0:0:0:
192,0,190876,128,0,190974:1:0:0:0:
64,0,191023,128,0,191121:1:0:0:0:
320,0,191023,128,0,191121:1:0:0:0:
448,0,191023,128,0,191121:1:0:0:0:
192,0,191171,128,0,191269:1:0:0:0:
320,0,191171,128,0,191269:1:0:0:0:
448,0,191171,128,0,191269:1:0:0:0:
64,0,191318,128,0,191416:1:0:0:0:
192,0,191318,128,0,191416:1:0:0:0:
448,0,191318,128,0,191416:1:0:0:0:
192,0,191465,128,0,191563:1:0:0:0:
320,0,191465,128,0,191563:1:0:0:0:
448,0,191465,128,0,191563:1:0:0:0:
64,0,191612,128,0,191710:1:0:0:0:
192,0,191759,128,0,191857:1:0:0:0:
64,0,191906,128,0,192004:1:0:0:0:
192,0,191906,128,0,192004:1:0:0:0:
320,0,191906,128,0,192004:1:0:0:0:
448,0,191906,128,0,192004:1:0:0:0:
64,0,192053,128,0,192151:1:0:0:0:
192,0,192053,128,0,192151:1:0:0:0:
320,0,192053,128,0,192151:1:0:0:0:
448,0,192053,128,0,192151:1:0:0:0:
64,0,192200,128,0,192298:1:0:0:0:
192,0,192200,128,0,192298:1:0:0:0:
320,0,192200,128,0,192298:1:0:0:0:
448,0,192200,128,0,192298:1:0:0:0:
64,0,192347,128,0,192445:1:0:0:0:
192,0,192347,128,0,192445:1:0:0:0:
320,0,192347,128,0,192445:1:0:0:0:
448,0,192347,128,0,192445:1:0:0:0:
