osu file format v13

[General]
AudioFilename: Angel Of Darkness.ogg
AudioLeadIn: 2
PreviewTime: 79846
Countdown: 0
SampleSet: Normal
StackLeniency: 0.7
Mode: 3
LetterboxInBreaks: 0
SpecialStyle: 0
WidescreenStoryboard: 0

[Editor]
DistanceSpacing: 0.8
BeatDivisor: 4
GridSize: 8
TimelineZoom: 1

[Metadata]
Title:Yolomania Vol. 3A
TitleUnicode:Yolomania Vol. 3A
Artist:Various
ArtistUnicode:Various
Creator:Fullerene-
Version:Alex c. feat. Yasmin K. - Angel of Darkness [blaziken] 12
Source:
Tags:Stepmania yolo3 volume
BeatmapID:560731
BeatmapSetID:-1

[Difficulty]
HPDrainRate:8
CircleSize:4
OverallDifficulty:5
ApproachRate:10
SliderMultiplier:1.4
SliderTickRate:1

[Events]
//Background and Video events
0,0,"angel of darkness.jpg",0,0
//Break Periods
//Storyboard Layer 0 (Background)
//Storyboard Layer 1 (Fail)
//Storyboard Layer 2 (Pass)
//Storyboard Layer 3 (Foreground)
//Storyboard Sound Samples

[TimingPoints]
304,342.8571,4,1,0,15,1,0

[HitObjects]
64,0,304,128,0,2618:1:0:0:0:
64,192,2704,1,0,0:0:0:0:
320,0,3046,128,0,3561:1:0:0:0:
192,192,3732,1,0,0:0:0:0:
64,192,4075,1,0,0:0:0:0:
192,0,4418,128,0,5104:1:0:0:0:
448,192,5104,1,0,0:0:0:0:
320,0,5789,128,0,6304:1:0:0:0:
192,192,6475,1,0,0:0:0:0:
64,192,6818,1,0,0:0:0:0:
192,0,7161,128,0,7675:1:0:0:0:
448,192,7846,1,0,0:0:0:0:
448,192,8361,1,0,0:0:0:0:
320,192,8532,1,0,0:0:0:0:
64,192,8875,1,0,0:0:0:0:
192,192,9046,1,0,0:0:0:0:
320,192,9389,1,0,0:0:0:0:
64,0,9732,128,0,10418:1:0:0:0:
64,192,11104,1,0,0:0:0:0:
448,192,11275,1,0,0:0:0:0:
448,192,11618,1,0,0:0:0:0:
320,192,11789,1,0,0:0:0:0:
192,192,12132,1,0,0:0:0:0:
64,192,12475,1,0,0:0:0:0:
192,192,12818,1,0,0:0:0:0:
448,0,13161,128,0,13675:1:0:0:0:
320,0,14018,128,0,14532:1:0:0:0:
192,192,14189,1,0,0:0:0:0:
448,192,14361,1,0,0:0:0:0:
192,192,14704,1,0,0:0:0:0:
64,192,15046,1,0,0:0:0:0:
192,0,15389,128,0,15904:1:0:0:0:
64,192,15561,1,0,0:0:0:0:
448,192,15732,1,0,0:0:0:0:
448,192,16075,1,0,0:0:0:0:
64,192,16418,1,0,0:0:0:0:
320,0,16761,128,0,17275:1:0:0:0:
192,192,16932,1,0,0:0:0:0:
448,192,17104,1,0,0:0:0:0:
192,192,17446,1,0,0:0:0:0:
64,192,17789,1,0,0:0:0:0:
192,0,18132,128,0,18646:1:0:0:0:
320,192,18303,1,0,0:0:0:0:
448,192,18475,1,0,0:0:0:0:
448,192,18818,1,0,0:0:0:0:
64,192,19161,1,0,0:0:0:0:
448,192,19332,1,0,0:0:0:0:
320,192,19503,1,0,0:0:0:0:
64,192,19846,1,0,0:0:0:0:
192,192,20018,1,0,0:0:0:0:
448,192,20361,1,0,0:0:0:0:
64,0,20703,128,0,21389:1:0:0:0:
448,192,20875,1,0,0:0:0:0:
320,192,21046,1,0,0:0:0:0:
448,192,21218,1,0,0:0:0:0:
192,192,21561,1,0,0:0:0:0:
320,192,21903,1,0,0:0:0:0:
64,192,22075,1,0,0:0:0:0:
448,192,22246,1,0,0:0:0:0:
448,192,22589,1,0,0:0:0:0:
320,192,22761,1,0,0:0:0:0:
192,192,23103,1,0,0:0:0:0:
64,192,23446,1,0,0:0:0:0:
192,192,23789,1,0,0:0:0:0:
448,192,24132,1,0,0:0:0:0:
64,192,25246,1,0,0:0:0:0:
448,192,25503,1,0,0:0:0:0:
192,192,25761,1,0,0:0:0:0:
64,192,26018,1,0,0:0:0:0:
192,192,26361,1,0,0:0:0:0:
320,192,26361,1,0,0:0:0:0:
320,192,26532,1,0,0:0:0:0:
64,192,26703,1,0,0:0:0:0:
192,192,26703,1,0,0:0:0:0:
448,192,26875,1,0,0:0:0:0:
320,192,26961,1,0,0:0:0:0:
64,192,27046,1,0,0:0:0:0:
448,192,27046,1,0,0:0:0:0:
192,192,27132,1,0,0:0:0:0:
320,192,27218,1,0,0:0:0:0:
192,192,27389,1,0,0:0:0:0:
448,192,27389,1,0,0:0:0:0:
64,192,27561,1,0,0:0:0:0:
320,192,27732,1,0,0:0:0:0:
448,192,27732,1,0,0:0:0:0:
64,192,28075,1,0,0:0:0:0:
320,192,28075,1,0,0:0:0:0:
64,192,28418,1,0,0:0:0:0:
192,192,28418,1,0,0:0:0:0:
320,192,28761,1,0,0:0:0:0:
448,192,28761,1,0,0:0:0:0:
64,192,29103,1,0,0:0:0:0:
320,192,29103,1,0,0:0:0:0:
192,192,29275,1,0,0:0:0:0:
320,192,29446,1,0,0:0:0:0:
448,192,29446,1,0,0:0:0:0:
448,192,29618,1,0,0:0:0:0:
320,192,29703,1,0,0:0:0:0:
64,192,29789,1,0,0:0:0:0:
448,192,29789,1,0,0:0:0:0:
192,192,29875,1,0,0:0:0:0:
320,192,29961,1,0,0:0:0:0:
192,192,30132,1,0,0:0:0:0:
448,192,30132,1,0,0:0:0:0:
64,192,30475,1,0,0:0:0:0:
320,192,30475,1,0,0:0:0:0:
192,192,30818,1,0,0:0:0:0:
448,192,30818,1,0,0:0:0:0:
192,192,31161,1,0,0:0:0:0:
320,192,31161,1,0,0:0:0:0:
64,192,31503,1,0,0:0:0:0:
192,192,31503,1,0,0:0:0:0:
320,192,31846,1,0,0:0:0:0:
448,192,31846,1,0,0:0:0:0:
64,192,32018,1,0,0:0:0:0:
192,192,32189,1,0,0:0:0:0:
448,192,32189,1,0,0:0:0:0:
64,192,32361,1,0,0:0:0:0:
192,192,32446,1,0,0:0:0:0:
64,192,32532,1,0,0:0:0:0:
320,192,32532,1,0,0:0:0:0:
448,192,32618,1,0,0:0:0:0:
320,192,32704,1,0,0:0:0:0:
192,192,32875,1,0,0:0:0:0:
448,192,32875,1,0,0:0:0:0:
64,192,33218,1,0,0:0:0:0:
320,192,33218,1,0,0:0:0:0:
320,192,33561,1,0,0:0:0:0:
448,192,33561,1,0,0:0:0:0:
64,192,33904,1,0,0:0:0:0:
192,192,33904,1,0,0:0:0:0:
192,192,34246,1,0,0:0:0:0:
320,192,34246,1,0,0:0:0:0:
64,192,34589,1,0,0:0:0:0:
448,192,34589,1,0,0:0:0:0:
192,192,34761,1,0,0:0:0:0:
320,192,34932,1,0,0:0:0:0:
448,192,34932,1,0,0:0:0:0:
64,192,35104,1,0,0:0:0:0:
192,192,35189,1,0,0:0:0:0:
64,192,35275,1,0,0:0:0:0:
448,192,35275,1,0,0:0:0:0:
320,192,35361,1,0,0:0:0:0:
192,192,35446,1,0,0:0:0:0:
320,192,35618,1,0,0:0:0:0:
448,192,35618,1,0,0:0:0:0:
64,192,35961,1,0,0:0:0:0:
320,192,35961,1,0,0:0:0:0:
448,192,36132,1,0,0:0:0:0:
192,192,36304,1,0,0:0:0:0:
320,192,36304,1,0,0:0:0:0:
64,192,36475,1,0,0:0:0:0:
320,192,36561,1,0,0:0:0:0:
64,192,36646,1,0,0:0:0:0:
192,192,36646,1,0,0:0:0:0:
448,192,36732,1,0,0:0:0:0:
320,192,36818,1,0,0:0:0:0:
64,192,36989,1,0,0:0:0:0:
448,192,36989,1,0,0:0:0:0:
320,192,37332,1,0,0:0:0:0:
448,192,37504,1,0,0:0:0:0:
64,192,37675,1,0,0:0:0:0:
320,192,37846,1,0,0:0:0:0:
448,192,38018,1,0,0:0:0:0:
192,192,38189,1,0,0:0:0:0:
320,192,38361,1,0,0:0:0:0:
64,192,38532,1,0,0:0:0:0:
448,192,38704,1,0,0:0:0:0:
320,192,38875,1,0,0:0:0:0:
192,192,39046,1,0,0:0:0:0:
64,192,39218,1,0,0:0:0:0:
448,192,39389,1,0,0:0:0:0:
320,192,39561,1,0,0:0:0:0:
192,192,39732,1,0,0:0:0:0:
448,192,39904,1,0,0:0:0:0:
64,0,40075,128,0,40104:1:0:0:0:
448,0,40075,128,0,40104:1:0:0:0:
320,192,40246,1,0,0:0:0:0:
192,0,40418,128,0,40446:1:0:0:0:
320,0,40418,128,0,40446:1:0:0:0:
64,192,40589,1,0,0:0:0:0:
320,0,40761,128,0,40789:1:0:0:0:
448,0,40761,128,0,40789:1:0:0:0:
192,192,40932,1,0,0:0:0:0:
64,0,41103,128,0,41132:1:0:0:0:
448,0,41103,128,0,41132:1:0:0:0:
64,192,41275,1,0,0:0:0:0:
320,0,41446,128,0,41475:1:0:0:0:
448,0,41446,128,0,41475:1:0:0:0:
192,192,41618,1,0,0:0:0:0:
64,0,41789,128,0,41818:1:0:0:0:
448,0,41789,128,0,41818:1:0:0:0:
64,192,41961,1,0,0:0:0:0:
192,0,42132,128,0,42161:1:0:0:0:
320,0,42132,128,0,42161:1:0:0:0:
192,192,42303,1,0,0:0:0:0:
64,0,42475,128,0,42503:1:0:0:0:
448,0,42475,128,0,42503:1:0:0:0:
320,192,42646,1,0,0:0:0:0:
64,192,42818,1,0,0:0:0:0:
192,192,42818,1,0,0:0:0:0:
448,192,42818,1,0,0:0:0:0:
320,192,43161,1,0,0:0:0:0:
448,192,43161,1,0,0:0:0:0:
64,192,43332,1,0,0:0:0:0:
192,192,43503,1,0,0:0:0:0:
320,192,43503,1,0,0:0:0:0:
64,192,43675,1,0,0:0:0:0:
192,192,43846,1,0,0:0:0:0:
448,192,43846,1,0,0:0:0:0:
320,192,44018,1,0,0:0:0:0:
64,192,44189,1,0,0:0:0:0:
192,192,44189,1,0,0:0:0:0:
192,192,44532,1,0,0:0:0:0:
320,192,44532,1,0,0:0:0:0:
448,192,44703,1,0,0:0:0:0:
192,192,44875,1,0,0:0:0:0:
448,192,44875,1,0,0:0:0:0:
320,192,45046,1,0,0:0:0:0:
64,192,45218,1,0,0:0:0:0:
448,192,45218,1,0,0:0:0:0:
64,192,45389,1,0,0:0:0:0:
192,192,45561,1,0,0:0:0:0:
320,192,45561,1,0,0:0:0:0:
64,192,45903,1,0,0:0:0:0:
192,192,45903,1,0,0:0:0:0:
320,192,46075,1,0,0:0:0:0:
192,192,46246,1,0,0:0:0:0:
448,192,46246,1,0,0:0:0:0:
448,192,46418,1,0,0:0:0:0:
64,192,46589,1,0,0:0:0:0:
192,192,46589,1,0,0:0:0:0:
320,192,46761,1,0,0:0:0:0:
320,192,46932,1,0,0:0:0:0:
448,192,46932,1,0,0:0:0:0:
64,192,47103,1,0,0:0:0:0:
192,192,47275,1,0,0:0:0:0:
320,192,47275,1,0,0:0:0:0:
320,192,47446,1,0,0:0:0:0:
192,192,47618,1,0,0:0:0:0:
448,192,47618,1,0,0:0:0:0:
64,192,47961,1,0,0:0:0:0:
320,192,47961,1,0,0:0:0:0:
448,192,48132,1,0,0:0:0:0:
64,192,48218,1,0,0:0:0:0:
192,192,48303,1,0,0:0:0:0:
448,192,48303,1,0,0:0:0:0:
64,192,48646,1,0,0:0:0:0:
448,192,48646,1,0,0:0:0:0:
192,192,48818,1,0,0:0:0:0:
64,192,48989,1,0,0:0:0:0:
320,192,48989,1,0,0:0:0:0:
64,192,49161,1,0,0:0:0:0:
192,192,49332,1,0,0:0:0:0:
448,192,49332,1,0,0:0:0:0:
320,192,49503,1,0,0:0:0:0:
64,192,49675,1,0,0:0:0:0:
192,192,49675,1,0,0:0:0:0:
320,192,50018,1,0,0:0:0:0:
448,192,50018,1,0,0:0:0:0:
64,192,50189,1,0,0:0:0:0:
192,192,50361,1,0,0:0:0:0:
320,192,50361,1,0,0:0:0:0:
64,192,50532,1,0,0:0:0:0:
64,192,50703,1,0,0:0:0:0:
320,192,50703,1,0,0:0:0:0:
192,192,50875,1,0,0:0:0:0:
320,192,51046,1,0,0:0:0:0:
448,192,51046,1,0,0:0:0:0:
64,192,51389,1,0,0:0:0:0:
448,192,51389,1,0,0:0:0:0:
320,192,51561,1,0,0:0:0:0:
192,192,51732,1,0,0:0:0:0:
448,192,51732,1,0,0:0:0:0:
192,192,51903,1,0,0:0:0:0:
64,192,52075,1,0,0:0:0:0:
320,192,52075,1,0,0:0:0:0:
64,192,52246,1,0,0:0:0:0:
64,192,52418,1,0,0:0:0:0:
192,192,52418,1,0,0:0:0:0:
320,192,52589,1,0,0:0:0:0:
320,192,52761,1,0,0:0:0:0:
448,192,52761,1,0,0:0:0:0:
192,192,52932,1,0,0:0:0:0:
64,192,53103,1,0,0:0:0:0:
320,192,53103,1,0,0:0:0:0:
448,192,53275,1,0,0:0:0:0:
64,192,53446,1,0,0:0:0:0:
192,192,53446,1,0,0:0:0:0:
320,0,53618,128,0,54646:1:0:0:0:
64,192,53789,1,0,0:0:0:0:
448,192,53789,1,0,0:0:0:0:
192,192,54132,1,0,0:0:0:0:
448,192,54132,1,0,0:0:0:0:
64,192,54475,1,0,0:0:0:0:
192,192,54475,1,0,0:0:0:0:
192,192,54818,1,0,0:0:0:0:
448,192,54818,1,0,0:0:0:0:
64,192,55161,1,0,0:0:0:0:
320,192,55161,1,0,0:0:0:0:
448,192,55246,1,0,0:0:0:0:
64,192,55332,1,0,0:0:0:0:
448,192,55418,1,0,0:0:0:0:
64,192,55503,1,0,0:0:0:0:
448,192,55589,1,0,0:0:0:0:
64,192,55675,1,0,0:0:0:0:
448,192,55761,1,0,0:0:0:0:
64,192,55846,1,0,0:0:0:0:
192,192,55846,1,0,0:0:0:0:
320,192,55932,1,0,0:0:0:0:
448,192,55932,1,0,0:0:0:0:
64,192,56018,1,0,0:0:0:0:
192,192,56018,1,0,0:0:0:0:
320,192,56103,1,0,0:0:0:0:
448,192,56103,1,0,0:0:0:0:
64,192,56189,1,0,0:0:0:0:
192,192,56232,1,0,0:0:0:0:
320,192,56275,1,0,0:0:0:0:
448,192,56318,1,0,0:0:0:0:
64,192,56361,1,0,0:0:0:0:
192,192,56403,1,0,0:0:0:0:
320,192,56446,1,0,0:0:0:0:
448,192,56489,1,0,0:0:0:0:
64,192,56532,1,0,0:0:0:0:
192,192,56532,1,0,0:0:0:0:
320,192,56532,1,0,0:0:0:0:
448,192,56618,1,0,0:0:0:0:
64,192,56703,1,0,0:0:0:0:
320,192,56789,1,0,0:0:0:0:
192,192,56875,1,0,0:0:0:0:
448,192,56875,1,0,0:0:0:0:
64,192,56961,1,0,0:0:0:0:
320,192,57046,1,0,0:0:0:0:
448,192,57132,1,0,0:0:0:0:
64,192,57218,1,0,0:0:0:0:
192,192,57218,1,0,0:0:0:0:
320,192,57303,1,0,0:0:0:0:
448,192,57389,1,0,0:0:0:0:
192,192,57475,1,0,0:0:0:0:
64,192,57561,1,0,0:0:0:0:
448,192,57561,1,0,0:0:0:0:
320,192,57646,1,0,0:0:0:0:
192,192,57732,1,0,0:0:0:0:
64,192,57818,1,0,0:0:0:0:
192,192,57903,1,0,0:0:0:0:
320,192,57903,1,0,0:0:0:0:
448,192,57989,1,0,0:0:0:0:
64,192,58075,1,0,0:0:0:0:
320,192,58161,1,0,0:0:0:0:
64,192,58246,1,0,0:0:0:0:
192,192,58246,1,0,0:0:0:0:
448,192,58332,1,0,0:0:0:0:
320,192,58418,1,0,0:0:0:0:
64,192,58503,1,0,0:0:0:0:
192,192,58589,1,0,0:0:0:0:
448,192,58589,1,0,0:0:0:0:
320,192,58675,1,0,0:0:0:0:
192,192,58761,1,0,0:0:0:0:
64,192,58846,1,0,0:0:0:0:
320,192,58932,1,0,0:0:0:0:
448,192,58932,1,0,0:0:0:0:
192,192,59018,1,0,0:0:0:0:
448,192,59103,1,0,0:0:0:0:
320,192,59189,1,0,0:0:0:0:
64,192,59275,1,0,0:0:0:0:
192,192,59275,1,0,0:0:0:0:
448,192,59361,1,0,0:0:0:0:
64,192,59446,1,0,0:0:0:0:
320,192,59532,1,0,0:0:0:0:
192,192,59618,1,0,0:0:0:0:
448,192,59618,1,0,0:0:0:0:
64,192,59703,1,0,0:0:0:0:
448,192,59789,1,0,0:0:0:0:
192,192,59875,1,0,0:0:0:0:
320,192,59961,1,0,0:0:0:0:
448,192,59961,1,0,0:0:0:0:
64,192,60046,1,0,0:0:0:0:
320,192,60132,1,0,0:0:0:0:
448,192,60218,1,0,0:0:0:0:
64,192,60303,1,0,0:0:0:0:
192,192,60303,1,0,0:0:0:0:
320,192,60389,1,0,0:0:0:0:
64,192,60475,1,0,0:0:0:0:
192,192,60561,1,0,0:0:0:0:
64,192,60646,1,0,0:0:0:0:
448,192,60646,1,0,0:0:0:0:
320,192,60732,1,0,0:0:0:0:
448,192,60818,1,0,0:0:0:0:
64,192,60903,1,0,0:0:0:0:
320,192,60989,1,0,0:0:0:0:
448,192,60989,1,0,0:0:0:0:
192,192,61075,1,0,0:0:0:0:
448,192,61161,1,0,0:0:0:0:
320,192,61246,1,0,0:0:0:0:
64,192,61332,1,0,0:0:0:0:
192,192,61332,1,0,0:0:0:0:
448,192,61418,1,0,0:0:0:0:
64,192,61503,1,0,0:0:0:0:
320,192,61589,1,0,0:0:0:0:
192,192,61675,1,0,0:0:0:0:
448,192,61675,1,0,0:0:0:0:
64,192,61761,1,0,0:0:0:0:
448,192,61846,1,0,0:0:0:0:
320,192,61932,1,0,0:0:0:0:
64,192,62018,1,0,0:0:0:0:
448,192,62018,1,0,0:0:0:0:
192,192,62103,1,0,0:0:0:0:
448,192,62189,1,0,0:0:0:0:
64,192,62275,1,0,0:0:0:0:
320,192,62361,1,0,0:0:0:0:
448,192,62361,1,0,0:0:0:0:
192,192,62446,1,0,0:0:0:0:
448,192,62532,1,0,0:0:0:0:
320,192,62618,1,0,0:0:0:0:
64,192,62703,1,0,0:0:0:0:
192,192,62703,1,0,0:0:0:0:
448,192,62789,1,0,0:0:0:0:
320,192,62875,1,0,0:0:0:0:
192,192,62961,1,0,0:0:0:0:
64,192,63046,1,0,0:0:0:0:
320,192,63046,1,0,0:0:0:0:
448,192,63132,1,0,0:0:0:0:
192,192,63218,1,0,0:0:0:0:
320,192,63303,1,0,0:0:0:0:
64,192,63389,1,0,0:0:0:0:
448,192,63389,1,0,0:0:0:0:
192,192,63475,1,0,0:0:0:0:
64,192,63561,1,0,0:0:0:0:
448,192,63646,1,0,0:0:0:0:
192,192,63732,1,0,0:0:0:0:
320,192,63732,1,0,0:0:0:0:
64,192,63818,1,0,0:0:0:0:
320,192,63904,1,0,0:0:0:0:
448,192,63989,1,0,0:0:0:0:
64,192,64075,1,0,0:0:0:0:
192,192,64075,1,0,0:0:0:0:
320,192,64161,1,0,0:0:0:0:
448,192,64246,1,0,0:0:0:0:
64,192,64332,1,0,0:0:0:0:
192,192,64418,1,0,0:0:0:0:
448,192,64418,1,0,0:0:0:0:
320,192,64504,1,0,0:0:0:0:
64,192,64589,1,0,0:0:0:0:
448,192,64675,1,0,0:0:0:0:
192,192,64761,1,0,0:0:0:0:
320,192,64761,1,0,0:0:0:0:
64,192,64846,1,0,0:0:0:0:
320,192,64932,1,0,0:0:0:0:
448,192,65018,1,0,0:0:0:0:
64,192,65104,1,0,0:0:0:0:
192,192,65104,1,0,0:0:0:0:
320,192,65189,1,0,0:0:0:0:
64,192,65275,1,0,0:0:0:0:
448,192,65361,1,0,0:0:0:0:
64,192,65446,1,0,0:0:0:0:
192,192,65446,1,0,0:0:0:0:
320,192,65532,1,0,0:0:0:0:
192,192,65618,1,0,0:0:0:0:
448,192,65704,1,0,0:0:0:0:
64,192,65789,1,0,0:0:0:0:
320,192,65789,1,0,0:0:0:0:
192,192,65875,1,0,0:0:0:0:
320,192,65961,1,0,0:0:0:0:
448,192,66046,1,0,0:0:0:0:
192,192,66132,1,0,0:0:0:0:
320,192,66132,1,0,0:0:0:0:
64,192,66218,1,0,0:0:0:0:
192,192,66303,1,0,0:0:0:0:
320,192,66389,1,0,0:0:0:0:
192,192,66475,1,0,0:0:0:0:
448,192,66475,1,0,0:0:0:0:
64,192,66561,1,0,0:0:0:0:
192,192,66646,1,0,0:0:0:0:
448,192,66732,1,0,0:0:0:0:
192,192,66818,1,0,0:0:0:0:
320,192,66818,1,0,0:0:0:0:
64,192,66903,1,0,0:0:0:0:
192,192,66989,1,0,0:0:0:0:
320,192,67075,1,0,0:0:0:0:
64,192,67161,1,0,0:0:0:0:
448,192,67161,1,0,0:0:0:0:
192,192,67246,1,0,0:0:0:0:
64,192,67332,1,0,0:0:0:0:
192,192,67418,1,0,0:0:0:0:
64,192,67503,1,0,0:0:0:0:
448,192,67503,1,0,0:0:0:0:
320,192,67589,1,0,0:0:0:0:
192,192,67675,1,0,0:0:0:0:
64,192,67761,1,0,0:0:0:0:
192,192,67846,1,0,0:0:0:0:
448,192,67846,1,0,0:0:0:0:
320,192,67932,1,0,0:0:0:0:
448,192,68018,1,0,0:0:0:0:
192,192,68103,1,0,0:0:0:0:
64,192,68189,1,0,0:0:0:0:
320,192,68189,1,0,0:0:0:0:
448,192,68275,1,0,0:0:0:0:
64,192,68361,1,0,0:0:0:0:
320,192,68446,1,0,0:0:0:0:
192,192,68532,1,0,0:0:0:0:
448,192,68532,1,0,0:0:0:0:
64,192,68618,1,0,0:0:0:0:
192,192,68703,1,0,0:0:0:0:
320,192,68789,1,0,0:0:0:0:
64,192,68875,1,0,0:0:0:0:
448,192,68875,1,0,0:0:0:0:
192,192,68961,1,0,0:0:0:0:
448,192,69046,1,0,0:0:0:0:
64,192,69132,1,0,0:0:0:0:
192,192,69218,1,0,0:0:0:0:
320,192,69218,1,0,0:0:0:0:
448,192,69303,1,0,0:0:0:0:
64,192,69389,1,0,0:0:0:0:
320,192,69475,1,0,0:0:0:0:
64,192,69560,1,0,0:0:0:0:
192,192,69560,1,0,0:0:0:0:
448,192,69646,1,0,0:0:0:0:
192,192,69732,1,0,0:0:0:0:
64,192,69818,1,0,0:0:0:0:
320,192,69903,1,0,0:0:0:0:
448,192,69903,1,0,0:0:0:0:
192,192,69989,1,0,0:0:0:0:
448,192,70075,1,0,0:0:0:0:
64,192,70160,1,0,0:0:0:0:
192,192,70246,1,0,0:0:0:0:
320,192,70246,1,0,0:0:0:0:
448,192,70332,1,0,0:0:0:0:
320,192,70418,1,0,0:0:0:0:
192,192,70503,1,0,0:0:0:0:
64,192,70589,1,0,0:0:0:0:
320,192,70589,1,0,0:0:0:0:
448,192,70675,1,0,0:0:0:0:
64,192,70760,1,0,0:0:0:0:
192,192,70846,1,0,0:0:0:0:
64,192,70932,1,0,0:0:0:0:
448,192,70932,1,0,0:0:0:0:
320,192,71018,1,0,0:0:0:0:
64,192,71103,1,0,0:0:0:0:
448,192,71189,1,0,0:0:0:0:
192,192,71275,1,0,0:0:0:0:
320,192,71275,1,0,0:0:0:0:
64,192,71360,1,0,0:0:0:0:
192,192,71446,1,0,0:0:0:0:
320,192,71532,1,0,0:0:0:0:
64,192,71618,1,0,0:0:0:0:
448,192,71618,1,0,0:0:0:0:
192,192,71703,1,0,0:0:0:0:
448,192,71789,1,0,0:0:0:0:
320,192,71875,1,0,0:0:0:0:
192,192,71960,1,0,0:0:0:0:
448,192,71960,1,0,0:0:0:0:
64,192,72046,1,0,0:0:0:0:
448,192,72132,1,0,0:0:0:0:
192,192,72218,1,0,0:0:0:0:
64,192,72303,1,0,0:0:0:0:
320,192,72303,1,0,0:0:0:0:
448,192,72389,1,0,0:0:0:0:
192,192,72475,1,0,0:0:0:0:
320,192,72560,1,0,0:0:0:0:
64,192,72646,1,0,0:0:0:0:
192,192,72646,1,0,0:0:0:0:
448,192,72732,1,0,0:0:0:0:
320,192,72818,1,0,0:0:0:0:
192,192,72903,1,0,0:0:0:0:
64,192,72989,1,0,0:0:0:0:
448,192,72989,1,0,0:0:0:0:
320,192,73075,1,0,0:0:0:0:
64,192,73160,1,0,0:0:0:0:
448,192,73246,1,0,0:0:0:0:
192,192,73332,1,0,0:0:0:0:
320,192,73332,1,0,0:0:0:0:
64,192,73417,1,0,0:0:0:0:
320,192,73503,1,0,0:0:0:0:
192,192,73589,1,0,0:0:0:0:
320,192,73675,1,0,0:0:0:0:
448,192,73675,1,0,0:0:0:0:
64,192,73760,1,0,0:0:0:0:
192,192,73846,1,0,0:0:0:0:
448,192,73932,1,0,0:0:0:0:
64,192,74017,1,0,0:0:0:0:
320,192,74017,1,0,0:0:0:0:
192,192,74103,1,0,0:0:0:0:
448,192,74189,1,0,0:0:0:0:
64,192,74275,1,0,0:0:0:0:
192,192,74360,1,0,0:0:0:0:
448,192,74360,1,0,0:0:0:0:
320,192,74446,1,0,0:0:0:0:
448,192,74532,1,0,0:0:0:0:
192,192,74617,1,0,0:0:0:0:
64,192,74703,1,0,0:0:0:0:
320,192,74703,1,0,0:0:0:0:
448,192,74789,1,0,0:0:0:0:
192,192,74875,1,0,0:0:0:0:
320,192,74960,1,0,0:0:0:0:
64,192,75046,1,0,0:0:0:0:
448,192,75046,1,0,0:0:0:0:
192,192,75132,1,0,0:0:0:0:
320,192,75217,1,0,0:0:0:0:
448,192,75303,1,0,0:0:0:0:
64,192,75389,1,0,0:0:0:0:
320,192,75389,1,0,0:0:0:0:
192,192,75475,1,0,0:0:0:0:
64,192,75560,1,0,0:0:0:0:
320,192,75646,1,0,0:0:0:0:
64,192,75732,1,0,0:0:0:0:
192,192,75732,1,0,0:0:0:0:
448,192,75732,1,0,0:0:0:0:
320,192,75817,1,0,0:0:0:0:
448,192,75903,1,0,0:0:0:0:
64,192,75989,1,0,0:0:0:0:
320,192,76075,1,0,0:0:0:0:
448,192,76075,1,0,0:0:0:0:
192,192,76160,1,0,0:0:0:0:
64,192,76246,1,0,0:0:0:0:
320,192,76332,1,0,0:0:0:0:
64,192,76417,1,0,0:0:0:0:
192,192,76417,1,0,0:0:0:0:
448,192,76417,1,0,0:0:0:0:
320,192,76503,1,0,0:0:0:0:
448,192,76589,1,0,0:0:0:0:
192,192,76675,1,0,0:0:0:0:
64,192,76760,1,0,0:0:0:0:
320,192,76760,1,0,0:0:0:0:
448,192,76846,1,0,0:0:0:0:
320,192,76932,1,0,0:0:0:0:
192,192,77017,1,0,0:0:0:0:
64,192,77103,1,0,0:0:0:0:
320,192,77103,1,0,0:0:0:0:
448,192,77103,1,0,0:0:0:0:
320,192,77274,1,0,0:0:0:0:
448,192,77274,1,0,0:0:0:0:
192,192,77446,1,0,0:0:0:0:
320,192,77446,1,0,0:0:0:0:
64,192,77617,1,0,0:0:0:0:
192,192,77617,1,0,0:0:0:0:
192,192,77789,1,0,0:0:0:0:
320,192,77789,1,0,0:0:0:0:
448,192,77789,1,0,0:0:0:0:
64,192,77960,1,0,0:0:0:0:
320,192,77960,1,0,0:0:0:0:
64,192,78132,1,0,0:0:0:0:
192,192,78132,1,0,0:0:0:0:
192,192,78217,1,0,0:0:0:0:
320,192,78217,1,0,0:0:0:0:
320,192,78303,1,0,0:0:0:0:
448,192,78303,1,0,0:0:0:0:
64,192,78474,1,0,0:0:0:0:
448,192,78646,1,0,0:0:0:0:
64,192,78817,1,0,0:0:0:0:
320,192,78989,1,0,0:0:0:0:
448,192,78989,1,0,0:0:0:0:
64,192,79074,1,0,0:0:0:0:
192,192,79074,1,0,0:0:0:0:
64,192,79246,1,0,0:0:0:0:
192,192,79246,1,0,0:0:0:0:
320,192,79332,1,0,0:0:0:0:
448,192,79332,1,0,0:0:0:0:
448,192,79503,1,0,0:0:0:0:
64,192,79674,1,0,0:0:0:0:
64,192,79846,1,0,0:0:0:0:
192,192,79846,1,0,0:0:0:0:
320,192,79846,1,0,0:0:0:0:
448,192,79932,1,0,0:0:0:0:
192,192,80017,1,0,0:0:0:0:
320,192,80017,1,0,0:0:0:0:
64,192,80103,1,0,0:0:0:0:
192,192,80189,1,0,0:0:0:0:
448,192,80189,1,0,0:0:0:0:
320,192,80274,1,0,0:0:0:0:
64,192,80360,1,0,0:0:0:0:
192,192,80360,1,0,0:0:0:0:
320,192,80446,1,0,0:0:0:0:
448,192,80446,1,0,0:0:0:0:
64,192,80531,1,0,0:0:0:0:
192,192,80531,1,0,0:0:0:0:
320,192,80617,1,0,0:0:0:0:
448,192,80617,1,0,0:0:0:0:
64,192,80703,1,0,0:0:0:0:
192,192,80703,1,0,0:0:0:0:
448,192,80789,1,0,0:0:0:0:
192,192,80874,1,0,0:0:0:0:
320,192,80874,1,0,0:0:0:0:
448,192,80960,1,0,0:0:0:0:
64,192,81046,1,0,0:0:0:0:
192,192,81046,1,0,0:0:0:0:
320,192,81131,1,0,0:0:0:0:
64,192,81217,1,0,0:0:0:0:
448,192,81217,1,0,0:0:0:0:
192,192,81303,1,0,0:0:0:0:
320,192,81389,1,0,0:0:0:0:
448,192,81474,1,0,0:0:0:0:
192,192,81560,1,0,0:0:0:0:
320,192,81560,1,0,0:0:0:0:
64,192,81646,1,0,0:0:0:0:
448,192,81731,1,0,0:0:0:0:
192,192,81817,1,0,0:0:0:0:
64,192,81903,1,0,0:0:0:0:
320,192,81903,1,0,0:0:0:0:
448,192,81989,1,0,0:0:0:0:
320,192,82074,1,0,0:0:0:0:
64,192,82160,1,0,0:0:0:0:
192,192,82246,1,0,0:0:0:0:
448,192,82246,1,0,0:0:0:0:
320,192,82331,1,0,0:0:0:0:
192,192,82417,1,0,0:0:0:0:
448,192,82503,1,0,0:0:0:0:
64,192,82589,1,0,0:0:0:0:
320,192,82589,1,0,0:0:0:0:
192,192,82674,1,0,0:0:0:0:
64,192,82760,1,0,0:0:0:0:
448,192,82760,1,0,0:0:0:0:
320,192,82846,1,0,0:0:0:0:
192,192,82931,1,0,0:0:0:0:
448,192,82931,1,0,0:0:0:0:
64,192,83017,1,0,0:0:0:0:
320,192,83103,1,0,0:0:0:0:
448,192,83103,1,0,0:0:0:0:
64,192,83189,1,0,0:0:0:0:
192,192,83189,1,0,0:0:0:0:
320,192,83274,1,0,0:0:0:0:
448,192,83274,1,0,0:0:0:0:
64,192,83360,1,0,0:0:0:0:
192,192,83360,1,0,0:0:0:0:
320,192,83446,1,0,0:0:0:0:
448,192,83446,1,0,0:0:0:0:
64,192,83531,1,0,0:0:0:0:
192,192,83617,1,0,0:0:0:0:
448,192,83617,1,0,0:0:0:0:
320,192,83703,1,0,0:0:0:0:
192,192,83789,1,0,0:0:0:0:
64,192,83874,1,0,0:0:0:0:
320,192,83960,1,0,0:0:0:0:
448,192,83960,1,0,0:0:0:0:
192,192,84046,1,0,0:0:0:0:
448,192,84131,1,0,0:0:0:0:
320,192,84217,1,0,0:0:0:0:
64,192,84303,1,0,0:0:0:0:
192,192,84303,1,0,0:0:0:0:
448,192,84388,1,0,0:0:0:0:
320,192,84474,1,0,0:0:0:0:
192,192,84560,1,0,0:0:0:0:
64,192,84646,1,0,0:0:0:0:
448,192,84646,1,0,0:0:0:0:
320,192,84731,1,0,0:0:0:0:
192,192,84817,1,0,0:0:0:0:
448,192,84903,1,0,0:0:0:0:
64,192,84988,1,0,0:0:0:0:
320,192,84988,1,0,0:0:0:0:
192,192,85074,1,0,0:0:0:0:
448,192,85160,1,0,0:0:0:0:
64,192,85246,1,0,0:0:0:0:
192,192,85331,1,0,0:0:0:0:
448,192,85331,1,0,0:0:0:0:
320,192,85417,1,0,0:0:0:0:
192,192,85503,1,0,0:0:0:0:
448,192,85503,1,0,0:0:0:0:
64,192,85588,1,0,0:0:0:0:
192,192,85674,1,0,0:0:0:0:
320,192,85674,1,0,0:0:0:0:
448,192,85760,1,0,0:0:0:0:
192,192,85846,1,0,0:0:0:0:
320,192,85846,1,0,0:0:0:0:
64,192,85931,1,0,0:0:0:0:
448,192,85931,1,0,0:0:0:0:
192,192,86017,1,0,0:0:0:0:
320,192,86017,1,0,0:0:0:0:
64,192,86103,1,0,0:0:0:0:
448,192,86103,1,0,0:0:0:0:
192,192,86188,1,0,0:0:0:0:
320,192,86188,1,0,0:0:0:0:
64,192,86274,1,0,0:0:0:0:
192,192,86360,1,0,0:0:0:0:
448,192,86360,1,0,0:0:0:0:
320,192,86446,1,0,0:0:0:0:
64,192,86531,1,0,0:0:0:0:
448,192,86531,1,0,0:0:0:0:
192,192,86617,1,0,0:0:0:0:
64,192,86703,1,0,0:0:0:0:
320,192,86703,1,0,0:0:0:0:
448,192,86788,1,0,0:0:0:0:
320,192,86874,1,0,0:0:0:0:
192,192,86960,1,0,0:0:0:0:
64,192,87046,1,0,0:0:0:0:
448,192,87046,1,0,0:0:0:0:
320,192,87131,1,0,0:0:0:0:
64,192,87217,1,0,0:0:0:0:
192,192,87303,1,0,0:0:0:0:
64,192,87388,1,0,0:0:0:0:
320,192,87388,1,0,0:0:0:0:
448,192,87474,1,0,0:0:0:0:
192,192,87560,1,0,0:0:0:0:
320,192,87646,1,0,0:0:0:0:
64,192,87731,1,0,0:0:0:0:
448,192,87731,1,0,0:0:0:0:
192,192,87817,1,0,0:0:0:0:
448,192,87903,1,0,0:0:0:0:
320,192,87988,1,0,0:0:0:0:
64,192,88074,1,0,0:0:0:0:
448,192,88074,1,0,0:0:0:0:
192,192,88160,1,0,0:0:0:0:
320,192,88245,1,0,0:0:0:0:
448,192,88245,1,0,0:0:0:0:
64,192,88331,1,0,0:0:0:0:
192,192,88417,1,0,0:0:0:0:
448,192,88417,1,0,0:0:0:0:
320,192,88503,1,0,0:0:0:0:
64,192,88588,1,0,0:0:0:0:
448,192,88588,1,0,0:0:0:0:
192,192,88674,1,0,0:0:0:0:
320,192,88674,1,0,0:0:0:0:
64,192,88760,1,0,0:0:0:0:
448,192,88760,1,0,0:0:0:0:
192,192,88845,1,0,0:0:0:0:
320,192,88845,1,0,0:0:0:0:
64,192,88931,1,0,0:0:0:0:
448,192,88931,1,0,0:0:0:0:
320,192,89017,1,0,0:0:0:0:
192,192,89103,1,0,0:0:0:0:
448,192,89103,1,0,0:0:0:0:
64,192,89188,1,0,0:0:0:0:
448,192,89274,1,0,0:0:0:0:
320,192,89360,1,0,0:0:0:0:
64,192,89445,1,0,0:0:0:0:
192,192,89445,1,0,0:0:0:0:
448,192,89531,1,0,0:0:0:0:
192,192,89617,1,0,0:0:0:0:
320,192,89617,1,0,0:0:0:0:
64,192,89703,1,0,0:0:0:0:
192,192,89788,1,0,0:0:0:0:
448,192,89788,1,0,0:0:0:0:
320,192,89874,1,0,0:0:0:0:
64,192,89960,1,0,0:0:0:0:
192,192,89960,1,0,0:0:0:0:
320,192,90045,1,0,0:0:0:0:
448,192,90045,1,0,0:0:0:0:
64,192,90131,1,0,0:0:0:0:
192,192,90131,1,0,0:0:0:0:
320,192,90217,1,0,0:0:0:0:
448,192,90217,1,0,0:0:0:0:
64,192,90303,1,0,0:0:0:0:
192,192,90303,1,0,0:0:0:0:
320,192,90388,1,0,0:0:0:0:
64,192,90474,1,0,0:0:0:0:
448,192,90474,1,0,0:0:0:0:
192,192,90560,1,0,0:0:0:0:
448,192,90645,1,0,0:0:0:0:
64,192,90731,1,0,0:0:0:0:
192,192,90817,1,0,0:0:0:0:
320,192,90817,1,0,0:0:0:0:
448,192,90817,1,0,0:0:0:0:
64,192,90903,1,0,0:0:0:0:
192,192,90988,1,0,0:0:0:0:
320,192,90988,1,0,0:0:0:0:
448,192,91074,1,0,0:0:0:0:
64,192,91160,1,0,0:0:0:0:
320,192,91160,1,0,0:0:0:0:
192,192,91245,1,0,0:0:0:0:
320,192,91331,1,0,0:0:0:0:
448,192,91331,1,0,0:0:0:0:
64,192,91417,1,0,0:0:0:0:
192,192,91417,1,0,0:0:0:0:
320,192,91502,1,0,0:0:0:0:
448,192,91502,1,0,0:0:0:0:
64,192,91588,1,0,0:0:0:0:
192,192,91588,1,0,0:0:0:0:
320,192,91674,1,0,0:0:0:0:
448,192,91674,1,0,0:0:0:0:
192,192,91760,1,0,0:0:0:0:
64,192,91845,1,0,0:0:0:0:
320,192,91845,1,0,0:0:0:0:
448,192,91931,1,0,0:0:0:0:
64,192,92017,1,0,0:0:0:0:
320,192,92017,1,0,0:0:0:0:
192,192,92102,1,0,0:0:0:0:
320,192,92188,1,0,0:0:0:0:
448,192,92188,1,0,0:0:0:0:
64,192,92274,1,0,0:0:0:0:
448,192,92360,1,0,0:0:0:0:
192,192,92445,1,0,0:0:0:0:
64,192,92531,1,0,0:0:0:0:
448,192,92531,1,0,0:0:0:0:
320,192,92617,1,0,0:0:0:0:
448,192,92702,1,0,0:0:0:0:
192,192,92788,1,0,0:0:0:0:
64,192,92874,1,0,0:0:0:0:
320,192,92874,1,0,0:0:0:0:
448,192,92960,1,0,0:0:0:0:
64,192,93045,1,0,0:0:0:0:
320,192,93131,1,0,0:0:0:0:
192,192,93217,1,0,0:0:0:0:
448,192,93217,1,0,0:0:0:0:
64,192,93302,1,0,0:0:0:0:
448,192,93388,1,0,0:0:0:0:
320,192,93474,1,0,0:0:0:0:
192,192,93560,1,0,0:0:0:0:
448,192,93560,1,0,0:0:0:0:
64,192,93645,1,0,0:0:0:0:
192,192,93731,1,0,0:0:0:0:
320,192,93731,1,0,0:0:0:0:
448,192,93817,1,0,0:0:0:0:
64,192,93902,1,0,0:0:0:0:
320,192,93902,1,0,0:0:0:0:
192,192,93988,1,0,0:0:0:0:
64,192,94074,1,0,0:0:0:0:
320,192,94074,1,0,0:0:0:0:
192,192,94160,1,0,0:0:0:0:
448,192,94160,1,0,0:0:0:0:
64,192,94245,1,0,0:0:0:0:
320,192,94245,1,0,0:0:0:0:
192,192,94331,1,0,0:0:0:0:
448,192,94331,1,0,0:0:0:0:
64,192,94417,1,0,0:0:0:0:
320,192,94417,1,0,0:0:0:0:
192,192,94502,1,0,0:0:0:0:
64,192,94588,1,0,0:0:0:0:
448,192,94588,1,0,0:0:0:0:
320,192,94674,1,0,0:0:0:0:
64,192,94760,1,0,0:0:0:0:
192,192,94760,1,0,0:0:0:0:
448,192,94845,1,0,0:0:0:0:
64,192,94931,1,0,0:0:0:0:
320,192,94931,1,0,0:0:0:0:
192,192,95017,1,0,0:0:0:0:
448,192,95102,1,0,0:0:0:0:
64,192,95188,1,0,0:0:0:0:
192,192,95274,1,0,0:0:0:0:
320,192,95274,1,0,0:0:0:0:
448,192,95359,1,0,0:0:0:0:
320,192,95445,1,0,0:0:0:0:
64,192,95531,1,0,0:0:0:0:
192,192,95617,1,0,0:0:0:0:
448,192,95617,1,0,0:0:0:0:
320,192,95702,1,0,0:0:0:0:
64,192,95788,1,0,0:0:0:0:
192,192,95874,1,0,0:0:0:0:
64,192,95959,1,0,0:0:0:0:
448,192,95959,1,0,0:0:0:0:
320,192,96045,1,0,0:0:0:0:
448,192,96131,1,0,0:0:0:0:
192,192,96217,1,0,0:0:0:0:
320,192,96302,1,0,0:0:0:0:
448,192,96302,1,0,0:0:0:0:
64,192,96388,1,0,0:0:0:0:
192,192,96474,1,0,0:0:0:0:
448,192,96474,1,0,0:0:0:0:
320,192,96559,1,0,0:0:0:0:
64,192,96645,1,0,0:0:0:0:
448,192,96645,1,0,0:0:0:0:
192,192,96731,1,0,0:0:0:0:
320,192,96817,1,0,0:0:0:0:
448,192,96817,1,0,0:0:0:0:
64,192,96902,1,0,0:0:0:0:
192,192,96902,1,0,0:0:0:0:
320,192,96988,1,0,0:0:0:0:
448,192,96988,1,0,0:0:0:0:
64,192,97074,1,0,0:0:0:0:
192,192,97074,1,0,0:0:0:0:
320,192,97159,1,0,0:0:0:0:
448,192,97159,1,0,0:0:0:0:
192,192,97245,1,0,0:0:0:0:
64,192,97331,1,0,0:0:0:0:
448,192,97331,1,0,0:0:0:0:
320,192,97417,1,0,0:0:0:0:
448,192,97502,1,0,0:0:0:0:
64,192,97588,1,0,0:0:0:0:
192,192,97674,1,0,0:0:0:0:
320,192,97674,1,0,0:0:0:0:
448,192,97759,1,0,0:0:0:0:
64,192,97845,1,0,0:0:0:0:
320,192,97931,1,0,0:0:0:0:
192,192,98017,1,0,0:0:0:0:
448,192,98017,1,0,0:0:0:0:
64,192,98102,1,0,0:0:0:0:
448,192,98188,1,0,0:0:0:0:
320,192,98274,1,0,0:0:0:0:
64,192,98359,1,0,0:0:0:0:
448,192,98359,1,0,0:0:0:0:
192,192,98445,1,0,0:0:0:0:
448,192,98531,1,0,0:0:0:0:
64,192,98617,1,0,0:0:0:0:
192,192,98702,1,0,0:0:0:0:
320,192,98702,1,0,0:0:0:0:
448,192,98788,1,0,0:0:0:0:
64,192,98874,1,0,0:0:0:0:
320,192,98959,1,0,0:0:0:0:
64,192,99045,1,0,0:0:0:0:
192,192,99045,1,0,0:0:0:0:
448,192,99131,1,0,0:0:0:0:
64,192,99216,1,0,0:0:0:0:
192,192,99216,1,0,0:0:0:0:
320,192,99302,1,0,0:0:0:0:
64,192,99388,1,0,0:0:0:0:
448,192,99388,1,0,0:0:0:0:
192,192,99474,1,0,0:0:0:0:
320,192,99559,1,0,0:0:0:0:
448,192,99559,1,0,0:0:0:0:
64,192,99645,1,0,0:0:0:0:
192,192,99645,1,0,0:0:0:0:
320,192,99731,1,0,0:0:0:0:
448,192,99731,1,0,0:0:0:0:
64,192,99816,1,0,0:0:0:0:
192,192,99816,1,0,0:0:0:0:
320,192,99902,1,0,0:0:0:0:
448,192,99902,1,0,0:0:0:0:
64,192,100074,1,0,0:0:0:0:
448,192,100074,1,0,0:0:0:0:
192,192,100416,1,0,0:0:0:0:
448,192,100416,1,0,0:0:0:0:
64,192,100588,1,0,0:0:0:0:
320,192,100588,1,0,0:0:0:0:
192,192,100759,1,0,0:0:0:0:
448,192,100759,1,0,0:0:0:0:
64,192,100931,1,0,0:0:0:0:
192,192,100931,1,0,0:0:0:0:
320,192,101016,1,0,0:0:0:0:
448,192,101016,1,0,0:0:0:0:
320,192,101188,1,0,0:0:0:0:
448,192,101188,1,0,0:0:0:0:
64,192,101274,1,0,0:0:0:0:
192,192,101274,1,0,0:0:0:0:
64,192,101445,1,0,0:0:0:0:
448,192,101445,1,0,0:0:0:0:
320,192,101616,1,0,0:0:0:0:
448,192,101616,1,0,0:0:0:0:
64,192,101788,1,0,0:0:0:0:
192,192,101788,1,0,0:0:0:0:
192,192,102131,1,0,0:0:0:0:
448,192,102131,1,0,0:0:0:0:
64,192,102302,1,0,0:0:0:0:
192,192,102388,1,0,0:0:0:0:
320,192,102473,1,0,0:0:0:0:
448,192,102473,1,0,0:0:0:0:
64,192,102559,1,0,0:0:0:0:
320,192,102645,1,0,0:0:0:0:
192,192,102816,1,0,0:0:0:0:
448,192,102816,1,0,0:0:0:0:
64,192,103159,1,0,0:0:0:0:
320,192,103159,1,0,0:0:0:0:
64,192,103502,1,0,0:0:0:0:
192,192,103502,1,0,0:0:0:0:
320,192,103845,1,0,0:0:0:0:
448,192,103845,1,0,0:0:0:0:
192,192,104188,1,0,0:0:0:0:
448,192,104188,1,0,0:0:0:0:
64,192,104531,1,0,0:0:0:0:
448,192,104531,1,0,0:0:0:0:
320,192,104702,1,0,0:0:0:0:
64,192,104873,1,0,0:0:0:0:
192,192,104873,1,0,0:0:0:0:
448,192,105045,1,0,0:0:0:0:
192,192,105131,1,0,0:0:0:0:
64,192,105216,1,0,0:0:0:0:
320,192,105216,1,0,0:0:0:0:
192,192,105302,1,0,0:0:0:0:
448,192,105388,1,0,0:0:0:0:
64,192,105559,1,0,0:0:0:0:
448,192,105559,1,0,0:0:0:0:
192,192,105902,1,0,0:0:0:0:
320,192,105902,1,0,0:0:0:0:
192,192,106245,1,0,0:0:0:0:
448,192,106245,1,0,0:0:0:0:
64,192,106588,1,0,0:0:0:0:
320,192,106588,1,0,0:0:0:0:
64,192,106931,1,0,0:0:0:0:
448,192,106931,1,0,0:0:0:0:
64,192,107273,1,0,0:0:0:0:
192,192,107273,1,0,0:0:0:0:
320,192,107445,1,0,0:0:0:0:
64,192,107616,1,0,0:0:0:0:
448,192,107616,1,0,0:0:0:0:
64,192,107788,1,0,0:0:0:0:
448,192,107873,1,0,0:0:0:0:
192,192,107959,1,0,0:0:0:0:
320,192,107959,1,0,0:0:0:0:
64,192,108045,1,0,0:0:0:0:
320,192,108131,1,0,0:0:0:0:
64,192,108302,1,0,0:0:0:0:
192,192,108302,1,0,0:0:0:0:
320,192,108645,1,0,0:0:0:0:
448,192,108645,1,0,0:0:0:0:
192,192,108988,1,0,0:0:0:0:
448,192,108988,1,0,0:0:0:0:
64,192,109331,1,0,0:0:0:0:
192,192,109331,1,0,0:0:0:0:
64,192,109673,1,0,0:0:0:0:
448,192,109673,1,0,0:0:0:0:
64,192,110016,1,0,0:0:0:0:
192,192,110016,1,0,0:0:0:0:
320,192,110188,1,0,0:0:0:0:
192,192,110359,1,0,0:0:0:0:
448,192,110359,1,0,0:0:0:0:
64,192,110531,1,0,0:0:0:0:
320,192,110616,1,0,0:0:0:0:
192,192,110702,1,0,0:0:0:0:
448,192,110702,1,0,0:0:0:0:
64,192,110788,1,0,0:0:0:0:
320,192,110873,1,0,0:0:0:0:
64,192,111045,1,0,0:0:0:0:
192,192,111045,1,0,0:0:0:0:
448,192,111216,1,0,0:0:0:0:
192,192,111388,1,0,0:0:0:0:
320,192,111388,1,0,0:0:0:0:
64,192,111559,1,0,0:0:0:0:
320,192,111730,1,0,0:0:0:0:
448,192,111730,1,0,0:0:0:0:
64,192,111902,1,0,0:0:0:0:
192,192,111988,1,0,0:0:0:0:
64,192,112073,1,0,0:0:0:0:
320,192,112073,1,0,0:0:0:0:
448,192,112159,1,0,0:0:0:0:
320,192,112245,1,0,0:0:0:0:
448,192,112416,1,0,0:0:0:0:
320,192,112459,1,0,0:0:0:0:
64,192,112502,1,0,0:0:0:0:
192,192,112545,1,0,0:0:0:0:
448,192,112588,1,0,0:0:0:0:
448,0,112931,128,0,113016:1:0:0:0:
64,0,113188,128,0,113273:1:0:0:0:
320,0,113445,128,0,113616:1:0:0:0:
64,0,114388,128,0,114473:1:0:0:0:
448,0,114645,128,0,114730:1:0:0:0:
64,0,114902,128,0,114988:1:0:0:0:
64,0,115673,128,0,115759:1:0:0:0:
448,0,115930,128,0,116016:1:0:0:0:
192,0,116188,128,0,116273:1:0:0:0:
64,0,117130,128,0,117216:1:0:0:0:
448,0,117388,128,0,117473:1:0:0:0:
192,0,117645,128,0,117730:1:0:0:0:
64,192,118245,1,0,0:0:0:0:
192,192,118245,1,0,0:0:0:0:
448,192,118245,1,0,0:0:0:0:
64,192,118587,1,0,0:0:0:0:
320,192,118587,1,0,0:0:0:0:
192,192,118759,1,0,0:0:0:0:
192,192,118930,1,0,0:0:0:0:
448,192,118930,1,0,0:0:0:0:
448,192,119102,1,0,0:0:0:0:
64,192,119273,1,0,0:0:0:0:
320,192,119273,1,0,0:0:0:0:
192,192,119445,1,0,0:0:0:0:
192,192,119616,1,0,0:0:0:0:
320,192,119616,1,0,0:0:0:0:
64,192,119959,1,0,0:0:0:0:
448,192,119959,1,0,0:0:0:0:
192,192,120130,1,0,0:0:0:0:
320,192,120302,1,0,0:0:0:0:
448,192,120302,1,0,0:0:0:0:
448,192,120473,1,0,0:0:0:0:
64,192,120645,1,0,0:0:0:0:
320,192,120645,1,0,0:0:0:0:
192,192,120816,1,0,0:0:0:0:
64,192,120987,1,0,0:0:0:0:
192,192,120987,1,0,0:0:0:0:
64,192,121330,1,0,0:0:0:0:
320,192,121330,1,0,0:0:0:0:
448,192,121502,1,0,0:0:0:0:
320,192,121673,1,0,0:0:0:0:
448,192,121673,1,0,0:0:0:0:
64,192,121845,1,0,0:0:0:0:
192,192,122016,1,0,0:0:0:0:
320,192,122016,1,0,0:0:0:0:
320,0,122188,128,0,122359:1:0:0:0:
64,192,122359,1,0,0:0:0:0:
448,192,122359,1,0,0:0:0:0:
192,192,122530,1,0,0:0:0:0:
64,192,122702,1,0,0:0:0:0:
192,192,122702,1,0,0:0:0:0:
448,0,122873,128,0,123045:1:0:0:0:
192,192,123045,1,0,0:0:0:0:
320,192,123045,1,0,0:0:0:0:
192,192,123387,1,0,0:0:0:0:
448,192,123387,1,0,0:0:0:0:
320,192,123559,1,0,0:0:0:0:
64,192,123645,1,0,0:0:0:0:
192,192,123730,1,0,0:0:0:0:
320,192,123730,1,0,0:0:0:0:
64,192,124073,1,0,0:0:0:0:
448,192,124073,1,0,0:0:0:0:
192,192,124245,1,0,0:0:0:0:
192,192,124416,1,0,0:0:0:0:
320,192,124416,1,0,0:0:0:0:
64,192,124587,1,0,0:0:0:0:
64,192,124759,1,0,0:0:0:0:
192,192,124759,1,0,0:0:0:0:
320,192,124930,1,0,0:0:0:0:
320,192,125102,1,0,0:0:0:0:
448,192,125102,1,0,0:0:0:0:
192,192,125445,1,0,0:0:0:0:
320,192,125445,1,0,0:0:0:0:
448,192,125616,1,0,0:0:0:0:
64,192,125787,1,0,0:0:0:0:
320,192,125787,1,0,0:0:0:0:
320,192,125959,1,0,0:0:0:0:
192,192,126130,1,0,0:0:0:0:
448,192,126130,1,0,0:0:0:0:
64,192,126302,1,0,0:0:0:0:
192,192,126473,1,0,0:0:0:0:
320,192,126473,1,0,0:0:0:0:
64,192,126816,1,0,0:0:0:0:
448,192,126816,1,0,0:0:0:0:
320,192,126987,1,0,0:0:0:0:
320,192,127159,1,0,0:0:0:0:
448,192,127159,1,0,0:0:0:0:
448,192,127330,1,0,0:0:0:0:
64,192,127502,1,0,0:0:0:0:
192,192,127502,1,0,0:0:0:0:
320,192,127673,1,0,0:0:0:0:
192,192,127845,1,0,0:0:0:0:
448,192,127845,1,0,0:0:0:0:
320,192,128016,1,0,0:0:0:0:
64,192,128187,1,0,0:0:0:0:
192,192,128187,1,0,0:0:0:0:
448,0,128359,128,0,128702:1:0:0:0:
192,192,128530,1,0,0:0:0:0:
320,192,128530,1,0,0:0:0:0:
64,192,128873,1,0,0:0:0:0:
448,192,128873,1,0,0:0:0:0:
320,192,129045,1,0,0:0:0:0:
192,192,129130,1,0,0:0:0:0:
320,192,129216,1,0,0:0:0:0:
192,192,129302,1,0,0:0:0:0:
320,192,129387,1,0,0:0:0:0:
192,192,129473,1,0,0:0:0:0:
320,192,129559,1,0,0:0:0:0:
192,192,129645,1,0,0:0:0:0:
320,192,129730,1,0,0:0:0:0:
192,192,129816,1,0,0:0:0:0:
320,192,129902,1,0,0:0:0:0:
192,192,129987,1,0,0:0:0:0:
320,192,130073,1,0,0:0:0:0:
192,192,130159,1,0,0:0:0:0:
320,192,130245,1,0,0:0:0:0:
192,192,130330,1,0,0:0:0:0:
320,192,130416,1,0,0:0:0:0:
192,192,130502,1,0,0:0:0:0:
320,192,130587,1,0,0:0:0:0:
448,192,130587,1,0,0:0:0:0:
64,192,130673,1,0,0:0:0:0:
192,192,130673,1,0,0:0:0:0:
320,192,130759,1,0,0:0:0:0:
448,192,130759,1,0,0:0:0:0:
64,192,130845,1,0,0:0:0:0:
192,192,130845,1,0,0:0:0:0:
320,192,130930,1,0,0:0:0:0:
448,192,130930,1,0,0:0:0:0:
64,192,131016,1,0,0:0:0:0:
192,192,131016,1,0,0:0:0:0:
320,192,131102,1,0,0:0:0:0:
448,192,131102,1,0,0:0:0:0:
64,192,131187,1,0,0:0:0:0:
192,192,131187,1,0,0:0:0:0:
320,192,131273,1,0,0:0:0:0:
448,192,131273,1,0,0:0:0:0:
64,192,131359,1,0,0:0:0:0:
192,192,131359,1,0,0:0:0:0:
320,192,131445,1,0,0:0:0:0:
448,192,131445,1,0,0:0:0:0:
64,192,131530,1,0,0:0:0:0:
192,192,131530,1,0,0:0:0:0:
320,192,131616,1,0,0:0:0:0:
448,192,131616,1,0,0:0:0:0:
64,192,131702,1,0,0:0:0:0:
448,192,131787,1,0,0:0:0:0:
64,192,131873,1,0,0:0:0:0:
448,192,131959,1,0,0:0:0:0:
64,192,132045,1,0,0:0:0:0:
448,192,132130,1,0,0:0:0:0:
64,192,132216,1,0,0:0:0:0:
448,192,132302,1,0,0:0:0:0:
64,192,132387,1,0,0:0:0:0:
448,192,132473,1,0,0:0:0:0:
64,192,132559,1,0,0:0:0:0:
448,192,132645,1,0,0:0:0:0:
64,192,132730,1,0,0:0:0:0:
448,192,132816,1,0,0:0:0:0:
64,192,132902,1,0,0:0:0:0:
448,192,132987,1,0,0:0:0:0:
320,192,133030,1,0,0:0:0:0:
192,192,133073,1,0,0:0:0:0:
64,192,133116,1,0,0:0:0:0:
448,192,133159,1,0,0:0:0:0:
320,192,133202,1,0,0:0:0:0:
192,192,133245,1,0,0:0:0:0:
64,192,133287,1,0,0:0:0:0:
320,192,133330,1,0,0:0:0:0:
448,192,133330,1,0,0:0:0:0:
192,192,133416,1,0,0:0:0:0:
64,192,133502,1,0,0:0:0:0:
320,192,133587,1,0,0:0:0:0:
64,192,133673,1,0,0:0:0:0:
192,192,133673,1,0,0:0:0:0:
448,192,133759,1,0,0:0:0:0:
320,192,133845,1,0,0:0:0:0:
64,192,133930,1,0,0:0:0:0:
192,192,134016,1,0,0:0:0:0:
448,192,134016,1,0,0:0:0:0:
320,192,134102,1,0,0:0:0:0:
448,192,134188,1,0,0:0:0:0:
192,192,134273,1,0,0:0:0:0:
64,192,134359,1,0,0:0:0:0:
320,192,134359,1,0,0:0:0:0:
448,192,134445,1,0,0:0:0:0:
192,192,134530,1,0,0:0:0:0:
320,192,134616,1,0,0:0:0:0:
64,192,134702,1,0,0:0:0:0:
448,192,134702,1,0,0:0:0:0:
192,192,134788,1,0,0:0:0:0:
448,192,134873,1,0,0:0:0:0:
320,192,134959,1,0,0:0:0:0:
64,192,135045,1,0,0:0:0:0:
192,192,135045,1,0,0:0:0:0:
448,192,135130,1,0,0:0:0:0:
64,192,135216,1,0,0:0:0:0:
320,192,135302,1,0,0:0:0:0:
192,192,135388,1,0,0:0:0:0:
448,192,135388,1,0,0:0:0:0:
64,192,135473,1,0,0:0:0:0:
320,192,135559,1,0,0:0:0:0:
192,192,135645,1,0,0:0:0:0:
320,192,135730,1,0,0:0:0:0:
448,192,135730,1,0,0:0:0:0:
64,192,135816,1,0,0:0:0:0:
192,192,135902,1,0,0:0:0:0:
320,192,135988,1,0,0:0:0:0:
64,192,136073,1,0,0:0:0:0:
448,192,136073,1,0,0:0:0:0:
192,192,136159,1,0,0:0:0:0:
448,192,136245,1,0,0:0:0:0:
64,192,136330,1,0,0:0:0:0:
320,192,136416,1,0,0:0:0:0:
448,192,136416,1,0,0:0:0:0:
192,192,136502,1,0,0:0:0:0:
448,192,136588,1,0,0:0:0:0:
320,192,136673,1,0,0:0:0:0:
64,192,136759,1,0,0:0:0:0:
448,192,136759,1,0,0:0:0:0:
192,192,136845,1,0,0:0:0:0:
64,192,136931,1,0,0:0:0:0:
320,192,137016,1,0,0:0:0:0:
64,192,137102,1,0,0:0:0:0:
192,192,137102,1,0,0:0:0:0:
448,192,137188,1,0,0:0:0:0:
320,192,137273,1,0,0:0:0:0:
64,192,137359,1,0,0:0:0:0:
192,192,137445,1,0,0:0:0:0:
448,192,137445,1,0,0:0:0:0:
320,192,137531,1,0,0:0:0:0:
64,192,137616,1,0,0:0:0:0:
448,192,137702,1,0,0:0:0:0:
192,192,137788,1,0,0:0:0:0:
320,192,137788,1,0,0:0:0:0:
64,192,137873,1,0,0:0:0:0:
192,192,137959,1,0,0:0:0:0:
448,192,138045,1,0,0:0:0:0:
64,192,138131,1,0,0:0:0:0:
320,192,138131,1,0,0:0:0:0:
192,192,138216,1,0,0:0:0:0:
320,192,138302,1,0,0:0:0:0:
448,192,138388,1,0,0:0:0:0:
64,192,138473,1,0,0:0:0:0:
192,192,138473,1,0,0:0:0:0:
320,192,138559,1,0,0:0:0:0:
64,192,138645,1,0,0:0:0:0:
448,192,138731,1,0,0:0:0:0:
192,192,138816,1,0,0:0:0:0:
320,192,138816,1,0,0:0:0:0:
64,192,138902,1,0,0:0:0:0:
448,192,138988,1,0,0:0:0:0:
320,192,139073,1,0,0:0:0:0:
64,192,139159,1,0,0:0:0:0:
192,192,139159,1,0,0:0:0:0:
448,192,139245,1,0,0:0:0:0:
192,192,139331,1,0,0:0:0:0:
64,192,139416,1,0,0:0:0:0:
320,192,139502,1,0,0:0:0:0:
448,192,139502,1,0,0:0:0:0:
192,192,139588,1,0,0:0:0:0:
320,192,139674,1,0,0:0:0:0:
448,192,139759,1,0,0:0:0:0:
64,192,139845,1,0,0:0:0:0:
192,192,139845,1,0,0:0:0:0:
320,192,139931,1,0,0:0:0:0:
64,192,140016,1,0,0:0:0:0:
448,192,140102,1,0,0:0:0:0:
192,192,140188,1,0,0:0:0:0:
320,192,140188,1,0,0:0:0:0:
64,192,140274,1,0,0:0:0:0:
320,192,140359,1,0,0:0:0:0:
192,192,140445,1,0,0:0:0:0:
320,192,140531,1,0,0:0:0:0:
448,192,140531,1,0,0:0:0:0:
64,192,140616,1,0,0:0:0:0:
448,192,140702,1,0,0:0:0:0:
320,192,140788,1,0,0:0:0:0:
64,192,140874,1,0,0:0:0:0:
448,192,140874,1,0,0:0:0:0:
192,192,140959,1,0,0:0:0:0:
320,192,141045,1,0,0:0:0:0:
448,192,141131,1,0,0:0:0:0:
64,192,141216,1,0,0:0:0:0:
192,192,141216,1,0,0:0:0:0:
320,192,141302,1,0,0:0:0:0:
192,192,141388,1,0,0:0:0:0:
448,192,141474,1,0,0:0:0:0:
64,192,141559,1,0,0:0:0:0:
320,192,141559,1,0,0:0:0:0:
192,192,141645,1,0,0:0:0:0:
64,192,141731,1,0,0:0:0:0:
320,192,141816,1,0,0:0:0:0:
64,192,141902,1,0,0:0:0:0:
448,192,141902,1,0,0:0:0:0:
192,192,141988,1,0,0:0:0:0:
448,192,142074,1,0,0:0:0:0:
64,192,142159,1,0,0:0:0:0:
320,192,142245,1,0,0:0:0:0:
448,192,142245,1,0,0:0:0:0:
192,192,142331,1,0,0:0:0:0:
64,192,142417,1,0,0:0:0:0:
320,192,142502,1,0,0:0:0:0:
192,192,142588,1,0,0:0:0:0:
448,192,142588,1,0,0:0:0:0:
64,192,142674,1,0,0:0:0:0:
320,192,142759,1,0,0:0:0:0:
448,192,142845,1,0,0:0:0:0:
64,192,142931,1,0,0:0:0:0:
320,192,142931,1,0,0:0:0:0:
192,192,143017,1,0,0:0:0:0:
448,192,143102,1,0,0:0:0:0:
320,192,143188,1,0,0:0:0:0:
64,192,143274,1,0,0:0:0:0:
192,192,143274,1,0,0:0:0:0:
448,192,143359,1,0,0:0:0:0:
64,192,143445,1,0,0:0:0:0:
320,192,143531,1,0,0:0:0:0:
192,192,143617,1,0,0:0:0:0:
448,192,143617,1,0,0:0:0:0:
64,192,143702,1,0,0:0:0:0:
192,192,143788,1,0,0:0:0:0:
320,192,143874,1,0,0:0:0:0:
448,192,143959,1,0,0:0:0:0:
320,192,144045,1,0,0:0:0:0:
448,192,144131,1,0,0:0:0:0:
320,192,144217,1,0,0:0:0:0:
64,192,144302,1,0,0:0:0:0:
192,192,144302,1,0,0:0:0:0:
448,192,144302,1,0,0:0:0:0:
320,192,144388,1,0,0:0:0:0:
448,192,144474,1,0,0:0:0:0:
64,192,144559,1,0,0:0:0:0:
192,192,144645,1,0,0:0:0:0:
448,192,144645,1,0,0:0:0:0:
320,192,144731,1,0,0:0:0:0:
64,192,144817,1,0,0:0:0:0:
448,192,144902,1,0,0:0:0:0:
192,192,144988,1,0,0:0:0:0:
320,192,144988,1,0,0:0:0:0:
64,192,145074,1,0,0:0:0:0:
320,192,145160,1,0,0:0:0:0:
192,192,145245,1,0,0:0:0:0:
320,192,145331,1,0,0:0:0:0:
448,192,145331,1,0,0:0:0:0:
64,192,145417,1,0,0:0:0:0:
192,192,145502,1,0,0:0:0:0:
320,192,145588,1,0,0:0:0:0:
64,192,145674,1,0,0:0:0:0:
192,192,145674,1,0,0:0:0:0:
448,192,145760,1,0,0:0:0:0:
320,192,145845,1,0,0:0:0:0:
64,192,145931,1,0,0:0:0:0:
192,192,146017,1,0,0:0:0:0:
320,192,146017,1,0,0:0:0:0:
448,192,146102,1,0,0:0:0:0:
192,192,146188,1,0,0:0:0:0:
64,192,146274,1,0,0:0:0:0:
320,192,146360,1,0,0:0:0:0:
448,192,146360,1,0,0:0:0:0:
192,192,146445,1,0,0:0:0:0:
320,192,146531,1,0,0:0:0:0:
448,192,146617,1,0,0:0:0:0:
64,192,146702,1,0,0:0:0:0:
192,192,146702,1,0,0:0:0:0:
320,192,146788,1,0,0:0:0:0:
64,192,146874,1,0,0:0:0:0:
448,192,146960,1,0,0:0:0:0:
192,192,147045,1,0,0:0:0:0:
320,192,147045,1,0,0:0:0:0:
64,192,147131,1,0,0:0:0:0:
320,192,147217,1,0,0:0:0:0:
192,192,147302,1,0,0:0:0:0:
64,192,147388,1,0,0:0:0:0:
448,192,147388,1,0,0:0:0:0:
320,192,147474,1,0,0:0:0:0:
192,192,147560,1,0,0:0:0:0:
448,192,147645,1,0,0:0:0:0:
64,192,147731,1,0,0:0:0:0:
192,192,147731,1,0,0:0:0:0:
320,192,147817,1,0,0:0:0:0:
64,192,147903,1,0,0:0:0:0:
192,192,147988,1,0,0:0:0:0:
320,192,148074,1,0,0:0:0:0:
448,192,148074,1,0,0:0:0:0:
64,192,148160,1,0,0:0:0:0:
448,192,148245,1,0,0:0:0:0:
320,192,148331,1,0,0:0:0:0:
64,192,148417,1,0,0:0:0:0:
448,192,148417,1,0,0:0:0:0:
192,192,148503,1,0,0:0:0:0:
64,192,148588,1,0,0:0:0:0:
320,192,148674,1,0,0:0:0:0:
192,192,148760,1,0,0:0:0:0:
448,192,148760,1,0,0:0:0:0:
64,192,148845,1,0,0:0:0:0:
192,192,148931,1,0,0:0:0:0:
320,192,149017,1,0,0:0:0:0:
192,192,149103,1,0,0:0:0:0:
448,192,149103,1,0,0:0:0:0:
64,192,149188,1,0,0:0:0:0:
448,192,149274,1,0,0:0:0:0:
192,192,149360,1,0,0:0:0:0:
64,192,149445,1,0,0:0:0:0:
320,192,149445,1,0,0:0:0:0:
448,192,149531,1,0,0:0:0:0:
192,192,149617,1,0,0:0:0:0:
320,192,149703,1,0,0:0:0:0:
64,192,149788,1,0,0:0:0:0:
448,192,149788,1,0,0:0:0:0:
192,192,149874,1,0,0:0:0:0:
64,192,149960,1,0,0:0:0:0:
448,192,150045,1,0,0:0:0:0:
192,192,150131,1,0,0:0:0:0:
320,192,150131,1,0,0:0:0:0:
64,192,150217,1,0,0:0:0:0:
320,192,150303,1,0,0:0:0:0:
448,192,150388,1,0,0:0:0:0:
64,192,150474,1,0,0:0:0:0:
192,192,150474,1,0,0:0:0:0:
320,192,150560,1,0,0:0:0:0:
64,192,150646,1,0,0:0:0:0:
192,192,150731,1,0,0:0:0:0:
320,192,150817,1,0,0:0:0:0:
448,192,150817,1,0,0:0:0:0:
64,192,150903,1,0,0:0:0:0:
448,192,150988,1,0,0:0:0:0:
192,192,151074,1,0,0:0:0:0:
64,192,151160,1,0,0:0:0:0:
448,192,151160,1,0,0:0:0:0:
320,192,151246,1,0,0:0:0:0:
64,192,151331,1,0,0:0:0:0:
448,192,151417,1,0,0:0:0:0:
192,192,151503,1,0,0:0:0:0:
320,192,151503,1,0,0:0:0:0:
64,192,151588,1,0,0:0:0:0:
320,192,151674,1,0,0:0:0:0:
192,192,151760,1,0,0:0:0:0:
64,192,151846,1,0,0:0:0:0:
448,192,151846,1,0,0:0:0:0:
320,192,151931,1,0,0:0:0:0:
448,192,152017,1,0,0:0:0:0:
192,192,152103,1,0,0:0:0:0:
64,192,152188,1,0,0:0:0:0:
320,192,152188,1,0,0:0:0:0:
448,192,152274,1,0,0:0:0:0:
192,192,152360,1,0,0:0:0:0:
64,192,152446,1,0,0:0:0:0:
192,192,152531,1,0,0:0:0:0:
320,192,152531,1,0,0:0:0:0:
448,192,152531,1,0,0:0:0:0:
64,192,152617,1,0,0:0:0:0:
192,192,152703,1,0,0:0:0:0:
448,192,152788,1,0,0:0:0:0:
64,192,152874,1,0,0:0:0:0:
320,192,152874,1,0,0:0:0:0:
192,192,152960,1,0,0:0:0:0:
320,192,153046,1,0,0:0:0:0:
448,192,153131,1,0,0:0:0:0:
64,192,153217,1,0,0:0:0:0:
192,192,153217,1,0,0:0:0:0:
320,192,153217,1,0,0:0:0:0:
448,192,153303,1,0,0:0:0:0:
64,192,153389,1,0,0:0:0:0:
320,192,153474,1,0,0:0:0:0:
192,192,153560,1,0,0:0:0:0:
448,192,153560,1,0,0:0:0:0:
64,192,153646,1,0,0:0:0:0:
192,192,153731,1,0,0:0:0:0:
448,192,153817,1,0,0:0:0:0:
64,192,153903,1,0,0:0:0:0:
192,192,153903,1,0,0:0:0:0:
320,192,153903,1,0,0:0:0:0:
192,192,154074,1,0,0:0:0:0:
320,192,154074,1,0,0:0:0:0:
192,192,154246,1,0,0:0:0:0:
320,192,154246,1,0,0:0:0:0:
448,192,154246,1,0,0:0:0:0:
64,192,154417,1,0,0:0:0:0:
448,192,154417,1,0,0:0:0:0:
64,192,154589,1,0,0:0:0:0:
192,192,154589,1,0,0:0:0:0:
320,192,154589,1,0,0:0:0:0:
192,192,154760,1,0,0:0:0:0:
448,192,154760,1,0,0:0:0:0:
64,192,154931,1,0,0:0:0:0:
192,192,154931,1,0,0:0:0:0:
448,192,154931,1,0,0:0:0:0:
64,192,155017,1,0,0:0:0:0:
320,192,155017,1,0,0:0:0:0:
192,192,155103,1,0,0:0:0:0:
320,192,155103,1,0,0:0:0:0:
192,192,155189,1,0,0:0:0:0:
448,192,155189,1,0,0:0:0:0:
64,192,155274,1,0,0:0:0:0:
320,192,155274,1,0,0:0:0:0:
448,192,155274,1,0,0:0:0:0:
192,192,155360,1,0,0:0:0:0:
320,192,155446,1,0,0:0:0:0:
448,192,155446,1,0,0:0:0:0:
64,192,155531,1,0,0:0:0:0:
192,192,155617,1,0,0:0:0:0:
448,192,155617,1,0,0:0:0:0:
320,192,155703,1,0,0:0:0:0:
64,192,155789,1,0,0:0:0:0:
448,192,155789,1,0,0:0:0:0:
192,192,155874,1,0,0:0:0:0:
320,192,155874,1,0,0:0:0:0:
64,192,155960,1,0,0:0:0:0:
448,192,155960,1,0,0:0:0:0:
192,192,156046,1,0,0:0:0:0:
320,192,156046,1,0,0:0:0:0:
64,192,156132,1,0,0:0:0:0:
448,192,156132,1,0,0:0:0:0:
192,192,156217,1,0,0:0:0:0:
320,192,156303,1,0,0:0:0:0:
448,192,156303,1,0,0:0:0:0:
64,192,156389,1,0,0:0:0:0:
192,192,156474,1,0,0:0:0:0:
448,192,156474,1,0,0:0:0:0:
320,192,156560,1,0,0:0:0:0:
64,192,156646,1,0,0:0:0:0:
192,192,156646,1,0,0:0:0:0:
448,192,156732,1,0,0:0:0:0:
320,192,156817,1,0,0:0:0:0:
64,192,156903,1,0,0:0:0:0:
192,192,156989,1,0,0:0:0:0:
448,192,156989,1,0,0:0:0:0:
320,192,157074,1,0,0:0:0:0:
192,192,157160,1,0,0:0:0:0:
64,192,157246,1,0,0:0:0:0:
192,192,157332,1,0,0:0:0:0:
320,192,157332,1,0,0:0:0:0:
448,192,157417,1,0,0:0:0:0:
64,192,157503,1,0,0:0:0:0:
320,192,157589,1,0,0:0:0:0:
64,192,157674,1,0,0:0:0:0:
192,192,157674,1,0,0:0:0:0:
448,192,157760,1,0,0:0:0:0:
320,192,157846,1,0,0:0:0:0:
192,192,157932,1,0,0:0:0:0:
64,192,158017,1,0,0:0:0:0:
448,192,158017,1,0,0:0:0:0:
320,192,158103,1,0,0:0:0:0:
64,192,158189,1,0,0:0:0:0:
192,192,158189,1,0,0:0:0:0:
448,192,158274,1,0,0:0:0:0:
192,192,158360,1,0,0:0:0:0:
320,192,158360,1,0,0:0:0:0:
64,192,158446,1,0,0:0:0:0:
320,192,158532,1,0,0:0:0:0:
448,192,158532,1,0,0:0:0:0:
64,192,158617,1,0,0:0:0:0:
192,192,158617,1,0,0:0:0:0:
320,192,158703,1,0,0:0:0:0:
448,192,158703,1,0,0:0:0:0:
64,192,158789,1,0,0:0:0:0:
192,192,158789,1,0,0:0:0:0:
320,192,158875,1,0,0:0:0:0:
448,192,158875,1,0,0:0:0:0:
64,192,158960,1,0,0:0:0:0:
320,192,159046,1,0,0:0:0:0:
448,192,159046,1,0,0:0:0:0:
192,192,159132,1,0,0:0:0:0:
64,192,159217,1,0,0:0:0:0:
448,192,159217,1,0,0:0:0:0:
320,192,159303,1,0,0:0:0:0:
64,192,159389,1,0,0:0:0:0:
192,192,159389,1,0,0:0:0:0:
448,192,159475,1,0,0:0:0:0:
320,192,159560,1,0,0:0:0:0:
64,192,159646,1,0,0:0:0:0:
192,192,159732,1,0,0:0:0:0:
448,192,159732,1,0,0:0:0:0:
320,192,159817,1,0,0:0:0:0:
64,192,159903,1,0,0:0:0:0:
192,192,159989,1,0,0:0:0:0:
64,192,160075,1,0,0:0:0:0:
320,192,160075,1,0,0:0:0:0:
448,192,160160,1,0,0:0:0:0:
64,192,160246,1,0,0:0:0:0:
320,192,160332,1,0,0:0:0:0:
64,192,160417,1,0,0:0:0:0:
192,192,160417,1,0,0:0:0:0:
448,192,160503,1,0,0:0:0:0:
320,192,160589,1,0,0:0:0:0:
64,192,160675,1,0,0:0:0:0:
320,192,160760,1,0,0:0:0:0:
448,192,160760,1,0,0:0:0:0:
192,192,160846,1,0,0:0:0:0:
64,192,160932,1,0,0:0:0:0:
448,192,160932,1,0,0:0:0:0:
320,192,161017,1,0,0:0:0:0:
192,192,161103,1,0,0:0:0:0:
448,192,161103,1,0,0:0:0:0:
64,192,161189,1,0,0:0:0:0:
192,192,161275,1,0,0:0:0:0:
320,192,161275,1,0,0:0:0:0:
64,192,161360,1,0,0:0:0:0:
448,192,161360,1,0,0:0:0:0:
192,192,161446,1,0,0:0:0:0:
320,192,161446,1,0,0:0:0:0:
64,192,161532,1,0,0:0:0:0:
448,192,161532,1,0,0:0:0:0:
192,192,161618,1,0,0:0:0:0:
320,192,161618,1,0,0:0:0:0:
64,192,161703,1,0,0:0:0:0:
320,192,161789,1,0,0:0:0:0:
448,192,161789,1,0,0:0:0:0:
192,192,161875,1,0,0:0:0:0:
64,192,161960,1,0,0:0:0:0:
320,192,161960,1,0,0:0:0:0:
448,192,162046,1,0,0:0:0:0:
64,192,162132,1,0,0:0:0:0:
192,192,162132,1,0,0:0:0:0:
320,192,162218,1,0,0:0:0:0:
192,192,162303,1,0,0:0:0:0:
64,192,162389,1,0,0:0:0:0:
320,192,162475,1,0,0:0:0:0:
448,192,162475,1,0,0:0:0:0:
192,192,162560,1,0,0:0:0:0:
448,192,162646,1,0,0:0:0:0:
320,192,162732,1,0,0:0:0:0:
192,192,162818,1,0,0:0:0:0:
448,192,162818,1,0,0:0:0:0:
64,192,162903,1,0,0:0:0:0:
320,192,162989,1,0,0:0:0:0:
448,192,163075,1,0,0:0:0:0:
64,192,163160,1,0,0:0:0:0:
320,192,163160,1,0,0:0:0:0:
64,192,163503,1,0,0:0:0:0:
320,192,163503,1,0,0:0:0:0:
320,192,163675,1,0,0:0:0:0:
448,192,163675,1,0,0:0:0:0:
64,192,163846,1,0,0:0:0:0:
192,192,163846,1,0,0:0:0:0:
320,192,164018,1,0,0:0:0:0:
448,192,164018,1,0,0:0:0:0:
192,192,164103,1,0,0:0:0:0:
320,192,164103,1,0,0:0:0:0:
64,192,164275,1,0,0:0:0:0:
192,192,164275,1,0,0:0:0:0:
192,192,164361,1,0,0:0:0:0:
320,192,164361,1,0,0:0:0:0:
64,192,164532,1,0,0:0:0:0:
448,192,164532,1,0,0:0:0:0:
192,192,164703,1,0,0:0:0:0:
320,192,164703,1,0,0:0:0:0:
64,192,164875,1,0,0:0:0:0:
448,192,164875,1,0,0:0:0:0:
320,192,165046,1,0,0:0:0:0:
448,192,165046,1,0,0:0:0:0:
64,192,165218,1,0,0:0:0:0:
320,192,165218,1,0,0:0:0:0:
320,192,165389,1,0,0:0:0:0:
448,192,165389,1,0,0:0:0:0:
192,192,165475,1,0,0:0:0:0:
320,192,165475,1,0,0:0:0:0:
64,192,165646,1,0,0:0:0:0:
192,192,165646,1,0,0:0:0:0:
192,192,165732,1,0,0:0:0:0:
320,192,165732,1,0,0:0:0:0:
64,192,165903,1,0,0:0:0:0:
448,192,165903,1,0,0:0:0:0:
192,192,166075,1,0,0:0:0:0:
320,192,166075,1,0,0:0:0:0:
64,0,166246,128,0,169332:1:0:0:0:
