osu file format v13

[General]
AudioFilename: Angel Of Darkness.ogg
AudioLeadIn: 2
PreviewTime: 79846
Countdown: 0
SampleSet: None
StackLeniency: 0.7
Mode: 3
LetterboxInBreaks: 0
SpecialStyle: 0
WidescreenStoryboard: 0

[Editor]
DistanceSpacing: 0.8
BeatDivisor: 4
GridSize: 8
TimelineZoom: 1

[Metadata]
Title:Yolomania Vol. 3A
TitleUnicode:Yolomania Vol. 3A
Artist:Various
ArtistUnicode:Various
Creator:Fullerene-
Version:Alex c. feat. Yasmin K. - Angel Of Darkness [Leo137] 13
Source:
Tags:Stepmania yolo3 volume
BeatmapID:563154
BeatmapSetID:243027

[Difficulty]
HPDrainRate:8
CircleSize:4
OverallDifficulty:5
ApproachRate:10
SliderMultiplier:1.4
SliderTickRate:1

[Events]
//Background and Video events
0,0,"angel of darkness.jpg",0,0
//Break Periods
//Storyboard Layer 0 (Background)
//Storyboard Layer 1 (Fail)
//Storyboard Layer 2 (Pass)
//Storyboard Layer 3 (Foreground)
//Storyboard Sound Samples

[TimingPoints]
304,342.8571,4,1,0,15,1,0

[HitObjects]
64,0,304,128,0,2704:1:0:0:0:
320,0,3046,128,0,3561:1:0:0:0:
192,0,3732,128,0,4075:1:0:0:0:
64,0,4075,128,0,4418:1:0:0:0:
448,0,4418,128,0,4761:1:0:0:0:
448,0,5103,128,0,5446:1:0:0:0:
320,0,5789,128,0,6303:1:0:0:0:
64,0,6475,128,0,6818:1:0:0:0:
192,0,6818,128,0,7161:1:0:0:0:
320,0,7161,128,0,7504:1:0:0:0:
320,0,7846,128,0,8018:1:0:0:0:
192,192,8361,1,0,0:0:0:0:
448,0,8532,128,0,8875:1:0:0:0:
320,192,8875,1,0,0:0:0:0:
192,0,9046,128,0,9218:1:0:0:0:
320,0,9389,128,0,9561:1:0:0:0:
320,0,9732,128,0,10246:1:0:0:0:
192,192,11104,1,0,0:0:0:0:
448,0,11275,128,0,11618:1:0:0:0:
320,192,11618,1,0,0:0:0:0:
192,0,11789,128,0,11961:1:0:0:0:
320,0,12132,128,0,12304:1:0:0:0:
192,0,12475,128,0,12646:1:0:0:0:
320,0,12818,128,0,12989:1:0:0:0:
448,0,13161,128,0,13504:1:0:0:0:
64,192,14018,1,0,0:0:0:0:
64,192,14189,1,0,0:0:0:0:
192,192,14361,1,0,0:0:0:0:
448,192,14361,1,0,0:0:0:0:
320,192,14532,1,0,0:0:0:0:
320,192,14704,1,0,0:0:0:0:
320,192,14875,1,0,0:0:0:0:
64,192,15046,1,0,0:0:0:0:
448,192,15046,1,0,0:0:0:0:
192,192,15389,1,0,0:0:0:0:
192,192,15561,1,0,0:0:0:0:
64,192,15732,1,0,0:0:0:0:
448,192,15732,1,0,0:0:0:0:
192,192,15904,1,0,0:0:0:0:
320,192,16075,1,0,0:0:0:0:
320,192,16246,1,0,0:0:0:0:
64,192,16418,1,0,0:0:0:0:
448,192,16418,1,0,0:0:0:0:
192,192,16761,1,0,0:0:0:0:
192,192,16932,1,0,0:0:0:0:
64,192,17104,1,0,0:0:0:0:
448,192,17104,1,0,0:0:0:0:
320,192,17275,1,0,0:0:0:0:
320,192,17446,1,0,0:0:0:0:
320,192,17618,1,0,0:0:0:0:
192,192,17789,1,0,0:0:0:0:
448,192,17789,1,0,0:0:0:0:
320,192,18132,1,0,0:0:0:0:
320,192,18303,1,0,0:0:0:0:
64,192,18475,1,0,0:0:0:0:
448,192,18475,1,0,0:0:0:0:
192,192,18646,1,0,0:0:0:0:
320,192,18818,1,0,0:0:0:0:
320,192,18989,1,0,0:0:0:0:
192,192,19332,1,0,0:0:0:0:
320,192,19503,1,0,0:0:0:0:
320,192,19675,1,0,0:0:0:0:
64,192,19846,1,0,0:0:0:0:
448,192,19846,1,0,0:0:0:0:
192,192,20018,1,0,0:0:0:0:
192,192,20189,1,0,0:0:0:0:
192,192,20361,1,0,0:0:0:0:
320,192,20532,1,0,0:0:0:0:
448,192,20532,1,0,0:0:0:0:
192,192,20703,1,0,0:0:0:0:
320,192,20875,1,0,0:0:0:0:
320,192,21046,1,0,0:0:0:0:
64,192,21218,1,0,0:0:0:0:
448,192,21218,1,0,0:0:0:0:
320,192,21561,1,0,0:0:0:0:
320,192,21732,1,0,0:0:0:0:
64,192,21903,1,0,0:0:0:0:
448,192,21903,1,0,0:0:0:0:
192,192,22075,1,0,0:0:0:0:
320,192,22246,1,0,0:0:0:0:
320,192,22418,1,0,0:0:0:0:
64,192,22589,1,0,0:0:0:0:
448,192,22589,1,0,0:0:0:0:
192,192,22761,1,0,0:0:0:0:
320,192,22932,1,0,0:0:0:0:
320,192,23103,1,0,0:0:0:0:
64,192,23275,1,0,0:0:0:0:
448,192,23275,1,0,0:0:0:0:
320,192,23446,1,0,0:0:0:0:
448,192,23618,1,0,0:0:0:0:
448,192,23789,1,0,0:0:0:0:
192,192,23961,1,0,0:0:0:0:
448,192,23961,1,0,0:0:0:0:
64,192,24132,1,0,0:0:0:0:
320,192,24303,1,0,0:0:0:0:
192,192,24475,1,0,0:0:0:0:
192,192,24989,1,0,0:0:0:0:
192,192,25161,1,0,0:0:0:0:
64,192,25332,1,0,0:0:0:0:
448,192,25332,1,0,0:0:0:0:
320,192,25503,1,0,0:0:0:0:
192,192,25589,1,0,0:0:0:0:
448,192,25675,1,0,0:0:0:0:
192,192,25761,1,0,0:0:0:0:
448,192,25846,1,0,0:0:0:0:
64,192,26018,1,0,0:0:0:0:
320,192,26018,1,0,0:0:0:0:
192,192,26189,1,0,0:0:0:0:
64,192,26361,1,0,0:0:0:0:
448,192,26361,1,0,0:0:0:0:
320,192,26446,1,0,0:0:0:0:
64,192,26532,1,0,0:0:0:0:
192,192,26532,1,0,0:0:0:0:
320,192,26618,1,0,0:0:0:0:
64,192,26703,1,0,0:0:0:0:
448,192,26703,1,0,0:0:0:0:
320,192,26789,1,0,0:0:0:0:
64,192,26875,1,0,0:0:0:0:
192,192,26875,1,0,0:0:0:0:
320,192,26961,1,0,0:0:0:0:
448,192,26961,1,0,0:0:0:0:
192,192,27046,1,0,0:0:0:0:
64,192,27132,1,0,0:0:0:0:
448,192,27132,1,0,0:0:0:0:
192,192,27218,1,0,0:0:0:0:
320,192,27218,1,0,0:0:0:0:
64,192,27303,1,0,0:0:0:0:
320,192,27389,1,0,0:0:0:0:
448,192,27389,1,0,0:0:0:0:
192,192,27475,1,0,0:0:0:0:
320,192,27561,1,0,0:0:0:0:
448,192,27561,1,0,0:0:0:0:
192,192,27646,1,0,0:0:0:0:
64,192,27732,1,0,0:0:0:0:
448,192,27732,1,0,0:0:0:0:
320,192,27818,1,0,0:0:0:0:
192,192,27903,1,0,0:0:0:0:
64,192,27989,1,0,0:0:0:0:
320,192,28075,1,0,0:0:0:0:
448,192,28075,1,0,0:0:0:0:
192,192,28161,1,0,0:0:0:0:
64,192,28246,1,0,0:0:0:0:
448,192,28332,1,0,0:0:0:0:
192,192,28418,1,0,0:0:0:0:
320,192,28418,1,0,0:0:0:0:
64,192,28503,1,0,0:0:0:0:
448,192,28589,1,0,0:0:0:0:
320,192,28675,1,0,0:0:0:0:
64,192,28761,1,0,0:0:0:0:
192,192,28761,1,0,0:0:0:0:
448,192,28846,1,0,0:0:0:0:
320,192,28932,1,0,0:0:0:0:
192,192,29018,1,0,0:0:0:0:
64,192,29103,1,0,0:0:0:0:
448,192,29103,1,0,0:0:0:0:
192,192,29189,1,0,0:0:0:0:
320,192,29275,1,0,0:0:0:0:
448,192,29275,1,0,0:0:0:0:
192,192,29361,1,0,0:0:0:0:
64,192,29446,1,0,0:0:0:0:
448,192,29446,1,0,0:0:0:0:
192,192,29532,1,0,0:0:0:0:
320,192,29618,1,0,0:0:0:0:
448,192,29618,1,0,0:0:0:0:
64,192,29703,1,0,0:0:0:0:
192,192,29703,1,0,0:0:0:0:
320,192,29789,1,0,0:0:0:0:
64,192,29875,1,0,0:0:0:0:
448,192,29875,1,0,0:0:0:0:
192,192,29961,1,0,0:0:0:0:
320,192,29961,1,0,0:0:0:0:
448,192,30046,1,0,0:0:0:0:
64,192,30132,1,0,0:0:0:0:
192,192,30132,1,0,0:0:0:0:
320,192,30218,1,0,0:0:0:0:
64,192,30304,1,0,0:0:0:0:
192,192,30304,1,0,0:0:0:0:
320,192,30389,1,0,0:0:0:0:
64,192,30475,1,0,0:0:0:0:
448,192,30475,1,0,0:0:0:0:
192,192,30561,1,0,0:0:0:0:
320,192,30646,1,0,0:0:0:0:
448,192,30732,1,0,0:0:0:0:
64,192,30818,1,0,0:0:0:0:
192,192,30818,1,0,0:0:0:0:
448,192,30904,1,0,0:0:0:0:
320,192,30989,1,0,0:0:0:0:
192,192,31075,1,0,0:0:0:0:
64,192,31161,1,0,0:0:0:0:
448,192,31161,1,0,0:0:0:0:
192,192,31246,1,0,0:0:0:0:
320,192,31332,1,0,0:0:0:0:
448,192,31418,1,0,0:0:0:0:
64,192,31504,1,0,0:0:0:0:
192,192,31504,1,0,0:0:0:0:
448,192,31589,1,0,0:0:0:0:
320,192,31675,1,0,0:0:0:0:
192,192,31761,1,0,0:0:0:0:
64,192,31846,1,0,0:0:0:0:
448,192,31846,1,0,0:0:0:0:
320,192,31932,1,0,0:0:0:0:
64,192,32018,1,0,0:0:0:0:
192,192,32018,1,0,0:0:0:0:
320,192,32104,1,0,0:0:0:0:
64,192,32189,1,0,0:0:0:0:
448,192,32189,1,0,0:0:0:0:
320,192,32275,1,0,0:0:0:0:
64,192,32361,1,0,0:0:0:0:
192,192,32361,1,0,0:0:0:0:
320,192,32446,1,0,0:0:0:0:
448,192,32446,1,0,0:0:0:0:
192,192,32532,1,0,0:0:0:0:
64,192,32618,1,0,0:0:0:0:
448,192,32618,1,0,0:0:0:0:
192,192,32704,1,0,0:0:0:0:
320,192,32704,1,0,0:0:0:0:
64,192,32789,1,0,0:0:0:0:
320,192,32875,1,0,0:0:0:0:
448,192,32875,1,0,0:0:0:0:
192,192,32961,1,0,0:0:0:0:
320,192,33046,1,0,0:0:0:0:
448,192,33046,1,0,0:0:0:0:
192,192,33132,1,0,0:0:0:0:
64,192,33218,1,0,0:0:0:0:
448,192,33218,1,0,0:0:0:0:
320,192,33304,1,0,0:0:0:0:
192,192,33389,1,0,0:0:0:0:
64,192,33475,1,0,0:0:0:0:
320,192,33561,1,0,0:0:0:0:
448,192,33561,1,0,0:0:0:0:
192,192,33646,1,0,0:0:0:0:
64,192,33732,1,0,0:0:0:0:
448,192,33818,1,0,0:0:0:0:
192,192,33904,1,0,0:0:0:0:
320,192,33904,1,0,0:0:0:0:
64,192,33989,1,0,0:0:0:0:
448,192,34075,1,0,0:0:0:0:
320,192,34161,1,0,0:0:0:0:
64,192,34246,1,0,0:0:0:0:
192,192,34246,1,0,0:0:0:0:
448,192,34332,1,0,0:0:0:0:
320,192,34418,1,0,0:0:0:0:
192,192,34504,1,0,0:0:0:0:
64,192,34589,1,0,0:0:0:0:
448,192,34589,1,0,0:0:0:0:
192,192,34675,1,0,0:0:0:0:
320,192,34761,1,0,0:0:0:0:
448,192,34761,1,0,0:0:0:0:
192,192,34846,1,0,0:0:0:0:
64,192,34932,1,0,0:0:0:0:
448,192,34932,1,0,0:0:0:0:
192,192,35018,1,0,0:0:0:0:
320,192,35104,1,0,0:0:0:0:
448,192,35104,1,0,0:0:0:0:
64,192,35189,1,0,0:0:0:0:
192,192,35189,1,0,0:0:0:0:
320,192,35275,1,0,0:0:0:0:
64,192,35361,1,0,0:0:0:0:
448,192,35361,1,0,0:0:0:0:
192,192,35446,1,0,0:0:0:0:
320,192,35446,1,0,0:0:0:0:
448,192,35532,1,0,0:0:0:0:
64,192,35618,1,0,0:0:0:0:
192,192,35618,1,0,0:0:0:0:
320,192,35704,1,0,0:0:0:0:
64,192,35789,1,0,0:0:0:0:
192,192,35789,1,0,0:0:0:0:
320,192,35875,1,0,0:0:0:0:
64,192,35961,1,0,0:0:0:0:
448,192,35961,1,0,0:0:0:0:
192,192,36046,1,0,0:0:0:0:
320,192,36132,1,0,0:0:0:0:
448,192,36132,1,0,0:0:0:0:
192,192,36218,1,0,0:0:0:0:
64,192,36304,1,0,0:0:0:0:
448,192,36304,1,0,0:0:0:0:
320,192,36389,1,0,0:0:0:0:
64,192,36475,1,0,0:0:0:0:
192,192,36475,1,0,0:0:0:0:
320,192,36561,1,0,0:0:0:0:
448,192,36561,1,0,0:0:0:0:
192,192,36646,1,0,0:0:0:0:
64,192,36732,1,0,0:0:0:0:
448,192,36732,1,0,0:0:0:0:
192,192,36818,1,0,0:0:0:0:
320,192,36818,1,0,0:0:0:0:
448,192,36904,1,0,0:0:0:0:
64,192,36989,1,0,0:0:0:0:
192,192,36989,1,0,0:0:0:0:
320,192,37075,1,0,0:0:0:0:
64,192,37161,1,0,0:0:0:0:
192,192,37161,1,0,0:0:0:0:
320,192,37246,1,0,0:0:0:0:
64,192,37332,1,0,0:0:0:0:
448,192,37332,1,0,0:0:0:0:
192,192,37504,1,0,0:0:0:0:
320,192,37675,1,0,0:0:0:0:
448,192,37675,1,0,0:0:0:0:
64,192,37846,1,0,0:0:0:0:
192,192,38018,1,0,0:0:0:0:
448,192,38018,1,0,0:0:0:0:
320,192,38189,1,0,0:0:0:0:
64,192,38361,1,0,0:0:0:0:
448,192,38361,1,0,0:0:0:0:
192,192,38532,1,0,0:0:0:0:
320,192,38704,1,0,0:0:0:0:
448,192,38704,1,0,0:0:0:0:
320,192,38875,1,0,0:0:0:0:
64,192,39046,1,0,0:0:0:0:
448,192,39046,1,0,0:0:0:0:
192,192,39218,1,0,0:0:0:0:
320,192,39389,1,0,0:0:0:0:
448,192,39389,1,0,0:0:0:0:
64,192,39561,1,0,0:0:0:0:
192,192,39732,1,0,0:0:0:0:
448,192,39732,1,0,0:0:0:0:
320,192,39904,1,0,0:0:0:0:
64,192,40075,1,0,0:0:0:0:
192,0,40075,128,0,40246:1:0:0:0:
64,192,40246,1,0,0:0:0:0:
448,192,40418,1,0,0:0:0:0:
320,0,40418,128,0,40589:1:0:0:0:
448,192,40589,1,0,0:0:0:0:
64,192,40761,1,0,0:0:0:0:
192,0,40761,128,0,40932:1:0:0:0:
64,192,40932,1,0,0:0:0:0:
448,192,41104,1,0,0:0:0:0:
320,0,41104,128,0,41275:1:0:0:0:
448,192,41275,1,0,0:0:0:0:
64,192,41446,1,0,0:0:0:0:
192,0,41446,128,0,41618:1:0:0:0:
64,192,41618,1,0,0:0:0:0:
448,192,41789,1,0,0:0:0:0:
320,0,41789,128,0,41961:1:0:0:0:
448,192,41961,1,0,0:0:0:0:
64,192,42132,1,0,0:0:0:0:
192,0,42132,128,0,42304:1:0:0:0:
64,192,42304,1,0,0:0:0:0:
448,192,42475,1,0,0:0:0:0:
320,0,42475,128,0,42647:1:0:0:0:
448,192,42647,1,0,0:0:0:0:
64,192,42818,1,0,0:0:0:0:
320,192,42818,1,0,0:0:0:0:
448,192,42818,1,0,0:0:0:0:
192,192,42990,1,0,0:0:0:0:
320,192,43161,1,0,0:0:0:0:
448,192,43161,1,0,0:0:0:0:
192,192,43332,1,0,0:0:0:0:
320,192,43332,1,0,0:0:0:0:
64,192,43504,1,0,0:0:0:0:
320,192,43675,1,0,0:0:0:0:
448,192,43675,1,0,0:0:0:0:
192,192,43847,1,0,0:0:0:0:
320,192,43847,1,0,0:0:0:0:
64,192,44018,1,0,0:0:0:0:
192,192,44018,1,0,0:0:0:0:
320,192,44190,1,0,0:0:0:0:
192,192,44361,1,0,0:0:0:0:
64,192,44532,1,0,0:0:0:0:
320,192,44532,1,0,0:0:0:0:
192,192,44704,1,0,0:0:0:0:
448,192,44704,1,0,0:0:0:0:
448,192,44875,1,0,0:0:0:0:
64,192,45047,1,0,0:0:0:0:
320,192,45047,1,0,0:0:0:0:
192,192,45218,1,0,0:0:0:0:
448,192,45218,1,0,0:0:0:0:
320,192,45390,1,0,0:0:0:0:
448,192,45390,1,0,0:0:0:0:
192,192,45561,1,0,0:0:0:0:
320,192,45732,1,0,0:0:0:0:
64,192,45904,1,0,0:0:0:0:
192,192,45904,1,0,0:0:0:0:
192,192,46075,1,0,0:0:0:0:
320,192,46075,1,0,0:0:0:0:
64,192,46247,1,0,0:0:0:0:
320,192,46418,1,0,0:0:0:0:
448,192,46418,1,0,0:0:0:0:
64,192,46590,1,0,0:0:0:0:
192,192,46761,1,0,0:0:0:0:
320,192,46761,1,0,0:0:0:0:
448,192,46932,1,0,0:0:0:0:
64,192,47104,1,0,0:0:0:0:
192,192,47104,1,0,0:0:0:0:
448,192,47275,1,0,0:0:0:0:
64,192,47447,1,0,0:0:0:0:
320,192,47447,1,0,0:0:0:0:
320,192,47618,1,0,0:0:0:0:
320,192,47790,1,0,0:0:0:0:
192,192,47961,1,0,0:0:0:0:
448,192,47961,1,0,0:0:0:0:
64,192,48133,1,0,0:0:0:0:
192,192,48133,1,0,0:0:0:0:
320,192,48218,1,0,0:0:0:0:
192,192,48304,1,0,0:0:0:0:
64,192,48475,1,0,0:0:0:0:
320,192,48647,1,0,0:0:0:0:
448,192,48647,1,0,0:0:0:0:
64,192,48818,1,0,0:0:0:0:
448,192,48818,1,0,0:0:0:0:
320,192,48990,1,0,0:0:0:0:
64,192,49161,1,0,0:0:0:0:
192,192,49161,1,0,0:0:0:0:
192,192,49333,1,0,0:0:0:0:
320,192,49333,1,0,0:0:0:0:
320,192,49504,1,0,0:0:0:0:
448,192,49504,1,0,0:0:0:0:
192,192,49675,1,0,0:0:0:0:
320,192,49847,1,0,0:0:0:0:
192,192,50018,1,0,0:0:0:0:
448,192,50018,1,0,0:0:0:0:
320,192,50190,1,0,0:0:0:0:
448,192,50190,1,0,0:0:0:0:
192,192,50361,1,0,0:0:0:0:
64,192,50533,1,0,0:0:0:0:
448,192,50533,1,0,0:0:0:0:
320,192,50704,1,0,0:0:0:0:
64,192,50875,1,0,0:0:0:0:
192,192,50875,1,0,0:0:0:0:
320,192,51047,1,0,0:0:0:0:
192,192,51218,1,0,0:0:0:0:
320,192,51390,1,0,0:0:0:0:
448,192,51390,1,0,0:0:0:0:
192,192,51561,1,0,0:0:0:0:
320,192,51561,1,0,0:0:0:0:
64,192,51733,1,0,0:0:0:0:
320,192,51904,1,0,0:0:0:0:
448,192,51904,1,0,0:0:0:0:
64,192,52075,1,0,0:0:0:0:
192,192,52247,1,0,0:0:0:0:
448,192,52247,1,0,0:0:0:0:
320,192,52418,1,0,0:0:0:0:
64,192,52590,1,0,0:0:0:0:
192,192,52590,1,0,0:0:0:0:
320,192,52761,1,0,0:0:0:0:
192,192,52933,1,0,0:0:0:0:
448,192,52933,1,0,0:0:0:0:
64,192,53104,1,0,0:0:0:0:
320,192,53275,1,0,0:0:0:0:
448,192,53275,1,0,0:0:0:0:
192,192,53447,1,0,0:0:0:0:
320,192,53618,1,0,0:0:0:0:
448,192,53618,1,0,0:0:0:0:
192,192,53704,1,0,0:0:0:0:
320,192,53790,1,0,0:0:0:0:
64,192,53875,1,0,0:0:0:0:
320,192,53961,1,0,0:0:0:0:
64,192,54047,1,0,0:0:0:0:
192,192,54133,1,0,0:0:0:0:
320,192,54218,1,0,0:0:0:0:
192,192,54304,1,0,0:0:0:0:
320,192,54390,1,0,0:0:0:0:
64,192,54475,1,0,0:0:0:0:
448,192,54561,1,0,0:0:0:0:
64,192,54647,1,0,0:0:0:0:
448,192,54733,1,0,0:0:0:0:
320,192,54818,1,0,0:0:0:0:
192,192,54904,1,0,0:0:0:0:
320,192,54990,1,0,0:0:0:0:
64,192,55075,1,0,0:0:0:0:
192,192,55161,1,0,0:0:0:0:
448,192,55161,1,0,0:0:0:0:
320,192,55247,1,0,0:0:0:0:
192,192,55333,1,0,0:0:0:0:
320,192,55418,1,0,0:0:0:0:
192,192,55504,1,0,0:0:0:0:
320,192,55590,1,0,0:0:0:0:
192,192,55675,1,0,0:0:0:0:
448,192,55761,1,0,0:0:0:0:
64,192,55847,1,0,0:0:0:0:
320,192,55847,1,0,0:0:0:0:
192,192,55933,1,0,0:0:0:0:
320,192,56018,1,0,0:0:0:0:
192,192,56104,1,0,0:0:0:0:
448,192,56190,1,0,0:0:0:0:
320,192,56233,1,0,0:0:0:0:
192,192,56275,1,0,0:0:0:0:
64,192,56318,1,0,0:0:0:0:
448,192,56361,1,0,0:0:0:0:
320,192,56404,1,0,0:0:0:0:
192,192,56447,1,0,0:0:0:0:
64,192,56490,1,0,0:0:0:0:
320,192,56532,1,0,0:0:0:0:
448,192,56532,1,0,0:0:0:0:
192,192,56618,1,0,0:0:0:0:
320,192,56704,1,0,0:0:0:0:
448,192,56704,1,0,0:0:0:0:
192,192,56790,1,0,0:0:0:0:
320,192,56875,1,0,0:0:0:0:
448,192,56875,1,0,0:0:0:0:
192,192,56961,1,0,0:0:0:0:
320,192,57047,1,0,0:0:0:0:
448,192,57047,1,0,0:0:0:0:
192,192,57132,1,0,0:0:0:0:
64,192,57218,1,0,0:0:0:0:
448,192,57218,1,0,0:0:0:0:
320,192,57304,1,0,0:0:0:0:
192,192,57390,1,0,0:0:0:0:
64,192,57475,1,0,0:0:0:0:
320,192,57561,1,0,0:0:0:0:
448,192,57561,1,0,0:0:0:0:
64,192,57647,1,0,0:0:0:0:
192,192,57733,1,0,0:0:0:0:
320,192,57818,1,0,0:0:0:0:
64,192,57904,1,0,0:0:0:0:
448,192,57904,1,0,0:0:0:0:
192,192,57990,1,0,0:0:0:0:
64,192,58075,1,0,0:0:0:0:
448,192,58075,1,0,0:0:0:0:
192,192,58161,1,0,0:0:0:0:
64,192,58247,1,0,0:0:0:0:
448,192,58247,1,0,0:0:0:0:
192,192,58333,1,0,0:0:0:0:
64,192,58418,1,0,0:0:0:0:
448,192,58418,1,0,0:0:0:0:
192,192,58504,1,0,0:0:0:0:
320,192,58590,1,0,0:0:0:0:
448,192,58590,1,0,0:0:0:0:
64,192,58675,1,0,0:0:0:0:
320,192,58761,1,0,0:0:0:0:
64,192,58847,1,0,0:0:0:0:
192,192,58933,1,0,0:0:0:0:
448,192,58933,1,0,0:0:0:0:
64,192,59018,1,0,0:0:0:0:
320,192,59104,1,0,0:0:0:0:
448,192,59190,1,0,0:0:0:0:
64,192,59275,1,0,0:0:0:0:
192,192,59275,1,0,0:0:0:0:
320,192,59361,1,0,0:0:0:0:
64,192,59447,1,0,0:0:0:0:
192,192,59447,1,0,0:0:0:0:
320,192,59533,1,0,0:0:0:0:
64,192,59618,1,0,0:0:0:0:
192,192,59618,1,0,0:0:0:0:
320,192,59704,1,0,0:0:0:0:
64,192,59790,1,0,0:0:0:0:
192,192,59790,1,0,0:0:0:0:
320,192,59875,1,0,0:0:0:0:
64,192,59961,1,0,0:0:0:0:
448,192,59961,1,0,0:0:0:0:
192,192,60047,1,0,0:0:0:0:
320,192,60133,1,0,0:0:0:0:
448,192,60218,1,0,0:0:0:0:
64,192,60304,1,0,0:0:0:0:
192,192,60304,1,0,0:0:0:0:
448,192,60390,1,0,0:0:0:0:
192,192,60475,1,0,0:0:0:0:
64,192,60561,1,0,0:0:0:0:
320,192,60647,1,0,0:0:0:0:
448,192,60647,1,0,0:0:0:0:
192,192,60733,1,0,0:0:0:0:
320,192,60818,1,0,0:0:0:0:
448,192,60818,1,0,0:0:0:0:
192,192,60904,1,0,0:0:0:0:
320,192,60990,1,0,0:0:0:0:
448,192,60990,1,0,0:0:0:0:
192,192,61075,1,0,0:0:0:0:
320,192,61161,1,0,0:0:0:0:
448,192,61161,1,0,0:0:0:0:
192,192,61247,1,0,0:0:0:0:
64,192,61333,1,0,0:0:0:0:
448,192,61333,1,0,0:0:0:0:
320,192,61418,1,0,0:0:0:0:
192,192,61504,1,0,0:0:0:0:
64,192,61590,1,0,0:0:0:0:
320,192,61675,1,0,0:0:0:0:
448,192,61675,1,0,0:0:0:0:
192,192,61761,1,0,0:0:0:0:
64,192,61847,1,0,0:0:0:0:
448,192,61847,1,0,0:0:0:0:
320,192,61933,1,0,0:0:0:0:
64,192,62018,1,0,0:0:0:0:
448,192,62018,1,0,0:0:0:0:
320,192,62104,1,0,0:0:0:0:
192,192,62190,1,0,0:0:0:0:
64,192,62275,1,0,0:0:0:0:
192,192,62361,1,0,0:0:0:0:
448,192,62361,1,0,0:0:0:0:
320,192,62447,1,0,0:0:0:0:
192,192,62533,1,0,0:0:0:0:
448,192,62533,1,0,0:0:0:0:
320,192,62618,1,0,0:0:0:0:
64,192,62704,1,0,0:0:0:0:
192,192,62704,1,0,0:0:0:0:
448,192,62790,1,0,0:0:0:0:
192,192,62875,1,0,0:0:0:0:
320,192,62875,1,0,0:0:0:0:
64,192,62961,1,0,0:0:0:0:
320,192,63047,1,0,0:0:0:0:
448,192,63047,1,0,0:0:0:0:
192,192,63133,1,0,0:0:0:0:
320,192,63218,1,0,0:0:0:0:
448,192,63218,1,0,0:0:0:0:
192,192,63304,1,0,0:0:0:0:
64,192,63390,1,0,0:0:0:0:
448,192,63390,1,0,0:0:0:0:
320,192,63475,1,0,0:0:0:0:
192,192,63561,1,0,0:0:0:0:
64,192,63647,1,0,0:0:0:0:
320,192,63733,1,0,0:0:0:0:
448,192,63733,1,0,0:0:0:0:
192,192,63818,1,0,0:0:0:0:
64,192,63904,1,0,0:0:0:0:
448,192,63990,1,0,0:0:0:0:
192,192,64075,1,0,0:0:0:0:
320,192,64075,1,0,0:0:0:0:
64,192,64161,1,0,0:0:0:0:
448,192,64247,1,0,0:0:0:0:
320,192,64333,1,0,0:0:0:0:
64,192,64418,1,0,0:0:0:0:
192,192,64418,1,0,0:0:0:0:
448,192,64504,1,0,0:0:0:0:
64,192,64590,1,0,0:0:0:0:
320,192,64590,1,0,0:0:0:0:
192,192,64675,1,0,0:0:0:0:
64,192,64761,1,0,0:0:0:0:
320,192,64761,1,0,0:0:0:0:
192,192,64847,1,0,0:0:0:0:
448,192,64933,1,0,0:0:0:0:
320,192,65018,1,0,0:0:0:0:
64,192,65104,1,0,0:0:0:0:
448,192,65104,1,0,0:0:0:0:
192,192,65190,1,0,0:0:0:0:
64,192,65275,1,0,0:0:0:0:
448,192,65275,1,0,0:0:0:0:
192,192,65361,1,0,0:0:0:0:
320,192,65447,1,0,0:0:0:0:
448,192,65447,1,0,0:0:0:0:
64,192,65533,1,0,0:0:0:0:
192,192,65618,1,0,0:0:0:0:
320,192,65618,1,0,0:0:0:0:
448,192,65704,1,0,0:0:0:0:
64,192,65790,1,0,0:0:0:0:
192,192,65790,1,0,0:0:0:0:
320,192,65875,1,0,0:0:0:0:
64,192,65961,1,0,0:0:0:0:
448,192,65961,1,0,0:0:0:0:
192,192,66047,1,0,0:0:0:0:
320,192,66133,1,0,0:0:0:0:
448,192,66133,1,0,0:0:0:0:
192,192,66218,1,0,0:0:0:0:
64,192,66304,1,0,0:0:0:0:
448,192,66304,1,0,0:0:0:0:
320,192,66390,1,0,0:0:0:0:
64,192,66475,1,0,0:0:0:0:
192,192,66475,1,0,0:0:0:0:
320,192,66561,1,0,0:0:0:0:
64,192,66647,1,0,0:0:0:0:
448,192,66647,1,0,0:0:0:0:
320,192,66733,1,0,0:0:0:0:
64,192,66818,1,0,0:0:0:0:
192,192,66818,1,0,0:0:0:0:
320,192,66904,1,0,0:0:0:0:
192,192,66990,1,0,0:0:0:0:
320,192,67075,1,0,0:0:0:0:
64,192,67161,1,0,0:0:0:0:
192,192,67161,1,0,0:0:0:0:
320,192,67247,1,0,0:0:0:0:
192,192,67332,1,0,0:0:0:0:
320,192,67418,1,0,0:0:0:0:
64,192,67504,1,0,0:0:0:0:
192,192,67504,1,0,0:0:0:0:
448,192,67504,1,0,0:0:0:0:
320,192,67590,1,0,0:0:0:0:
64,192,67675,1,0,0:0:0:0:
192,192,67675,1,0,0:0:0:0:
320,192,67761,1,0,0:0:0:0:
64,192,67847,1,0,0:0:0:0:
192,192,67847,1,0,0:0:0:0:
320,192,67932,1,0,0:0:0:0:
64,192,68018,1,0,0:0:0:0:
192,192,68018,1,0,0:0:0:0:
320,192,68104,1,0,0:0:0:0:
64,192,68190,1,0,0:0:0:0:
448,192,68190,1,0,0:0:0:0:
192,192,68275,1,0,0:0:0:0:
320,192,68361,1,0,0:0:0:0:
448,192,68447,1,0,0:0:0:0:
64,192,68532,1,0,0:0:0:0:
192,192,68532,1,0,0:0:0:0:
448,192,68618,1,0,0:0:0:0:
320,192,68704,1,0,0:0:0:0:
192,192,68790,1,0,0:0:0:0:
64,192,68875,1,0,0:0:0:0:
448,192,68875,1,0,0:0:0:0:
320,192,68961,1,0,0:0:0:0:
64,192,69047,1,0,0:0:0:0:
448,192,69047,1,0,0:0:0:0:
320,192,69132,1,0,0:0:0:0:
64,192,69218,1,0,0:0:0:0:
448,192,69218,1,0,0:0:0:0:
320,192,69304,1,0,0:0:0:0:
64,192,69390,1,0,0:0:0:0:
448,192,69390,1,0,0:0:0:0:
320,192,69475,1,0,0:0:0:0:
64,192,69561,1,0,0:0:0:0:
192,192,69561,1,0,0:0:0:0:
448,192,69647,1,0,0:0:0:0:
192,192,69732,1,0,0:0:0:0:
448,192,69818,1,0,0:0:0:0:
64,192,69904,1,0,0:0:0:0:
320,192,69904,1,0,0:0:0:0:
448,192,69990,1,0,0:0:0:0:
192,192,70075,1,0,0:0:0:0:
64,192,70161,1,0,0:0:0:0:
320,192,70247,1,0,0:0:0:0:
448,192,70247,1,0,0:0:0:0:
192,192,70332,1,0,0:0:0:0:
320,192,70418,1,0,0:0:0:0:
448,192,70418,1,0,0:0:0:0:
192,192,70504,1,0,0:0:0:0:
320,192,70589,1,0,0:0:0:0:
448,192,70589,1,0,0:0:0:0:
192,192,70675,1,0,0:0:0:0:
320,192,70761,1,0,0:0:0:0:
448,192,70761,1,0,0:0:0:0:
192,192,70847,1,0,0:0:0:0:
64,192,70932,1,0,0:0:0:0:
448,192,70932,1,0,0:0:0:0:
320,192,71018,1,0,0:0:0:0:
192,192,71104,1,0,0:0:0:0:
64,192,71189,1,0,0:0:0:0:
320,192,71275,1,0,0:0:0:0:
448,192,71275,1,0,0:0:0:0:
64,192,71361,1,0,0:0:0:0:
320,192,71447,1,0,0:0:0:0:
448,192,71532,1,0,0:0:0:0:
64,192,71618,1,0,0:0:0:0:
192,192,71618,1,0,0:0:0:0:
320,192,71704,1,0,0:0:0:0:
64,192,71789,1,0,0:0:0:0:
192,192,71789,1,0,0:0:0:0:
320,192,71875,1,0,0:0:0:0:
64,192,71961,1,0,0:0:0:0:
192,192,71961,1,0,0:0:0:0:
320,192,72047,1,0,0:0:0:0:
64,192,72132,1,0,0:0:0:0:
192,192,72132,1,0,0:0:0:0:
320,192,72218,1,0,0:0:0:0:
64,192,72304,1,0,0:0:0:0:
448,192,72304,1,0,0:0:0:0:
192,192,72389,1,0,0:0:0:0:
320,192,72475,1,0,0:0:0:0:
448,192,72561,1,0,0:0:0:0:
64,192,72647,1,0,0:0:0:0:
192,192,72647,1,0,0:0:0:0:
320,192,72732,1,0,0:0:0:0:
64,192,72818,1,0,0:0:0:0:
448,192,72818,1,0,0:0:0:0:
192,192,72904,1,0,0:0:0:0:
64,192,72989,1,0,0:0:0:0:
448,192,72989,1,0,0:0:0:0:
192,192,73075,1,0,0:0:0:0:
320,192,73161,1,0,0:0:0:0:
448,192,73247,1,0,0:0:0:0:
64,192,73332,1,0,0:0:0:0:
320,192,73332,1,0,0:0:0:0:
192,192,73418,1,0,0:0:0:0:
64,192,73504,1,0,0:0:0:0:
320,192,73504,1,0,0:0:0:0:
192,192,73589,1,0,0:0:0:0:
320,192,73675,1,0,0:0:0:0:
448,192,73675,1,0,0:0:0:0:
64,192,73761,1,0,0:0:0:0:
192,192,73847,1,0,0:0:0:0:
320,192,73847,1,0,0:0:0:0:
448,192,73932,1,0,0:0:0:0:
64,192,74018,1,0,0:0:0:0:
192,192,74018,1,0,0:0:0:0:
320,192,74104,1,0,0:0:0:0:
64,192,74189,1,0,0:0:0:0:
192,192,74189,1,0,0:0:0:0:
320,192,74275,1,0,0:0:0:0:
64,192,74361,1,0,0:0:0:0:
448,192,74361,1,0,0:0:0:0:
192,192,74446,1,0,0:0:0:0:
320,192,74532,1,0,0:0:0:0:
448,192,74618,1,0,0:0:0:0:
64,192,74704,1,0,0:0:0:0:
192,192,74704,1,0,0:0:0:0:
320,192,74789,1,0,0:0:0:0:
448,192,74875,1,0,0:0:0:0:
64,192,74961,1,0,0:0:0:0:
192,192,75046,1,0,0:0:0:0:
320,192,75046,1,0,0:0:0:0:
448,192,75132,1,0,0:0:0:0:
64,192,75218,1,0,0:0:0:0:
192,192,75304,1,0,0:0:0:0:
320,192,75389,1,0,0:0:0:0:
448,192,75389,1,0,0:0:0:0:
64,192,75475,1,0,0:0:0:0:
192,192,75561,1,0,0:0:0:0:
448,192,75561,1,0,0:0:0:0:
320,192,75646,1,0,0:0:0:0:
64,192,75732,1,0,0:0:0:0:
192,192,75732,1,0,0:0:0:0:
448,192,75732,1,0,0:0:0:0:
320,192,75818,1,0,0:0:0:0:
64,192,75904,1,0,0:0:0:0:
320,192,75989,1,0,0:0:0:0:
64,192,76075,1,0,0:0:0:0:
448,192,76075,1,0,0:0:0:0:
320,192,76161,1,0,0:0:0:0:
192,192,76246,1,0,0:0:0:0:
448,192,76246,1,0,0:0:0:0:
320,192,76332,1,0,0:0:0:0:
64,192,76418,1,0,0:0:0:0:
192,192,76418,1,0,0:0:0:0:
448,192,76418,1,0,0:0:0:0:
320,192,76504,1,0,0:0:0:0:
64,192,76589,1,0,0:0:0:0:
448,192,76589,1,0,0:0:0:0:
192,192,76675,1,0,0:0:0:0:
320,192,76761,1,0,0:0:0:0:
448,192,76761,1,0,0:0:0:0:
192,192,76846,1,0,0:0:0:0:
64,192,76932,1,0,0:0:0:0:
448,192,76932,1,0,0:0:0:0:
192,192,77018,1,0,0:0:0:0:
64,192,77104,1,0,0:0:0:0:
320,192,77104,1,0,0:0:0:0:
448,192,77104,1,0,0:0:0:0:
192,192,77189,1,0,0:0:0:0:
320,192,77275,1,0,0:0:0:0:
448,192,77275,1,0,0:0:0:0:
64,192,77361,1,0,0:0:0:0:
192,192,77446,1,0,0:0:0:0:
320,192,77446,1,0,0:0:0:0:
448,192,77532,1,0,0:0:0:0:
64,192,77618,1,0,0:0:0:0:
320,192,77618,1,0,0:0:0:0:
192,192,77704,1,0,0:0:0:0:
320,192,77789,1,0,0:0:0:0:
448,192,77789,1,0,0:0:0:0:
64,192,77875,1,0,0:0:0:0:
192,192,77961,1,0,0:0:0:0:
320,192,77961,1,0,0:0:0:0:
448,192,78046,1,0,0:0:0:0:
64,192,78132,1,0,0:0:0:0:
192,192,78132,1,0,0:0:0:0:
320,192,78218,1,0,0:0:0:0:
448,192,78218,1,0,0:0:0:0:
64,192,78303,1,0,0:0:0:0:
192,192,78303,1,0,0:0:0:0:
320,192,78389,1,0,0:0:0:0:
448,192,78389,1,0,0:0:0:0:
64,192,78475,1,0,0:0:0:0:
192,192,78475,1,0,0:0:0:0:
320,192,78646,1,0,0:0:0:0:
192,192,78818,1,0,0:0:0:0:
320,192,78989,1,0,0:0:0:0:
448,192,79075,1,0,0:0:0:0:
448,192,79246,1,0,0:0:0:0:
320,192,79332,1,0,0:0:0:0:
448,192,79504,1,0,0:0:0:0:
320,192,79675,1,0,0:0:0:0:
64,192,79846,1,0,0:0:0:0:
192,192,79846,1,0,0:0:0:0:
448,192,79846,1,0,0:0:0:0:
320,192,79932,1,0,0:0:0:0:
64,192,80018,1,0,0:0:0:0:
192,192,80018,1,0,0:0:0:0:
320,192,80104,1,0,0:0:0:0:
192,192,80189,1,0,0:0:0:0:
448,192,80189,1,0,0:0:0:0:
64,192,80275,1,0,0:0:0:0:
320,192,80361,1,0,0:0:0:0:
448,192,80361,1,0,0:0:0:0:
64,192,80446,1,0,0:0:0:0:
192,192,80446,1,0,0:0:0:0:
320,192,80532,1,0,0:0:0:0:
64,192,80618,1,0,0:0:0:0:
448,192,80618,1,0,0:0:0:0:
192,192,80704,1,0,0:0:0:0:
320,192,80704,1,0,0:0:0:0:
448,192,80789,1,0,0:0:0:0:
64,192,80875,1,0,0:0:0:0:
192,192,80875,1,0,0:0:0:0:
320,192,80961,1,0,0:0:0:0:
64,192,81046,1,0,0:0:0:0:
192,192,81046,1,0,0:0:0:0:
320,192,81132,1,0,0:0:0:0:
64,192,81218,1,0,0:0:0:0:
448,192,81218,1,0,0:0:0:0:
192,192,81303,1,0,0:0:0:0:
320,192,81389,1,0,0:0:0:0:
192,192,81475,1,0,0:0:0:0:
64,192,81561,1,0,0:0:0:0:
448,192,81561,1,0,0:0:0:0:
320,192,81646,1,0,0:0:0:0:
192,192,81732,1,0,0:0:0:0:
320,192,81818,1,0,0:0:0:0:
64,192,81903,1,0,0:0:0:0:
448,192,81903,1,0,0:0:0:0:
192,192,81989,1,0,0:0:0:0:
320,192,82075,1,0,0:0:0:0:
192,192,82161,1,0,0:0:0:0:
64,192,82246,1,0,0:0:0:0:
448,192,82246,1,0,0:0:0:0:
320,192,82332,1,0,0:0:0:0:
192,192,82418,1,0,0:0:0:0:
320,192,82503,1,0,0:0:0:0:
64,192,82589,1,0,0:0:0:0:
448,192,82589,1,0,0:0:0:0:
192,192,82675,1,0,0:0:0:0:
320,192,82761,1,0,0:0:0:0:
448,192,82761,1,0,0:0:0:0:
192,192,82846,1,0,0:0:0:0:
64,192,82932,1,0,0:0:0:0:
448,192,82932,1,0,0:0:0:0:
320,192,83018,1,0,0:0:0:0:
64,192,83103,1,0,0:0:0:0:
192,192,83103,1,0,0:0:0:0:
320,192,83189,1,0,0:0:0:0:
448,192,83189,1,0,0:0:0:0:
192,192,83275,1,0,0:0:0:0:
64,192,83361,1,0,0:0:0:0:
320,192,83361,1,0,0:0:0:0:
192,192,83446,1,0,0:0:0:0:
448,192,83446,1,0,0:0:0:0:
64,192,83532,1,0,0:0:0:0:
320,192,83618,1,0,0:0:0:0:
448,192,83618,1,0,0:0:0:0:
192,192,83703,1,0,0:0:0:0:
320,192,83789,1,0,0:0:0:0:
448,192,83789,1,0,0:0:0:0:
192,192,83875,1,0,0:0:0:0:
64,192,83961,1,0,0:0:0:0:
448,192,83961,1,0,0:0:0:0:
320,192,84046,1,0,0:0:0:0:
192,192,84132,1,0,0:0:0:0:
64,192,84218,1,0,0:0:0:0:
320,192,84303,1,0,0:0:0:0:
448,192,84303,1,0,0:0:0:0:
192,192,84389,1,0,0:0:0:0:
64,192,84475,1,0,0:0:0:0:
448,192,84561,1,0,0:0:0:0:
192,192,84646,1,0,0:0:0:0:
320,192,84646,1,0,0:0:0:0:
64,192,84732,1,0,0:0:0:0:
448,192,84818,1,0,0:0:0:0:
320,192,84903,1,0,0:0:0:0:
64,192,84989,1,0,0:0:0:0:
192,192,84989,1,0,0:0:0:0:
448,192,85075,1,0,0:0:0:0:
320,192,85160,1,0,0:0:0:0:
192,192,85246,1,0,0:0:0:0:
64,192,85332,1,0,0:0:0:0:
448,192,85332,1,0,0:0:0:0:
320,192,85418,1,0,0:0:0:0:
64,192,85503,1,0,0:0:0:0:
192,192,85503,1,0,0:0:0:0:
320,192,85589,1,0,0:0:0:0:
64,192,85675,1,0,0:0:0:0:
448,192,85675,1,0,0:0:0:0:
192,192,85760,1,0,0:0:0:0:
320,192,85846,1,0,0:0:0:0:
448,192,85846,1,0,0:0:0:0:
64,192,85932,1,0,0:0:0:0:
192,192,85932,1,0,0:0:0:0:
320,192,86018,1,0,0:0:0:0:
64,192,86103,1,0,0:0:0:0:
448,192,86103,1,0,0:0:0:0:
192,192,86189,1,0,0:0:0:0:
320,192,86189,1,0,0:0:0:0:
448,192,86275,1,0,0:0:0:0:
64,192,86360,1,0,0:0:0:0:
192,192,86360,1,0,0:0:0:0:
320,192,86446,1,0,0:0:0:0:
64,192,86532,1,0,0:0:0:0:
192,192,86532,1,0,0:0:0:0:
320,192,86618,1,0,0:0:0:0:
64,192,86703,1,0,0:0:0:0:
448,192,86703,1,0,0:0:0:0:
192,192,86789,1,0,0:0:0:0:
320,192,86875,1,0,0:0:0:0:
192,192,86960,1,0,0:0:0:0:
64,192,87046,1,0,0:0:0:0:
448,192,87046,1,0,0:0:0:0:
320,192,87132,1,0,0:0:0:0:
192,192,87218,1,0,0:0:0:0:
320,192,87303,1,0,0:0:0:0:
64,192,87389,1,0,0:0:0:0:
448,192,87389,1,0,0:0:0:0:
192,192,87475,1,0,0:0:0:0:
320,192,87560,1,0,0:0:0:0:
192,192,87646,1,0,0:0:0:0:
64,192,87732,1,0,0:0:0:0:
448,192,87732,1,0,0:0:0:0:
320,192,87818,1,0,0:0:0:0:
192,192,87903,1,0,0:0:0:0:
320,192,87989,1,0,0:0:0:0:
64,192,88075,1,0,0:0:0:0:
192,192,88075,1,0,0:0:0:0:
448,192,88160,1,0,0:0:0:0:
192,192,88246,1,0,0:0:0:0:
320,192,88246,1,0,0:0:0:0:
448,192,88332,1,0,0:0:0:0:
64,192,88417,1,0,0:0:0:0:
192,192,88417,1,0,0:0:0:0:
320,192,88503,1,0,0:0:0:0:
64,192,88589,1,0,0:0:0:0:
448,192,88589,1,0,0:0:0:0:
192,192,88675,1,0,0:0:0:0:
320,192,88675,1,0,0:0:0:0:
64,192,88760,1,0,0:0:0:0:
320,192,88846,1,0,0:0:0:0:
448,192,88846,1,0,0:0:0:0:
64,192,88932,1,0,0:0:0:0:
192,192,88932,1,0,0:0:0:0:
448,192,89017,1,0,0:0:0:0:
192,192,89103,1,0,0:0:0:0:
320,192,89103,1,0,0:0:0:0:
64,192,89189,1,0,0:0:0:0:
192,192,89275,1,0,0:0:0:0:
320,192,89275,1,0,0:0:0:0:
64,192,89360,1,0,0:0:0:0:
320,192,89446,1,0,0:0:0:0:
448,192,89446,1,0,0:0:0:0:
192,192,89532,1,0,0:0:0:0:
320,192,89617,1,0,0:0:0:0:
448,192,89617,1,0,0:0:0:0:
192,192,89703,1,0,0:0:0:0:
64,192,89789,1,0,0:0:0:0:
448,192,89789,1,0,0:0:0:0:
320,192,89875,1,0,0:0:0:0:
64,192,89960,1,0,0:0:0:0:
192,192,89960,1,0,0:0:0:0:
320,192,90046,1,0,0:0:0:0:
448,192,90046,1,0,0:0:0:0:
192,192,90132,1,0,0:0:0:0:
64,192,90217,1,0,0:0:0:0:
448,192,90217,1,0,0:0:0:0:
192,192,90303,1,0,0:0:0:0:
320,192,90303,1,0,0:0:0:0:
448,192,90389,1,0,0:0:0:0:
64,192,90475,1,0,0:0:0:0:
192,192,90475,1,0,0:0:0:0:
320,192,90560,1,0,0:0:0:0:
64,192,90646,1,0,0:0:0:0:
192,192,90646,1,0,0:0:0:0:
320,192,90732,1,0,0:0:0:0:
64,192,90817,1,0,0:0:0:0:
192,192,90817,1,0,0:0:0:0:
448,192,90817,1,0,0:0:0:0:
320,192,90903,1,0,0:0:0:0:
64,192,90989,1,0,0:0:0:0:
192,192,90989,1,0,0:0:0:0:
320,192,91075,1,0,0:0:0:0:
192,192,91160,1,0,0:0:0:0:
448,192,91160,1,0,0:0:0:0:
64,192,91246,1,0,0:0:0:0:
320,192,91332,1,0,0:0:0:0:
448,192,91332,1,0,0:0:0:0:
64,192,91417,1,0,0:0:0:0:
192,192,91417,1,0,0:0:0:0:
320,192,91503,1,0,0:0:0:0:
64,192,91589,1,0,0:0:0:0:
448,192,91589,1,0,0:0:0:0:
192,192,91675,1,0,0:0:0:0:
320,192,91675,1,0,0:0:0:0:
448,192,91760,1,0,0:0:0:0:
64,192,91846,1,0,0:0:0:0:
192,192,91846,1,0,0:0:0:0:
320,192,91932,1,0,0:0:0:0:
64,192,92017,1,0,0:0:0:0:
192,192,92017,1,0,0:0:0:0:
320,192,92103,1,0,0:0:0:0:
64,192,92189,1,0,0:0:0:0:
448,192,92189,1,0,0:0:0:0:
192,192,92274,1,0,0:0:0:0:
320,192,92360,1,0,0:0:0:0:
192,192,92446,1,0,0:0:0:0:
64,192,92532,1,0,0:0:0:0:
448,192,92532,1,0,0:0:0:0:
320,192,92617,1,0,0:0:0:0:
192,192,92703,1,0,0:0:0:0:
320,192,92789,1,0,0:0:0:0:
64,192,92874,1,0,0:0:0:0:
448,192,92874,1,0,0:0:0:0:
192,192,92960,1,0,0:0:0:0:
320,192,93046,1,0,0:0:0:0:
192,192,93132,1,0,0:0:0:0:
64,192,93217,1,0,0:0:0:0:
448,192,93217,1,0,0:0:0:0:
320,192,93303,1,0,0:0:0:0:
192,192,93389,1,0,0:0:0:0:
320,192,93474,1,0,0:0:0:0:
64,192,93560,1,0,0:0:0:0:
448,192,93560,1,0,0:0:0:0:
192,192,93646,1,0,0:0:0:0:
320,192,93732,1,0,0:0:0:0:
448,192,93732,1,0,0:0:0:0:
192,192,93817,1,0,0:0:0:0:
64,192,93903,1,0,0:0:0:0:
448,192,93903,1,0,0:0:0:0:
320,192,93989,1,0,0:0:0:0:
64,192,94074,1,0,0:0:0:0:
192,192,94074,1,0,0:0:0:0:
320,192,94160,1,0,0:0:0:0:
448,192,94160,1,0,0:0:0:0:
192,192,94246,1,0,0:0:0:0:
64,192,94332,1,0,0:0:0:0:
320,192,94332,1,0,0:0:0:0:
192,192,94417,1,0,0:0:0:0:
448,192,94417,1,0,0:0:0:0:
64,192,94503,1,0,0:0:0:0:
320,192,94589,1,0,0:0:0:0:
448,192,94589,1,0,0:0:0:0:
192,192,94674,1,0,0:0:0:0:
320,192,94760,1,0,0:0:0:0:
448,192,94760,1,0,0:0:0:0:
192,192,94846,1,0,0:0:0:0:
64,192,94932,1,0,0:0:0:0:
448,192,94932,1,0,0:0:0:0:
320,192,95017,1,0,0:0:0:0:
192,192,95103,1,0,0:0:0:0:
64,192,95189,1,0,0:0:0:0:
320,192,95274,1,0,0:0:0:0:
448,192,95274,1,0,0:0:0:0:
192,192,95360,1,0,0:0:0:0:
64,192,95446,1,0,0:0:0:0:
448,192,95532,1,0,0:0:0:0:
192,192,95617,1,0,0:0:0:0:
320,192,95617,1,0,0:0:0:0:
64,192,95703,1,0,0:0:0:0:
448,192,95789,1,0,0:0:0:0:
320,192,95874,1,0,0:0:0:0:
64,192,95960,1,0,0:0:0:0:
192,192,95960,1,0,0:0:0:0:
448,192,96046,1,0,0:0:0:0:
320,192,96131,1,0,0:0:0:0:
192,192,96217,1,0,0:0:0:0:
64,192,96303,1,0,0:0:0:0:
448,192,96303,1,0,0:0:0:0:
320,192,96389,1,0,0:0:0:0:
64,192,96474,1,0,0:0:0:0:
192,192,96474,1,0,0:0:0:0:
320,192,96560,1,0,0:0:0:0:
64,192,96646,1,0,0:0:0:0:
448,192,96646,1,0,0:0:0:0:
192,192,96731,1,0,0:0:0:0:
320,192,96817,1,0,0:0:0:0:
448,192,96817,1,0,0:0:0:0:
64,192,96903,1,0,0:0:0:0:
192,192,96903,1,0,0:0:0:0:
320,192,96989,1,0,0:0:0:0:
64,192,97074,1,0,0:0:0:0:
448,192,97074,1,0,0:0:0:0:
192,192,97160,1,0,0:0:0:0:
320,192,97160,1,0,0:0:0:0:
448,192,97246,1,0,0:0:0:0:
64,192,97331,1,0,0:0:0:0:
192,192,97331,1,0,0:0:0:0:
320,192,97417,1,0,0:0:0:0:
64,192,97503,1,0,0:0:0:0:
192,192,97503,1,0,0:0:0:0:
320,192,97589,1,0,0:0:0:0:
64,192,97674,1,0,0:0:0:0:
448,192,97674,1,0,0:0:0:0:
192,192,97760,1,0,0:0:0:0:
320,192,97846,1,0,0:0:0:0:
192,192,97931,1,0,0:0:0:0:
64,192,98017,1,0,0:0:0:0:
448,192,98017,1,0,0:0:0:0:
320,192,98103,1,0,0:0:0:0:
192,192,98189,1,0,0:0:0:0:
320,192,98274,1,0,0:0:0:0:
64,192,98360,1,0,0:0:0:0:
448,192,98360,1,0,0:0:0:0:
192,192,98446,1,0,0:0:0:0:
320,192,98531,1,0,0:0:0:0:
192,192,98617,1,0,0:0:0:0:
64,192,98703,1,0,0:0:0:0:
448,192,98703,1,0,0:0:0:0:
320,192,98789,1,0,0:0:0:0:
192,192,98874,1,0,0:0:0:0:
320,192,98960,1,0,0:0:0:0:
64,192,99046,1,0,0:0:0:0:
192,192,99046,1,0,0:0:0:0:
448,192,99131,1,0,0:0:0:0:
192,192,99217,1,0,0:0:0:0:
320,192,99217,1,0,0:0:0:0:
448,192,99303,1,0,0:0:0:0:
64,192,99388,1,0,0:0:0:0:
192,192,99388,1,0,0:0:0:0:
320,192,99474,1,0,0:0:0:0:
64,192,99560,1,0,0:0:0:0:
448,192,99560,1,0,0:0:0:0:
192,192,99646,1,0,0:0:0:0:
320,192,99646,1,0,0:0:0:0:
64,192,99731,1,0,0:0:0:0:
320,192,99817,1,0,0:0:0:0:
448,192,99817,1,0,0:0:0:0:
64,192,99903,1,0,0:0:0:0:
192,192,99903,1,0,0:0:0:0:
448,192,99988,1,0,0:0:0:0:
192,192,100074,1,0,0:0:0:0:
320,192,100074,1,0,0:0:0:0:
64,192,100160,1,0,0:0:0:0:
192,192,100246,1,0,0:0:0:0:
320,192,100246,1,0,0:0:0:0:
64,192,100331,1,0,0:0:0:0:
448,0,100417,128,0,101617:1:0:0:0:
192,192,100588,1,0,0:0:0:0:
64,192,100760,1,0,0:0:0:0:
320,192,100760,1,0,0:0:0:0:
192,192,100931,1,0,0:0:0:0:
320,192,101017,1,0,0:0:0:0:
64,192,101103,1,0,0:0:0:0:
320,192,101188,1,0,0:0:0:0:
192,192,101274,1,0,0:0:0:0:
64,192,101446,1,0,0:0:0:0:
320,192,101446,1,0,0:0:0:0:
320,192,101617,1,0,0:0:0:0:
64,192,101788,1,0,0:0:0:0:
448,192,101788,1,0,0:0:0:0:
192,192,101874,1,0,0:0:0:0:
64,192,101960,1,0,0:0:0:0:
192,192,102046,1,0,0:0:0:0:
64,192,102131,1,0,0:0:0:0:
192,192,102217,1,0,0:0:0:0:
320,192,102303,1,0,0:0:0:0:
448,192,102303,1,0,0:0:0:0:
192,192,102388,1,0,0:0:0:0:
320,192,102474,1,0,0:0:0:0:
448,192,102474,1,0,0:0:0:0:
192,192,102560,1,0,0:0:0:0:
64,192,102646,1,0,0:0:0:0:
320,192,102731,1,0,0:0:0:0:
64,192,102817,1,0,0:0:0:0:
320,192,102903,1,0,0:0:0:0:
192,192,102988,1,0,0:0:0:0:
64,192,103074,1,0,0:0:0:0:
320,192,103160,1,0,0:0:0:0:
448,192,103160,1,0,0:0:0:0:
64,192,103245,1,0,0:0:0:0:
448,192,103331,1,0,0:0:0:0:
192,192,103417,1,0,0:0:0:0:
320,192,103417,1,0,0:0:0:0:
448,192,103503,1,0,0:0:0:0:
320,192,103588,1,0,0:0:0:0:
64,192,103674,1,0,0:0:0:0:
192,192,103674,1,0,0:0:0:0:
448,192,103760,1,0,0:0:0:0:
192,192,103845,1,0,0:0:0:0:
320,192,103845,1,0,0:0:0:0:
448,192,103931,1,0,0:0:0:0:
320,192,104017,1,0,0:0:0:0:
448,192,104103,1,0,0:0:0:0:
320,192,104188,1,0,0:0:0:0:
448,192,104274,1,0,0:0:0:0:
64,192,104360,1,0,0:0:0:0:
320,192,104445,1,0,0:0:0:0:
64,192,104531,1,0,0:0:0:0:
448,192,104531,1,0,0:0:0:0:
320,192,104617,1,0,0:0:0:0:
448,192,104703,1,0,0:0:0:0:
320,192,104788,1,0,0:0:0:0:
448,192,104874,1,0,0:0:0:0:
320,192,104960,1,0,0:0:0:0:
64,192,105045,1,0,0:0:0:0:
192,192,105045,1,0,0:0:0:0:
320,192,105131,1,0,0:0:0:0:
64,192,105217,1,0,0:0:0:0:
192,192,105217,1,0,0:0:0:0:
320,192,105303,1,0,0:0:0:0:
448,192,105388,1,0,0:0:0:0:
192,192,105474,1,0,0:0:0:0:
448,192,105560,1,0,0:0:0:0:
192,192,105645,1,0,0:0:0:0:
320,192,105731,1,0,0:0:0:0:
448,192,105817,1,0,0:0:0:0:
64,192,105903,1,0,0:0:0:0:
192,192,105903,1,0,0:0:0:0:
448,192,105988,1,0,0:0:0:0:
64,192,106074,1,0,0:0:0:0:
192,192,106160,1,0,0:0:0:0:
320,192,106160,1,0,0:0:0:0:
448,192,106245,1,0,0:0:0:0:
192,192,106331,1,0,0:0:0:0:
320,192,106417,1,0,0:0:0:0:
448,192,106417,1,0,0:0:0:0:
64,192,106503,1,0,0:0:0:0:
192,192,106588,1,0,0:0:0:0:
448,192,106588,1,0,0:0:0:0:
64,192,106674,1,0,0:0:0:0:
320,192,106760,1,0,0:0:0:0:
192,192,106845,1,0,0:0:0:0:
448,192,106845,1,0,0:0:0:0:
64,192,106931,1,0,0:0:0:0:
192,192,107017,1,0,0:0:0:0:
320,192,107102,1,0,0:0:0:0:
448,192,107102,1,0,0:0:0:0:
192,192,107188,1,0,0:0:0:0:
64,192,107274,1,0,0:0:0:0:
448,192,107274,1,0,0:0:0:0:
320,192,107360,1,0,0:0:0:0:
64,192,107445,1,0,0:0:0:0:
320,192,107531,1,0,0:0:0:0:
64,192,107617,1,0,0:0:0:0:
320,192,107702,1,0,0:0:0:0:
192,192,107788,1,0,0:0:0:0:
448,192,107788,1,0,0:0:0:0:
320,192,107874,1,0,0:0:0:0:
192,192,107960,1,0,0:0:0:0:
448,192,107960,1,0,0:0:0:0:
320,192,108045,1,0,0:0:0:0:
64,192,108131,1,0,0:0:0:0:
192,192,108217,1,0,0:0:0:0:
64,192,108302,1,0,0:0:0:0:
192,192,108388,1,0,0:0:0:0:
448,192,108474,1,0,0:0:0:0:
64,192,108560,1,0,0:0:0:0:
320,192,108645,1,0,0:0:0:0:
448,192,108645,1,0,0:0:0:0:
64,192,108731,1,0,0:0:0:0:
448,192,108817,1,0,0:0:0:0:
192,192,108902,1,0,0:0:0:0:
320,192,108902,1,0,0:0:0:0:
64,192,108988,1,0,0:0:0:0:
320,192,109074,1,0,0:0:0:0:
64,192,109160,1,0,0:0:0:0:
192,192,109160,1,0,0:0:0:0:
448,192,109245,1,0,0:0:0:0:
64,192,109331,1,0,0:0:0:0:
320,192,109331,1,0,0:0:0:0:
448,192,109417,1,0,0:0:0:0:
192,192,109502,1,0,0:0:0:0:
320,192,109588,1,0,0:0:0:0:
64,192,109674,1,0,0:0:0:0:
448,192,109760,1,0,0:0:0:0:
192,192,109845,1,0,0:0:0:0:
320,192,109845,1,0,0:0:0:0:
64,192,109931,1,0,0:0:0:0:
320,192,110017,1,0,0:0:0:0:
448,192,110017,1,0,0:0:0:0:
64,192,110102,1,0,0:0:0:0:
192,192,110188,1,0,0:0:0:0:
448,192,110188,1,0,0:0:0:0:
320,192,110274,1,0,0:0:0:0:
64,192,110359,1,0,0:0:0:0:
320,192,110445,1,0,0:0:0:0:
64,192,110531,1,0,0:0:0:0:
192,192,110531,1,0,0:0:0:0:
448,192,110617,1,0,0:0:0:0:
192,192,110702,1,0,0:0:0:0:
320,192,110702,1,0,0:0:0:0:
448,192,110788,1,0,0:0:0:0:
320,192,110874,1,0,0:0:0:0:
448,192,110959,1,0,0:0:0:0:
320,192,111045,1,0,0:0:0:0:
448,192,111131,1,0,0:0:0:0:
64,192,111217,1,0,0:0:0:0:
192,192,111302,1,0,0:0:0:0:
320,192,111388,1,0,0:0:0:0:
448,192,111388,1,0,0:0:0:0:
192,192,111474,1,0,0:0:0:0:
64,192,111559,1,0,0:0:0:0:
192,192,111645,1,0,0:0:0:0:
320,192,111645,1,0,0:0:0:0:
448,192,111731,1,0,0:0:0:0:
320,192,111817,1,0,0:0:0:0:
64,192,111902,1,0,0:0:0:0:
192,192,111902,1,0,0:0:0:0:
320,192,111988,1,0,0:0:0:0:
64,192,112074,1,0,0:0:0:0:
448,192,112074,1,0,0:0:0:0:
192,192,112159,1,0,0:0:0:0:
320,192,112245,1,0,0:0:0:0:
448,192,112331,1,0,0:0:0:0:
192,192,112417,1,0,0:0:0:0:
320,192,112502,1,0,0:0:0:0:
192,192,112588,1,0,0:0:0:0:
320,192,112674,1,0,0:0:0:0:
192,0,112759,128,0,113102:1:0:0:0:
320,192,113274,1,0,0:0:0:0:
192,192,113445,1,0,0:0:0:0:
192,192,114302,1,0,0:0:0:0:
192,192,114645,1,0,0:0:0:0:
320,192,114817,1,0,0:0:0:0:
64,0,115502,128,0,115674:1:0:0:0:
192,192,115674,1,0,0:0:0:0:
448,0,115845,128,0,116017:1:0:0:0:
320,192,116017,1,0,0:0:0:0:
64,0,116188,128,0,116359:1:0:0:0:
448,0,116531,128,0,116702:1:0:0:0:
64,0,116874,128,0,117045:1:0:0:0:
192,192,117045,1,0,0:0:0:0:
448,0,117216,128,0,117388:1:0:0:0:
320,192,117388,1,0,0:0:0:0:
64,0,117559,128,0,117731:1:0:0:0:
448,0,117902,128,0,118073:1:0:0:0:
64,192,118245,1,0,0:0:0:0:
320,192,118245,1,0,0:0:0:0:
448,192,118245,1,0,0:0:0:0:
192,192,118416,1,0,0:0:0:0:
64,192,118588,1,0,0:0:0:0:
448,192,118588,1,0,0:0:0:0:
64,192,118759,1,0,0:0:0:0:
192,192,118759,1,0,0:0:0:0:
320,192,118930,1,0,0:0:0:0:
64,192,119102,1,0,0:0:0:0:
192,192,119102,1,0,0:0:0:0:
192,192,119273,1,0,0:0:0:0:
320,192,119273,1,0,0:0:0:0:
320,192,119445,1,0,0:0:0:0:
448,192,119445,1,0,0:0:0:0:
64,192,119616,1,0,0:0:0:0:
192,192,119788,1,0,0:0:0:0:
64,192,119959,1,0,0:0:0:0:
320,192,119959,1,0,0:0:0:0:
192,192,120130,1,0,0:0:0:0:
448,192,120130,1,0,0:0:0:0:
448,192,120302,1,0,0:0:0:0:
64,192,120473,1,0,0:0:0:0:
320,192,120473,1,0,0:0:0:0:
64,192,120645,1,0,0:0:0:0:
320,192,120816,1,0,0:0:0:0:
448,192,120816,1,0,0:0:0:0:
192,192,120988,1,0,0:0:0:0:
320,192,121159,1,0,0:0:0:0:
64,192,121330,1,0,0:0:0:0:
192,192,121330,1,0,0:0:0:0:
192,192,121502,1,0,0:0:0:0:
320,192,121502,1,0,0:0:0:0:
64,192,121673,1,0,0:0:0:0:
320,192,121845,1,0,0:0:0:0:
448,192,121845,1,0,0:0:0:0:
64,192,122016,1,0,0:0:0:0:
192,192,122188,1,0,0:0:0:0:
320,192,122188,1,0,0:0:0:0:
448,192,122359,1,0,0:0:0:0:
64,192,122530,1,0,0:0:0:0:
192,192,122530,1,0,0:0:0:0:
448,192,122702,1,0,0:0:0:0:
64,192,122873,1,0,0:0:0:0:
320,192,122873,1,0,0:0:0:0:
320,192,123045,1,0,0:0:0:0:
320,192,123216,1,0,0:0:0:0:
192,192,123388,1,0,0:0:0:0:
448,192,123388,1,0,0:0:0:0:
64,192,123559,1,0,0:0:0:0:
192,192,123559,1,0,0:0:0:0:
320,192,123645,1,0,0:0:0:0:
192,192,123730,1,0,0:0:0:0:
64,192,123902,1,0,0:0:0:0:
320,192,124073,1,0,0:0:0:0:
448,192,124073,1,0,0:0:0:0:
64,192,124245,1,0,0:0:0:0:
448,192,124245,1,0,0:0:0:0:
320,192,124416,1,0,0:0:0:0:
64,192,124588,1,0,0:0:0:0:
192,192,124588,1,0,0:0:0:0:
192,192,124759,1,0,0:0:0:0:
64,192,124930,1,0,0:0:0:0:
448,192,124930,1,0,0:0:0:0:
448,192,125102,1,0,0:0:0:0:
64,192,125273,1,0,0:0:0:0:
192,192,125445,1,0,0:0:0:0:
448,192,125445,1,0,0:0:0:0:
320,192,125616,1,0,0:0:0:0:
448,192,125616,1,0,0:0:0:0:
192,192,125788,1,0,0:0:0:0:
64,192,125959,1,0,0:0:0:0:
448,192,125959,1,0,0:0:0:0:
448,192,126130,1,0,0:0:0:0:
64,192,126302,1,0,0:0:0:0:
192,192,126302,1,0,0:0:0:0:
64,192,126473,1,0,0:0:0:0:
192,192,126645,1,0,0:0:0:0:
320,192,126816,1,0,0:0:0:0:
448,192,126816,1,0,0:0:0:0:
192,192,126988,1,0,0:0:0:0:
320,192,126988,1,0,0:0:0:0:
64,192,127159,1,0,0:0:0:0:
320,192,127330,1,0,0:0:0:0:
448,192,127330,1,0,0:0:0:0:
64,192,127502,1,0,0:0:0:0:
192,192,127673,1,0,0:0:0:0:
448,192,127673,1,0,0:0:0:0:
320,192,127845,1,0,0:0:0:0:
64,192,128016,1,0,0:0:0:0:
192,192,128016,1,0,0:0:0:0:
320,192,128188,1,0,0:0:0:0:
192,192,128359,1,0,0:0:0:0:
448,192,128359,1,0,0:0:0:0:
448,192,128530,1,0,0:0:0:0:
320,192,128702,1,0,0:0:0:0:
192,192,128873,1,0,0:0:0:0:
448,192,128873,1,0,0:0:0:0:
64,192,129045,1,0,0:0:0:0:
192,192,129045,1,0,0:0:0:0:
448,192,129130,1,0,0:0:0:0:
64,192,129216,1,0,0:0:0:0:
448,192,129302,1,0,0:0:0:0:
64,192,129388,1,0,0:0:0:0:
448,192,129473,1,0,0:0:0:0:
192,192,129559,1,0,0:0:0:0:
320,192,129559,1,0,0:0:0:0:
448,192,129645,1,0,0:0:0:0:
64,192,129730,1,0,0:0:0:0:
192,192,129730,1,0,0:0:0:0:
448,192,129816,1,0,0:0:0:0:
64,192,129902,1,0,0:0:0:0:
448,192,129987,1,0,0:0:0:0:
64,192,130073,1,0,0:0:0:0:
448,192,130159,1,0,0:0:0:0:
64,192,130245,1,0,0:0:0:0:
448,192,130330,1,0,0:0:0:0:
64,192,130416,1,0,0:0:0:0:
448,192,130502,1,0,0:0:0:0:
192,192,130587,1,0,0:0:0:0:
320,192,130673,1,0,0:0:0:0:
192,192,130759,1,0,0:0:0:0:
320,192,130845,1,0,0:0:0:0:
192,192,130930,1,0,0:0:0:0:
320,192,131016,1,0,0:0:0:0:
192,192,131102,1,0,0:0:0:0:
320,192,131187,1,0,0:0:0:0:
192,192,131273,1,0,0:0:0:0:
320,192,131359,1,0,0:0:0:0:
192,192,131445,1,0,0:0:0:0:
320,192,131530,1,0,0:0:0:0:
192,192,131616,1,0,0:0:0:0:
320,192,131702,1,0,0:0:0:0:
192,192,131787,1,0,0:0:0:0:
320,192,131873,1,0,0:0:0:0:
64,192,131959,1,0,0:0:0:0:
320,192,132045,1,0,0:0:0:0:
448,192,132130,1,0,0:0:0:0:
64,192,132216,1,0,0:0:0:0:
320,192,132302,1,0,0:0:0:0:
448,192,132388,1,0,0:0:0:0:
64,192,132473,1,0,0:0:0:0:
320,192,132559,1,0,0:0:0:0:
448,192,132645,1,0,0:0:0:0:
64,192,132730,1,0,0:0:0:0:
320,192,132816,1,0,0:0:0:0:
448,192,132902,1,0,0:0:0:0:
64,192,132988,1,0,0:0:0:0:
192,192,133030,1,0,0:0:0:0:
320,192,133073,1,0,0:0:0:0:
448,192,133116,1,0,0:0:0:0:
64,192,133159,1,0,0:0:0:0:
192,192,133202,1,0,0:0:0:0:
320,192,133245,1,0,0:0:0:0:
448,192,133288,1,0,0:0:0:0:
64,192,133330,1,0,0:0:0:0:
192,192,133330,1,0,0:0:0:0:
320,192,133416,1,0,0:0:0:0:
64,192,133502,1,0,0:0:0:0:
192,192,133502,1,0,0:0:0:0:
320,192,133588,1,0,0:0:0:0:
64,192,133673,1,0,0:0:0:0:
192,192,133673,1,0,0:0:0:0:
320,192,133759,1,0,0:0:0:0:
64,192,133845,1,0,0:0:0:0:
192,192,133845,1,0,0:0:0:0:
320,192,133930,1,0,0:0:0:0:
64,192,134016,1,0,0:0:0:0:
448,192,134016,1,0,0:0:0:0:
192,192,134102,1,0,0:0:0:0:
320,192,134188,1,0,0:0:0:0:
448,192,134273,1,0,0:0:0:0:
64,192,134359,1,0,0:0:0:0:
192,192,134359,1,0,0:0:0:0:
448,192,134445,1,0,0:0:0:0:
320,192,134530,1,0,0:0:0:0:
192,192,134616,1,0,0:0:0:0:
64,192,134702,1,0,0:0:0:0:
448,192,134702,1,0,0:0:0:0:
320,192,134788,1,0,0:0:0:0:
64,192,134873,1,0,0:0:0:0:
448,192,134873,1,0,0:0:0:0:
320,192,134959,1,0,0:0:0:0:
64,192,135045,1,0,0:0:0:0:
448,192,135045,1,0,0:0:0:0:
320,192,135131,1,0,0:0:0:0:
64,192,135216,1,0,0:0:0:0:
448,192,135216,1,0,0:0:0:0:
320,192,135302,1,0,0:0:0:0:
64,192,135388,1,0,0:0:0:0:
192,192,135388,1,0,0:0:0:0:
448,192,135473,1,0,0:0:0:0:
192,192,135559,1,0,0:0:0:0:
448,192,135645,1,0,0:0:0:0:
64,192,135731,1,0,0:0:0:0:
320,192,135731,1,0,0:0:0:0:
448,192,135816,1,0,0:0:0:0:
192,192,135902,1,0,0:0:0:0:
64,192,135988,1,0,0:0:0:0:
320,192,136073,1,0,0:0:0:0:
448,192,136073,1,0,0:0:0:0:
192,192,136159,1,0,0:0:0:0:
320,192,136245,1,0,0:0:0:0:
448,192,136245,1,0,0:0:0:0:
192,192,136331,1,0,0:0:0:0:
320,192,136416,1,0,0:0:0:0:
448,192,136416,1,0,0:0:0:0:
192,192,136502,1,0,0:0:0:0:
320,192,136588,1,0,0:0:0:0:
448,192,136588,1,0,0:0:0:0:
192,192,136673,1,0,0:0:0:0:
64,192,136759,1,0,0:0:0:0:
448,192,136759,1,0,0:0:0:0:
320,192,136845,1,0,0:0:0:0:
192,192,136931,1,0,0:0:0:0:
64,192,137016,1,0,0:0:0:0:
320,192,137102,1,0,0:0:0:0:
448,192,137102,1,0,0:0:0:0:
64,192,137188,1,0,0:0:0:0:
320,192,137273,1,0,0:0:0:0:
448,192,137359,1,0,0:0:0:0:
64,192,137445,1,0,0:0:0:0:
192,192,137445,1,0,0:0:0:0:
320,192,137531,1,0,0:0:0:0:
64,192,137616,1,0,0:0:0:0:
192,192,137616,1,0,0:0:0:0:
320,192,137702,1,0,0:0:0:0:
64,192,137788,1,0,0:0:0:0:
192,192,137788,1,0,0:0:0:0:
320,192,137874,1,0,0:0:0:0:
64,192,137959,1,0,0:0:0:0:
192,192,137959,1,0,0:0:0:0:
320,192,138045,1,0,0:0:0:0:
64,192,138131,1,0,0:0:0:0:
448,192,138131,1,0,0:0:0:0:
192,192,138216,1,0,0:0:0:0:
320,192,138302,1,0,0:0:0:0:
448,192,138388,1,0,0:0:0:0:
64,192,138474,1,0,0:0:0:0:
192,192,138474,1,0,0:0:0:0:
320,192,138559,1,0,0:0:0:0:
64,192,138645,1,0,0:0:0:0:
448,192,138645,1,0,0:0:0:0:
192,192,138731,1,0,0:0:0:0:
64,192,138816,1,0,0:0:0:0:
448,192,138816,1,0,0:0:0:0:
192,192,138902,1,0,0:0:0:0:
320,192,138988,1,0,0:0:0:0:
448,192,139074,1,0,0:0:0:0:
64,192,139159,1,0,0:0:0:0:
320,192,139159,1,0,0:0:0:0:
192,192,139245,1,0,0:0:0:0:
64,192,139331,1,0,0:0:0:0:
320,192,139331,1,0,0:0:0:0:
192,192,139416,1,0,0:0:0:0:
320,192,139502,1,0,0:0:0:0:
448,192,139502,1,0,0:0:0:0:
64,192,139588,1,0,0:0:0:0:
192,192,139674,1,0,0:0:0:0:
320,192,139674,1,0,0:0:0:0:
448,192,139759,1,0,0:0:0:0:
64,192,139845,1,0,0:0:0:0:
192,192,139845,1,0,0:0:0:0:
320,192,139931,1,0,0:0:0:0:
64,192,140016,1,0,0:0:0:0:
192,192,140016,1,0,0:0:0:0:
320,192,140102,1,0,0:0:0:0:
64,192,140188,1,0,0:0:0:0:
448,192,140188,1,0,0:0:0:0:
192,192,140274,1,0,0:0:0:0:
320,192,140359,1,0,0:0:0:0:
448,192,140445,1,0,0:0:0:0:
64,192,140531,1,0,0:0:0:0:
192,192,140531,1,0,0:0:0:0:
320,192,140617,1,0,0:0:0:0:
448,192,140702,1,0,0:0:0:0:
64,192,140788,1,0,0:0:0:0:
192,192,140874,1,0,0:0:0:0:
320,192,140874,1,0,0:0:0:0:
448,192,140959,1,0,0:0:0:0:
64,192,141045,1,0,0:0:0:0:
192,192,141131,1,0,0:0:0:0:
320,192,141217,1,0,0:0:0:0:
448,192,141217,1,0,0:0:0:0:
64,192,141302,1,0,0:0:0:0:
192,192,141388,1,0,0:0:0:0:
448,192,141388,1,0,0:0:0:0:
320,192,141474,1,0,0:0:0:0:
192,192,141559,1,0,0:0:0:0:
448,192,141559,1,0,0:0:0:0:
320,192,141645,1,0,0:0:0:0:
64,192,141731,1,0,0:0:0:0:
192,192,141817,1,0,0:0:0:0:
64,192,141902,1,0,0:0:0:0:
448,192,141902,1,0,0:0:0:0:
320,192,141988,1,0,0:0:0:0:
64,192,142074,1,0,0:0:0:0:
448,192,142074,1,0,0:0:0:0:
320,192,142159,1,0,0:0:0:0:
64,192,142245,1,0,0:0:0:0:
192,192,142245,1,0,0:0:0:0:
448,192,142331,1,0,0:0:0:0:
192,192,142417,1,0,0:0:0:0:
320,192,142417,1,0,0:0:0:0:
64,192,142502,1,0,0:0:0:0:
320,192,142588,1,0,0:0:0:0:
448,192,142588,1,0,0:0:0:0:
192,192,142674,1,0,0:0:0:0:
64,192,142759,1,0,0:0:0:0:
448,192,142759,1,0,0:0:0:0:
320,192,142845,1,0,0:0:0:0:
64,192,142931,1,0,0:0:0:0:
192,192,142931,1,0,0:0:0:0:
320,192,143017,1,0,0:0:0:0:
64,192,143102,1,0,0:0:0:0:
448,192,143102,1,0,0:0:0:0:
192,192,143188,1,0,0:0:0:0:
320,192,143274,1,0,0:0:0:0:
448,192,143274,1,0,0:0:0:0:
192,192,143360,1,0,0:0:0:0:
64,192,143445,1,0,0:0:0:0:
448,192,143445,1,0,0:0:0:0:
192,192,143531,1,0,0:0:0:0:
320,192,143617,1,0,0:0:0:0:
448,192,143617,1,0,0:0:0:0:
192,192,143702,1,0,0:0:0:0:
320,192,143788,1,0,0:0:0:0:
192,192,143874,1,0,0:0:0:0:
320,192,143960,1,0,0:0:0:0:
448,192,143960,1,0,0:0:0:0:
192,192,144045,1,0,0:0:0:0:
320,192,144131,1,0,0:0:0:0:
192,192,144217,1,0,0:0:0:0:
64,192,144302,1,0,0:0:0:0:
320,192,144302,1,0,0:0:0:0:
448,192,144302,1,0,0:0:0:0:
192,192,144388,1,0,0:0:0:0:
320,192,144474,1,0,0:0:0:0:
448,192,144474,1,0,0:0:0:0:
192,192,144560,1,0,0:0:0:0:
320,192,144645,1,0,0:0:0:0:
448,192,144645,1,0,0:0:0:0:
192,192,144731,1,0,0:0:0:0:
320,192,144817,1,0,0:0:0:0:
448,192,144817,1,0,0:0:0:0:
192,192,144902,1,0,0:0:0:0:
64,192,144988,1,0,0:0:0:0:
448,192,144988,1,0,0:0:0:0:
320,192,145074,1,0,0:0:0:0:
192,192,145160,1,0,0:0:0:0:
64,192,145245,1,0,0:0:0:0:
320,192,145331,1,0,0:0:0:0:
448,192,145331,1,0,0:0:0:0:
64,192,145417,1,0,0:0:0:0:
192,192,145502,1,0,0:0:0:0:
320,192,145588,1,0,0:0:0:0:
64,192,145674,1,0,0:0:0:0:
448,192,145674,1,0,0:0:0:0:
192,192,145760,1,0,0:0:0:0:
64,192,145845,1,0,0:0:0:0:
448,192,145845,1,0,0:0:0:0:
192,192,145931,1,0,0:0:0:0:
64,192,146017,1,0,0:0:0:0:
448,192,146017,1,0,0:0:0:0:
192,192,146103,1,0,0:0:0:0:
64,192,146188,1,0,0:0:0:0:
448,192,146188,1,0,0:0:0:0:
192,192,146274,1,0,0:0:0:0:
320,192,146360,1,0,0:0:0:0:
448,192,146360,1,0,0:0:0:0:
64,192,146445,1,0,0:0:0:0:
320,192,146531,1,0,0:0:0:0:
64,192,146617,1,0,0:0:0:0:
192,192,146703,1,0,0:0:0:0:
448,192,146703,1,0,0:0:0:0:
64,192,146788,1,0,0:0:0:0:
320,192,146874,1,0,0:0:0:0:
448,192,146960,1,0,0:0:0:0:
64,192,147045,1,0,0:0:0:0:
192,192,147045,1,0,0:0:0:0:
320,192,147131,1,0,0:0:0:0:
64,192,147217,1,0,0:0:0:0:
192,192,147217,1,0,0:0:0:0:
320,192,147303,1,0,0:0:0:0:
64,192,147388,1,0,0:0:0:0:
192,192,147388,1,0,0:0:0:0:
320,192,147474,1,0,0:0:0:0:
64,192,147560,1,0,0:0:0:0:
192,192,147560,1,0,0:0:0:0:
320,192,147645,1,0,0:0:0:0:
64,192,147731,1,0,0:0:0:0:
448,192,147731,1,0,0:0:0:0:
192,192,147817,1,0,0:0:0:0:
320,192,147903,1,0,0:0:0:0:
448,192,147988,1,0,0:0:0:0:
64,192,148074,1,0,0:0:0:0:
192,192,148074,1,0,0:0:0:0:
448,192,148160,1,0,0:0:0:0:
192,192,148245,1,0,0:0:0:0:
64,192,148331,1,0,0:0:0:0:
320,192,148417,1,0,0:0:0:0:
448,192,148417,1,0,0:0:0:0:
192,192,148503,1,0,0:0:0:0:
320,192,148588,1,0,0:0:0:0:
448,192,148588,1,0,0:0:0:0:
192,192,148674,1,0,0:0:0:0:
320,192,148760,1,0,0:0:0:0:
448,192,148760,1,0,0:0:0:0:
192,192,148846,1,0,0:0:0:0:
320,192,148931,1,0,0:0:0:0:
448,192,148931,1,0,0:0:0:0:
192,192,149017,1,0,0:0:0:0:
64,192,149103,1,0,0:0:0:0:
448,192,149103,1,0,0:0:0:0:
320,192,149188,1,0,0:0:0:0:
192,192,149274,1,0,0:0:0:0:
64,192,149360,1,0,0:0:0:0:
320,192,149446,1,0,0:0:0:0:
448,192,149446,1,0,0:0:0:0:
192,192,149531,1,0,0:0:0:0:
64,192,149617,1,0,0:0:0:0:
448,192,149617,1,0,0:0:0:0:
320,192,149703,1,0,0:0:0:0:
64,192,149788,1,0,0:0:0:0:
448,192,149788,1,0,0:0:0:0:
320,192,149874,1,0,0:0:0:0:
192,192,149960,1,0,0:0:0:0:
64,192,150046,1,0,0:0:0:0:
192,192,150131,1,0,0:0:0:0:
448,192,150131,1,0,0:0:0:0:
320,192,150217,1,0,0:0:0:0:
192,192,150303,1,0,0:0:0:0:
448,192,150303,1,0,0:0:0:0:
320,192,150388,1,0,0:0:0:0:
64,192,150474,1,0,0:0:0:0:
192,192,150474,1,0,0:0:0:0:
448,192,150560,1,0,0:0:0:0:
192,192,150646,1,0,0:0:0:0:
320,192,150646,1,0,0:0:0:0:
64,192,150731,1,0,0:0:0:0:
320,192,150817,1,0,0:0:0:0:
448,192,150817,1,0,0:0:0:0:
192,192,150903,1,0,0:0:0:0:
320,192,150988,1,0,0:0:0:0:
448,192,150988,1,0,0:0:0:0:
192,192,151074,1,0,0:0:0:0:
64,192,151160,1,0,0:0:0:0:
448,192,151160,1,0,0:0:0:0:
320,192,151246,1,0,0:0:0:0:
192,192,151331,1,0,0:0:0:0:
64,192,151417,1,0,0:0:0:0:
320,192,151503,1,0,0:0:0:0:
448,192,151503,1,0,0:0:0:0:
192,192,151589,1,0,0:0:0:0:
64,192,151674,1,0,0:0:0:0:
448,192,151760,1,0,0:0:0:0:
192,192,151846,1,0,0:0:0:0:
320,192,151846,1,0,0:0:0:0:
64,192,151931,1,0,0:0:0:0:
448,192,152017,1,0,0:0:0:0:
320,192,152103,1,0,0:0:0:0:
64,192,152189,1,0,0:0:0:0:
192,192,152189,1,0,0:0:0:0:
448,192,152274,1,0,0:0:0:0:
64,192,152360,1,0,0:0:0:0:
320,192,152360,1,0,0:0:0:0:
192,192,152446,1,0,0:0:0:0:
64,192,152531,1,0,0:0:0:0:
320,192,152531,1,0,0:0:0:0:
448,192,152531,1,0,0:0:0:0:
192,192,152617,1,0,0:0:0:0:
448,192,152703,1,0,0:0:0:0:
192,192,152789,1,0,0:0:0:0:
64,192,152874,1,0,0:0:0:0:
448,192,152874,1,0,0:0:0:0:
192,192,152960,1,0,0:0:0:0:
64,192,153046,1,0,0:0:0:0:
320,192,153046,1,0,0:0:0:0:
192,192,153131,1,0,0:0:0:0:
64,192,153217,1,0,0:0:0:0:
320,192,153217,1,0,0:0:0:0:
448,192,153217,1,0,0:0:0:0:
192,192,153303,1,0,0:0:0:0:
64,192,153389,1,0,0:0:0:0:
448,192,153389,1,0,0:0:0:0:
320,192,153474,1,0,0:0:0:0:
64,192,153560,1,0,0:0:0:0:
192,192,153560,1,0,0:0:0:0:
320,192,153646,1,0,0:0:0:0:
64,192,153731,1,0,0:0:0:0:
448,192,153731,1,0,0:0:0:0:
320,192,153817,1,0,0:0:0:0:
64,192,153903,1,0,0:0:0:0:
192,192,153903,1,0,0:0:0:0:
448,192,153903,1,0,0:0:0:0:
320,192,153989,1,0,0:0:0:0:
64,192,154074,1,0,0:0:0:0:
192,192,154074,1,0,0:0:0:0:
448,192,154160,1,0,0:0:0:0:
192,192,154246,1,0,0:0:0:0:
320,192,154246,1,0,0:0:0:0:
64,192,154332,1,0,0:0:0:0:
192,192,154417,1,0,0:0:0:0:
448,192,154417,1,0,0:0:0:0:
320,192,154503,1,0,0:0:0:0:
64,192,154589,1,0,0:0:0:0:
192,192,154589,1,0,0:0:0:0:
448,192,154674,1,0,0:0:0:0:
192,192,154760,1,0,0:0:0:0:
320,192,154760,1,0,0:0:0:0:
64,192,154846,1,0,0:0:0:0:
320,192,154932,1,0,0:0:0:0:
448,192,154932,1,0,0:0:0:0:
64,192,155017,1,0,0:0:0:0:
192,192,155017,1,0,0:0:0:0:
320,192,155103,1,0,0:0:0:0:
448,192,155103,1,0,0:0:0:0:
64,192,155189,1,0,0:0:0:0:
192,192,155189,1,0,0:0:0:0:
64,192,155274,1,0,0:0:0:0:
320,192,155274,1,0,0:0:0:0:
448,192,155274,1,0,0:0:0:0:
192,192,155360,1,0,0:0:0:0:
320,192,155446,1,0,0:0:0:0:
448,192,155446,1,0,0:0:0:0:
192,192,155532,1,0,0:0:0:0:
64,192,155617,1,0,0:0:0:0:
320,192,155617,1,0,0:0:0:0:
448,192,155703,1,0,0:0:0:0:
64,192,155789,1,0,0:0:0:0:
192,192,155789,1,0,0:0:0:0:
320,192,155874,1,0,0:0:0:0:
448,192,155874,1,0,0:0:0:0:
192,192,155960,1,0,0:0:0:0:
64,192,156046,1,0,0:0:0:0:
448,192,156046,1,0,0:0:0:0:
192,192,156132,1,0,0:0:0:0:
320,192,156132,1,0,0:0:0:0:
64,192,156217,1,0,0:0:0:0:
320,192,156303,1,0,0:0:0:0:
448,192,156303,1,0,0:0:0:0:
192,192,156389,1,0,0:0:0:0:
320,192,156474,1,0,0:0:0:0:
448,192,156474,1,0,0:0:0:0:
192,192,156560,1,0,0:0:0:0:
64,192,156646,1,0,0:0:0:0:
448,192,156646,1,0,0:0:0:0:
320,192,156732,1,0,0:0:0:0:
192,192,156817,1,0,0:0:0:0:
320,192,156903,1,0,0:0:0:0:
64,192,156989,1,0,0:0:0:0:
448,192,156989,1,0,0:0:0:0:
192,192,157075,1,0,0:0:0:0:
320,192,157160,1,0,0:0:0:0:
192,192,157246,1,0,0:0:0:0:
64,192,157332,1,0,0:0:0:0:
448,192,157332,1,0,0:0:0:0:
320,192,157417,1,0,0:0:0:0:
192,192,157503,1,0,0:0:0:0:
320,192,157589,1,0,0:0:0:0:
64,192,157675,1,0,0:0:0:0:
448,192,157675,1,0,0:0:0:0:
320,192,157760,1,0,0:0:0:0:
64,192,157846,1,0,0:0:0:0:
448,192,157846,1,0,0:0:0:0:
320,192,157932,1,0,0:0:0:0:
64,192,158017,1,0,0:0:0:0:
192,192,158017,1,0,0:0:0:0:
448,192,158103,1,0,0:0:0:0:
64,192,158189,1,0,0:0:0:0:
192,192,158189,1,0,0:0:0:0:
448,192,158275,1,0,0:0:0:0:
64,192,158360,1,0,0:0:0:0:
192,192,158360,1,0,0:0:0:0:
448,192,158446,1,0,0:0:0:0:
64,192,158532,1,0,0:0:0:0:
192,192,158532,1,0,0:0:0:0:
320,192,158617,1,0,0:0:0:0:
448,192,158617,1,0,0:0:0:0:
64,192,158703,1,0,0:0:0:0:
192,192,158703,1,0,0:0:0:0:
320,192,158789,1,0,0:0:0:0:
448,192,158789,1,0,0:0:0:0:
64,192,158875,1,0,0:0:0:0:
192,192,158875,1,0,0:0:0:0:
320,192,158960,1,0,0:0:0:0:
64,192,159046,1,0,0:0:0:0:
192,192,159046,1,0,0:0:0:0:
320,192,159132,1,0,0:0:0:0:
192,192,159217,1,0,0:0:0:0:
448,192,159217,1,0,0:0:0:0:
64,192,159303,1,0,0:0:0:0:
320,192,159303,1,0,0:0:0:0:
192,192,159389,1,0,0:0:0:0:
448,192,159389,1,0,0:0:0:0:
64,192,159475,1,0,0:0:0:0:
192,192,159560,1,0,0:0:0:0:
320,192,159646,1,0,0:0:0:0:
64,192,159732,1,0,0:0:0:0:
448,192,159732,1,0,0:0:0:0:
192,192,159818,1,0,0:0:0:0:
320,192,159903,1,0,0:0:0:0:
192,192,159989,1,0,0:0:0:0:
320,192,160075,1,0,0:0:0:0:
448,192,160075,1,0,0:0:0:0:
64,192,160160,1,0,0:0:0:0:
192,192,160246,1,0,0:0:0:0:
320,192,160332,1,0,0:0:0:0:
192,192,160418,1,0,0:0:0:0:
448,192,160418,1,0,0:0:0:0:
64,192,160503,1,0,0:0:0:0:
320,192,160589,1,0,0:0:0:0:
192,192,160675,1,0,0:0:0:0:
64,192,160760,1,0,0:0:0:0:
448,192,160760,1,0,0:0:0:0:
320,192,160846,1,0,0:0:0:0:
64,192,160932,1,0,0:0:0:0:
448,192,160932,1,0,0:0:0:0:
192,192,161018,1,0,0:0:0:0:
320,192,161103,1,0,0:0:0:0:
448,192,161103,1,0,0:0:0:0:
192,192,161189,1,0,0:0:0:0:
64,192,161275,1,0,0:0:0:0:
320,192,161275,1,0,0:0:0:0:
192,192,161360,1,0,0:0:0:0:
448,192,161360,1,0,0:0:0:0:
320,192,161446,1,0,0:0:0:0:
64,192,161532,1,0,0:0:0:0:
192,192,161532,1,0,0:0:0:0:
320,192,161618,1,0,0:0:0:0:
448,192,161618,1,0,0:0:0:0:
64,192,161703,1,0,0:0:0:0:
320,192,161789,1,0,0:0:0:0:
448,192,161789,1,0,0:0:0:0:
192,192,161875,1,0,0:0:0:0:
320,192,161960,1,0,0:0:0:0:
448,192,161960,1,0,0:0:0:0:
192,192,162046,1,0,0:0:0:0:
64,192,162132,1,0,0:0:0:0:
448,192,162132,1,0,0:0:0:0:
320,192,162218,1,0,0:0:0:0:
192,192,162303,1,0,0:0:0:0:
320,192,162389,1,0,0:0:0:0:
64,192,162475,1,0,0:0:0:0:
448,192,162475,1,0,0:0:0:0:
192,192,162561,1,0,0:0:0:0:
320,192,162646,1,0,0:0:0:0:
192,192,162732,1,0,0:0:0:0:
64,192,162818,1,0,0:0:0:0:
448,192,162818,1,0,0:0:0:0:
320,192,162903,1,0,0:0:0:0:
192,192,162989,1,0,0:0:0:0:
320,192,163075,1,0,0:0:0:0:
64,192,163161,1,0,0:0:0:0:
448,192,163161,1,0,0:0:0:0:
192,192,163246,1,0,0:0:0:0:
320,192,163332,1,0,0:0:0:0:
64,192,163418,1,0,0:0:0:0:
448,0,163503,128,0,164703:1:0:0:0:
192,192,163675,1,0,0:0:0:0:
64,192,163846,1,0,0:0:0:0:
192,192,164018,1,0,0:0:0:0:
320,192,164103,1,0,0:0:0:0:
320,192,164275,1,0,0:0:0:0:
192,192,164361,1,0,0:0:0:0:
64,192,164532,1,0,0:0:0:0:
320,192,164703,1,0,0:0:0:0:
448,192,164875,1,0,0:0:0:0:
192,192,165046,1,0,0:0:0:0:
64,192,165218,1,0,0:0:0:0:
192,192,165389,1,0,0:0:0:0:
320,192,165475,1,0,0:0:0:0:
320,192,165646,1,0,0:0:0:0:
192,192,165732,1,0,0:0:0:0:
64,192,165904,1,0,0:0:0:0:
320,192,166075,1,0,0:0:0:0:
64,192,166246,1,0,0:0:0:0:
448,0,166246,128,0,168304:1:0:0:0:
