osu file format v14

[General]
AudioFilename: !.MP3
AudioLeadIn: 0
PreviewTime: -1
Countdown: 1
SampleSet: None
StackLeniency: 0.7
Mode: 0
LetterboxInBreaks: 1
WidescreenStoryboard: 0

[Editor]
Bookmarks: 1650
DistanceSpacing: 0.8
BeatDivisor: 2
GridSize: 4
TimelineZoom: 7.199998

[Metadata]
Title:Nanahira Collection
TitleUnicode:Nanahira Collection
Artist:Various
ArtistUnicode:Various
Creator:geta aditia
Version:Versus!
Source:
Tags:
BeatmapID:999948
BeatmapSetID:467340

[Difficulty]
HPDrainRate:6
CircleSize:5
OverallDifficulty:6
ApproachRate:10
SliderMultiplier:1.4
SliderTickRate:1

[Events]
//Background and Video events
//Break Periods
//Storyboard Layer 0 (Background)
//Storyboard Layer 1 (Fail)
//Storyboard Layer 2 (Pass)
//Storyboard Layer 3 (Foreground)
//Storyboard Sound Samples

[TimingPoints]
2400,300,4,2,0,100,1,0
12000,300,4,2,0,100,1,8
42000,-133.333333333333,4,2,0,100,0,0
43200,-100,4,2,0,100,0,0
50400,-200,4,2,0,100,0,0
50700,-100,4,2,0,100,0,0
51000,-200,4,2,0,100,0,0
51300,-100,4,2,0,100,0,0
51600,-200,4,2,0,100,0,0
51900,-100,4,2,0,100,0,0
52200,-200,4,2,0,100,0,0
52350,-66.6666666666667,4,2,0,100,0,0
52800,-100,4,2,0,100,0,0
67200,-133.333333333333,4,2,0,100,0,0
67500,-100,4,2,0,100,0,0
67800,-133.333333333333,4,2,0,100,0,0
68100,-100,4,2,0,100,0,0
68400,-133.333333333333,4,2,0,100,0,0
68700,-100,4,2,0,100,0,0
69000,-133.333333333333,4,2,0,100,0,0
69300,-100,4,2,0,100,0,0
69600,-133.333333333333,4,2,0,100,0,0
69900,-100,4,2,0,100,0,0
70200,-133.333333333333,4,2,0,100,0,0
70500,-100,4,2,0,100,0,0
70800,-133.333333333333,4,2,0,100,0,0
70950,-100,4,2,0,100,0,0
71100,-200,4,2,0,100,0,0
71250,-133.333333333333,4,2,0,100,0,0
71400,-100,4,2,0,100,0,0
71550,-80,4,2,0,100,0,0
71700,-66.6666666666667,4,2,0,100,0,0
71850,-80,4,2,0,100,0,0
72000,-100,4,2,0,100,0,0
76650,-100,4,2,0,100,0,1
90900,-200,4,2,0,100,0,1
91050,-66.6666666666667,4,2,0,100,0,1
91200,-200,4,2,0,100,0,1
91350,-66.6666666666667,4,2,0,100,0,1
91500,-100,4,2,0,100,0,1
98400,-133.333333333333,4,2,0,100,0,1
103200,-100,4,2,0,100,0,0

[HitObjects]
116,84,9600,5,0,0:0:0:0:
112,224,9750,1,0,0:0:0:0:
397,84,10050,1,0,0:0:0:0:
400,224,10200,1,0,0:0:0:0:
116,84,10500,1,0,0:0:0:0:
112,224,10650,1,0,0:0:0:0:
224,224,11101,5,0,0:0:0:0:
340,120,11200,1,0,0:0:0:0:
196,64,11300,1,0,0:0:0:0:
96,160,11400,5,0,0:0:0:0:
152,304,11500,1,0,0:0:0:0:
256,188,11600,1,0,0:0:0:0:
256,44,11700,1,0,0:0:0:0:
256,340,12000,5,0,0:0:0:0:
304,340,12075,1,0,0:0:0:0:
356,344,12150,1,0,0:0:0:0:
408,344,12225,1,0,0:0:0:0:
452,344,12300,2,0,L|456:280,1,35
448,148,12450,5,0,0:0:0:0:
400,128,12525,1,0,0:0:0:0:
348,120,12600,1,0,0:0:0:0:
296,128,12675,1,0,0:0:0:0:
248,140,12750,1,0,0:0:0:0:
200,156,12825,1,0,0:0:0:0:
152,180,12900,2,0,L|152:244,1,35
144,344,13050,5,0,0:0:0:0:
192,320,13125,1,0,0:0:0:0:
240,296,13200,1,0,0:0:0:0:
284,272,13275,1,0,0:0:0:0:
332,244,13350,1,0,0:0:0:0:
380,216,13425,1,0,0:0:0:0:
424,184,13500,2,0,L|440:120,1,35
420,40,13650,5,0,0:0:0:0:
360,40,13725,1,0,0:0:0:0:
304,40,13800,1,0,0:0:0:0:
256,40,13875,1,0,0:0:0:0:
204,40,13950,1,0,0:0:0:0:
152,44,14025,1,0,0:0:0:0:
104,44,14100,2,0,L|104:96,1,35
52,184,14250,5,0,0:0:0:0:
88,212,14325,1,0,0:0:0:0:
128,188,14400,1,0,0:0:0:0:
168,216,14475,1,0,0:0:0:0:
208,188,14550,1,0,0:0:0:0:
244,220,14625,1,0,0:0:0:0:
288,184,14700,2,0,L|328:224,1,35
440,336,14850,5,0,0:0:0:0:
392,312,14925,1,0,0:0:0:0:
340,296,15000,1,0,0:0:0:0:
288,284,15075,1,0,0:0:0:0:
240,288,15150,1,0,0:0:0:0:
192,296,15225,1,0,0:0:0:0:
152,328,15300,2,0,L|112:356,1,35
140,308,15450,5,0,0:0:0:0:
160,264,15525,1,0,0:0:0:0:
168,208,15600,1,0,0:0:0:0:
164,164,15675,1,0,0:0:0:0:
128,128,15750,1,0,0:0:0:0:
76,120,15825,1,0,0:0:0:0:
32,160,15900,2,0,L|36:220,1,35
44,336,16050,5,0,0:0:0:0:
88,320,16125,1,0,0:0:0:0:
120,288,16200,2,0,L|160:240,1,35
216,176,16350,1,0,0:0:0:0:
264,176,16425,1,0,0:0:0:0:
312,176,16500,1,0,0:0:0:0:
360,176,16575,1,0,0:0:0:0:
408,188,16650,6,0,L|448:224,1,35
320,280,16800,2,0,L|328:340,1,35
192,264,16950,2,0,L|136:280,1,35
64,216,17100,6,0,L|64:164,1,35
88,136,17250,1,0,0:0:0:0:
128,96,17325,1,0,0:0:0:0:
176,72,17400,1,0,0:0:0:0:
224,68,17475,2,0,L|284:64,1,35
416,120,17625,2,0,L|356:120,1,35
256,120,17775,5,0,0:0:0:0:
208,128,17850,1,0,0:0:0:0:
168,156,17925,1,0,0:0:0:0:
136,184,18000,1,0,0:0:0:0:
112,220,18075,1,0,0:0:0:0:
104,264,18150,1,0,0:0:0:0:
104,304,18225,1,0,0:0:0:0:
148,328,18300,2,0,L|204:332,1,35
360,320,18450,5,0,0:0:0:0:
364,268,18525,1,0,0:0:0:0:
384,224,18600,2,0,L|380:172,3,35
356,152,18900,2,0,L|352:100,3,35
304,100,19200,2,0,L|300:48,3,35
256,72,19500,2,0,L|224:40,3,35
196,80,19800,2,0,L|152:72,3,35
136,112,20100,2,0,L|120:164,1,35
192,92,20400,5,0,0:0:0:0:
260,184,20550,1,0,0:0:0:0:
320,88,20700,1,0,0:0:0:0:
260,212,20850,1,0,0:0:0:0:
188,88,21000,1,0,0:0:0:0:
260,232,21150,1,0,0:0:0:0:
260,260,21225,1,0,0:0:0:0:
260,288,21300,1,0,0:0:0:0:
260,316,21375,1,0,0:0:0:0:
260,344,21450,1,0,0:0:0:0:
328,336,21525,6,0,L|392:340,1,35
440,228,21675,2,0,L|440:160,1,35
316,252,21825,2,0,L|320:296,1,35
432,136,21975,2,0,L|376:136,1,35
292,304,22125,6,0,L|352:282,1,35
352,160,22275,2,0,L|325:97,1,35
248,231,22425,2,0,L|268:269,1,35
309,79,22575,2,0,L|257:100,1,35
252,276,22725,6,0,L|300:233,1,35
254,120,22875,2,0,L|205:71,1,35
184,225,23025,2,0,L|217:253,1,35
184,61,23175,2,0,L|144:100,1,35
203,278,23325,6,0,L|230:220,1,35
144,134,23475,2,0,L|80:108,1,35
121,258,23625,2,0,L|163:270,1,35
56,107,23775,2,0,L|35:158,1,35
128,248,23925,2,0,L|115:280,1,35
42,139,24075,6,0,L|56:107,1,35
154,267,24225,2,0,L|121:258,1,35
111,120,24375,2,0,L|144:134,1,35
217,246,24525,2,0,L|203:278,1,35
158,85,24675,6,0,L|184:61,1,35
210,247,24825,2,0,L|184:225,1,35
229,95,24975,2,0,L|254:120,1,35
278,252,25125,2,0,L|252:276,1,35
276,92,25275,6,0,L|309:79,1,35
264,261,25425,2,0,L|248:231,1,35
338,127,25575,2,0,L|352:160,1,35
324,291,25725,2,0,L|292:304,1,35
397,136,25876,6,0,L|432:136,1,35
319,286,26026,2,0,L|316:252,1,35
440,193,26175,2,0,L|440:228,1,35
362,338,26400,2,0,L|336:336,2,17.5
224,344,26550,2,0,L|192:340,2,17.5
328,336,26700,6,0,L|392:340,1,35
440,228,26850,2,0,L|440:160,1,35
316,252,27000,2,0,L|320:296,1,35
432,136,27150,2,0,L|376:136,1,35
292,304,27300,6,0,L|352:282,1,35
352,160,27450,2,0,L|325:97,1,35
248,231,27600,2,0,L|268:269,1,35
309,79,27750,2,0,L|257:100,1,35
252,276,27900,6,0,L|300:233,1,35
254,120,28050,2,0,L|205:71,1,35
184,225,28200,2,0,L|217:253,1,35
184,61,28350,2,0,L|144:100,1,35
203,278,28500,2,0,L|230:220,1,35
144,134,28650,2,0,L|80:108,1,35
64,56,28800,5,0,0:0:0:0:
64,112,28875,1,0,0:0:0:0:
64,168,28950,1,0,0:0:0:0:
64,228,29025,1,0,0:0:0:0:
64,288,29100,1,0,0:0:0:0:
184,56,29250,5,0,0:0:0:0:
184,104,29325,1,0,0:0:0:0:
184,148,29400,1,0,0:0:0:0:
184,192,29475,1,0,0:0:0:0:
184,232,29550,1,0,0:0:0:0:
300,56,29700,5,0,0:0:0:0:
300,88,29775,1,0,0:0:0:0:
300,116,29850,1,0,0:0:0:0:
300,148,29925,1,0,0:0:0:0:
300,172,30000,1,0,0:0:0:0:
408,56,30150,5,0,0:0:0:0:
408,72,30225,1,0,0:0:0:0:
408,88,30300,1,0,0:0:0:0:
408,108,30375,1,0,0:0:0:0:
408,120,30450,1,0,0:0:0:0:
256,60,30600,5,0,0:0:0:0:
256,72,30675,1,0,0:0:0:0:
256,80,30750,1,0,0:0:0:0:
256,92,30825,1,0,0:0:0:0:
256,96,30900,1,0,0:0:0:0:
276,324,31050,6,0,B|408:256|408:256|468:164|468:164|396:52|396:52|264:104|264:104|252:220,1,630
240,356,32550,5,0,0:0:0:0:
172,296,32700,1,0,0:0:0:0:
272,256,32850,1,0,0:0:0:0:
168,352,33000,1,0,0:0:0:0:
112,192,33150,1,0,0:0:0:0:
336,104,33300,1,0,0:0:0:0:
292,336,33450,1,0,0:0:0:0:
88,148,33600,5,0,0:0:0:0:
140,256,33750,1,0,0:0:0:0:
264,196,33900,1,0,0:0:0:0:
208,84,34050,1,0,0:0:0:0:
86,188,34200,5,0,0:0:0:0:
180,262,34350,1,0,0:0:0:0:
265,154,34500,1,0,0:0:0:0:
166,78,34650,1,0,0:0:0:0:
104,226,34800,5,0,0:0:0:0:
221,250,34950,1,0,0:0:0:0:
248,114,35100,1,0,0:0:0:0:
125,92,35250,1,0,0:0:0:0:
135,252,35400,5,0,0:0:0:0:
251,221,35550,1,0,0:0:0:0:
216,88,35700,1,0,0:0:0:0:
95,122,35850,1,0,0:0:0:0:
172,232,36000,5,0,0:0:0:0:
224,340,36150,1,0,0:0:0:0:
348,280,36300,1,0,0:0:0:0:
292,168,36450,1,0,0:0:0:0:
170,272,36600,5,0,0:0:0:0:
264,346,36750,1,0,0:0:0:0:
349,238,36900,1,0,0:0:0:0:
250,162,37050,1,0,0:0:0:0:
188,310,37200,5,0,0:0:0:0:
305,334,37350,1,0,0:0:0:0:
332,198,37500,1,0,0:0:0:0:
209,176,37650,1,0,0:0:0:0:
219,336,37800,5,0,0:0:0:0:
335,305,37950,1,0,0:0:0:0:
300,172,38100,1,0,0:0:0:0:
179,206,38250,1,0,0:0:0:0:
264,96,38400,5,0,0:0:0:0:
384,32,38550,1,0,0:0:0:0:
440,144,38700,1,0,0:0:0:0:
316,204,38850,1,0,0:0:0:0:
262,136,39000,5,0,0:0:0:0:
342,26,39150,1,0,0:0:0:0:
441,102,39300,1,0,0:0:0:0:
356,210,39450,1,0,0:0:0:0:
280,174,39600,5,0,0:0:0:0:
301,40,39750,1,0,0:0:0:0:
424,62,39900,1,0,0:0:0:0:
397,198,40050,1,0,0:0:0:0:
311,200,40200,5,0,0:0:0:0:
271,70,40350,1,0,0:0:0:0:
392,36,40500,1,0,0:0:0:0:
427,169,40650,1,0,0:0:0:0:
344,224,40800,5,0,0:0:0:0:
220,284,40950,1,0,0:0:0:0:
168,176,41100,1,0,0:0:0:0:
288,112,41250,1,0,0:0:0:0:
345,182,41400,5,0,0:0:0:0:
260,290,41550,1,0,0:0:0:0:
166,216,41700,1,0,0:0:0:0:
246,106,41850,1,0,0:0:0:0:
184,254,42000,1,0,0:0:0:0:
240,208,42150,2,0,L|368:96,2,157.500006008148
64,188,43200,5,0,0:0:0:0:
192,112,43350,1,0,0:0:0:0:
64,112,43500,1,0,0:0:0:0:
192,188,43650,1,0,0:0:0:0:
112,188,43800,1,0,0:0:0:0:
240,112,43950,1,0,0:0:0:0:
112,112,44100,1,0,0:0:0:0:
240,188,44250,1,0,0:0:0:0:
156,188,44400,5,0,0:0:0:0:
284,112,44550,1,0,0:0:0:0:
156,112,44700,1,0,0:0:0:0:
284,188,44850,1,0,0:0:0:0:
204,188,45000,1,0,0:0:0:0:
332,112,45150,1,0,0:0:0:0:
204,112,45300,1,0,0:0:0:0:
332,188,45450,1,0,0:0:0:0:
436,252,45600,5,0,0:0:0:0:
308,328,45750,1,0,0:0:0:0:
436,328,45900,1,0,0:0:0:0:
308,252,46050,1,0,0:0:0:0:
388,252,46200,1,0,0:0:0:0:
260,328,46350,1,0,0:0:0:0:
388,328,46500,1,0,0:0:0:0:
260,252,46650,1,0,0:0:0:0:
344,252,46800,5,0,0:0:0:0:
216,328,46950,1,0,0:0:0:0:
344,328,47100,1,0,0:0:0:0:
216,252,47250,1,0,0:0:0:0:
296,252,47400,1,0,0:0:0:0:
168,328,47550,1,0,0:0:0:0:
296,328,47700,1,0,0:0:0:0:
168,252,47850,1,0,0:0:0:0:
188,152,48000,5,0,0:0:0:0:
316,244,48150,1,0,0:0:0:0:
188,240,48300,1,0,0:0:0:0:
320,152,48450,1,0,0:0:0:0:
143,118,48600,5,0,0:0:0:0:
355,271,48750,1,0,0:0:0:0:
143,264,48900,1,0,0:0:0:0:
362,118,49050,1,0,0:0:0:0:
109,103,49200,5,0,0:0:0:0:
381,298,49350,1,0,0:0:0:0:
109,290,49500,1,0,0:0:0:0:
389,103,49650,1,0,0:0:0:0:
68,79,49800,5,0,0:0:0:0:
416,328,49950,1,0,0:0:0:0:
68,319,50100,1,0,0:0:0:0:
427,79,50250,1,0,0:0:0:0:
260,192,50400,6,0,L|256:160,2,17.5
380,156,50700,2,0,L|380:248,1,70
260,192,51000,2,0,L|256:160,2,17.5
132,156,51300,2,0,L|132:248,1,70
260,192,51600,2,0,L|256:160,2,17.5
424,160,51900,2,0,L|424:252,1,70
260,192,52200,2,0,L|256:160,1,17.5
80,156,52350,2,0,L|80:248,1,70
256,192,52800,12,0,53850,0:0:0:0:
256,356,54150,6,0,B|200:232|316:144,2,210
92,328,55200,5,0,0:0:0:0:
92,168,55350,1,0,0:0:0:0:
180,176,55500,1,0,0:0:0:0:
280,288,55650,1,0,0:0:0:0:
356,288,55800,1,0,0:0:0:0:
440,160,55950,1,0,0:0:0:0:
384,112,56100,1,0,0:0:0:0:
268,192,56250,1,0,0:0:0:0:
255,290,56400,5,0,0:0:0:0:
157,191,56550,1,0,0:0:0:0:
256,93,56700,1,0,0:0:0:0:
354,192,56850,1,0,0:0:0:0:
254,346,57000,5,0,0:0:0:0:
100,190,57150,1,0,0:0:0:0:
410,192,57300,1,0,0:0:0:0:
256,36,57450,1,0,0:0:0:0:
48,52,57600,5,0,0:0:0:0:
48,260,57750,1,0,0:0:0:0:
144,72,57900,1,0,0:0:0:0:
144,220,58050,1,0,0:0:0:0:
236,92,58200,1,0,0:0:0:0:
236,192,58350,1,0,0:0:0:0:
320,120,58500,1,0,0:0:0:0:
320,160,58650,1,0,0:0:0:0:
380,168,58800,5,0,0:0:0:0:
448,260,58950,1,0,0:0:0:0:
292,188,59100,1,0,0:0:0:0:
404,332,59250,1,0,0:0:0:0:
220,200,59400,1,0,0:0:0:0:
92,88,59550,1,0,0:0:0:0:
260,132,59700,1,0,0:0:0:0:
244,44,59850,1,0,0:0:0:0:
256,192,60000,6,0,L|256:256,1,35
328,328,60150,2,0,P|404:284|408:228,2,140
192,208,60900,1,0,0:0:0:0:
136,324,61050,1,0,0:0:0:0:
32,152,61200,1,0,0:0:0:0:
216,76,61350,2,0,P|288:28|336:68,2,140
156,156,62025,6,0,L|208:152,1,35
336,144,62175,2,0,L|276:164,1,35
376,96,62400,5,0,0:0:0:0:
440,208,62550,1,0,0:0:0:0:
372,316,62700,1,0,0:0:0:0:
316,212,62850,1,0,0:0:0:0:
321,58,63000,5,0,0:0:0:0:
423,136,63150,1,0,0:0:0:0:
403,262,63300,1,0,0:0:0:0:
311,188,63450,1,0,0:0:0:0:
286,41,63600,5,0,0:0:0:0:
407,85,63750,1,0,0:0:0:0:
424,212,63900,1,0,0:0:0:0:
314,168,64050,1,0,0:0:0:0:
219,47,64200,5,0,0:0:0:0:
347,41,64350,1,0,0:0:0:0:
413,151,64500,1,0,0:0:0:0:
295,153,64650,1,0,0:0:0:0:
224,208,64800,5,0,0:0:0:0:
108,233,64950,1,0,0:0:0:0:
193,328,65100,1,0,0:0:0:0:
318,297,65250,1,0,0:0:0:0:
176,207,65400,5,0,0:0:0:0:
73,284,65550,1,0,0:0:0:0:
195,329,65700,1,0,0:0:0:0:
292,261,65850,1,0,0:0:0:0:
256,240,66000,5,0,0:0:0:0:
256,160,66150,1,0,0:0:0:0:
225,268,66300,1,0,0:0:0:0:
284,140,66450,1,0,0:0:0:0:
169,274,66600,1,0,0:0:0:0:
332,136,66750,1,0,0:0:0:0:
96,249,66900,1,0,0:0:0:0:
401,154,67050,1,0,0:0:0:0:
132,340,67200,6,0,L|96:244,1,52.5000020027161
212,156,67500,2,0,L|288:228,1,70
240,276,67800,2,0,L|188:220,1,52.5000020027161
316,144,68100,2,0,L|380:200,1,70
416,228,68400,2,0,L|416:292,1,52.5000020027161
156,284,68700,2,0,L|208:184,1,70
208,148,69000,2,0,L|144:144,1,52.5000020027161
276,328,69300,2,0,L|392:368,1,70
364,292,69600,6,0,L|356:232,1,52.5000020027161
204,228,69900,2,0,L|200:140,1,70
144,312,70200,2,0,L|144:256,1,52.5000020027161
392,316,70500,2,0,L|388:228,1,70
112,136,70800,2,0,L|108:208,1,52.5000020027161
260,64,71100,2,0,L|232:24,2,35
280,248,71550,2,0,L|368:172,1,87.5
224,104,71850,1,0,0:0:0:0:
108,152,72000,5,0,0:0:0:0:
344,112,72300,1,0,0:0:0:0:
376,132,72375,1,0,0:0:0:0:
392,168,72450,1,0,0:0:0:0:
396,212,72525,1,0,0:0:0:0:
384,256,72600,1,0,0:0:0:0:
364,292,72675,1,0,0:0:0:0:
328,328,72750,5,0,0:0:0:0:
404,152,73050,5,0,0:0:0:0:
168,112,73350,1,0,0:0:0:0:
136,132,73425,1,0,0:0:0:0:
120,168,73500,1,0,0:0:0:0:
116,212,73575,1,0,0:0:0:0:
128,256,73650,1,0,0:0:0:0:
148,292,73725,1,0,0:0:0:0:
184,328,73800,1,0,0:0:0:0:
224,344,73875,5,0,0:0:0:0:
296,44,74250,1,0,0:0:0:0:
336,280,74550,1,0,0:0:0:0:
316,312,74625,1,0,0:0:0:0:
280,328,74700,1,0,0:0:0:0:
236,332,74775,1,0,0:0:0:0:
192,320,74850,1,0,0:0:0:0:
156,300,74925,1,0,0:0:0:0:
120,264,75000,1,0,0:0:0:0:
256,192,75150,5,0,0:0:0:0:
180,104,75450,2,0,L|272:56,1,70
256,192,75750,1,0,0:0:0:0:
370,170,75900,2,0,L|365:273,1,70
256,192,76200,1,0,0:0:0:0:
217,301,76350,2,0,L|130:246,1,70
108,72,76650,5,0,0:0:0:0:
32,192,76800,1,0,0:0:0:0:
132,272,76950,1,0,0:0:0:0:
272,324,77100,1,0,0:0:0:0:
400,316,77250,1,0,0:0:0:0:
256,184,77400,1,0,0:0:0:0:
392,184,77550,1,0,0:0:0:0:
392,44,77700,1,0,0:0:0:0:
260,180,77850,1,0,0:0:0:0:
288,48,78000,6,0,L|216:44,1,70
64,176,78300,2,0,L|68:288,1,70
356,320,78600,2,0,L|440:240,1,70
368,156,78900,2,0,L|448:88,2,70
192,252,79350,2,0,L|104:284,2,70
236,116,79800,2,0,L|180:52,2,70
360,308,80250,1,0,0:0:0:0:
416,168,80400,6,0,L|448:76,1,70
244,164,80700,2,0,L|200:80,1,70
168,288,81000,2,0,L|72:272,1,70
72,136,81300,1,0,0:0:0:0:
208,56,81450,1,0,0:0:0:0:
264,196,81600,5,0,0:0:0:0:
260,328,81750,1,0,0:0:0:0:
300,316,81825,1,0,0:0:0:0:
340,304,81900,1,0,0:0:0:0:
392,192,82050,1,0,0:0:0:0:
392,144,82125,1,0,0:0:0:0:
384,96,82200,1,0,0:0:0:0:
152,92,82350,1,0,0:0:0:0:
120,120,82425,1,0,0:0:0:0:
96,160,82500,1,0,0:0:0:0:
168,304,82650,6,0,L|128:320,2,35
192,172,82950,1,0,0:0:0:0:
192,172,83025,1,0,0:0:0:0:
192,172,83100,1,0,0:0:0:0:
300,128,83250,5,0,0:0:0:0:
312,256,83400,1,0,0:0:0:0:
300,136,83550,1,0,0:0:0:0:
320,268,83700,1,0,0:0:0:0:
308,112,83850,1,0,0:0:0:0:
332,288,84000,1,0,0:0:0:0:
316,92,84150,1,0,0:0:0:0:
212,48,84300,5,0,0:0:0:0:
168,80,84375,1,0,0:0:0:0:
124,112,84450,1,0,0:0:0:0:
152,276,84600,1,0,0:0:0:0:
192,312,84675,1,0,0:0:0:0:
236,344,84750,1,0,0:0:0:0:
280,324,84825,1,0,0:0:0:0:
324,296,84900,1,0,0:0:0:0:
364,264,84975,1,0,0:0:0:0:
404,224,85050,1,0,0:0:0:0:
420,180,85125,1,0,0:0:0:0:
380,140,85200,5,0,0:0:0:0:
256,320,85350,1,0,0:0:0:0:
80,184,85500,1,0,0:0:0:0:
256,32,85650,1,0,0:0:0:0:
264,192,85800,2,0,L|256:112,2,70
448,148,86250,5,0,0:0:0:0:
400,128,86325,1,0,0:0:0:0:
348,120,86400,1,0,0:0:0:0:
300,104,86475,1,0,0:0:0:0:
248,104,86550,1,0,0:0:0:0:
196,88,86625,1,0,0:0:0:0:
156,96,86700,1,0,0:0:0:0:
116,136,86775,1,0,0:0:0:0:
104,188,86850,5,0,0:0:0:0:
112,236,86925,1,0,0:0:0:0:
124,288,87000,1,0,0:0:0:0:
144,332,87075,1,0,0:0:0:0:
192,348,87150,1,0,0:0:0:0:
240,344,87225,1,0,0:0:0:0:
288,352,87300,1,0,0:0:0:0:
332,344,87375,1,0,0:0:0:0:
384,344,87450,5,0,0:0:0:0:
432,344,87525,1,0,0:0:0:0:
476,352,87600,1,0,0:0:0:0:
496,304,87675,1,0,0:0:0:0:
504,252,87750,1,0,0:0:0:0:
496,200,87825,1,0,0:0:0:0:
484,152,87900,1,0,0:0:0:0:
468,104,87975,1,0,0:0:0:0:
424,96,88050,5,0,0:0:0:0:
376,96,88125,1,0,0:0:0:0:
336,96,88200,1,0,0:0:0:0:
304,96,88275,1,0,0:0:0:0:
280,96,88350,1,0,0:0:0:0:
264,96,88425,1,0,0:0:0:0:
248,96,88500,1,0,0:0:0:0:
244,96,88575,1,0,0:0:0:0:
236,100,88650,6,0,L|160:120,1,70
120,136,88875,1,0,0:0:0:0:
76,164,88950,2,0,L|164:208,1,70
192,204,89175,1,0,0:0:0:0:
253,208,89250,6,0,L|316:240,1,70
272,268,89475,1,0,0:0:0:0:
223,286,89550,2,0,L|156:304,1,70
104,288,89775,1,0,0:0:0:0:
72,256,89850,1,0,0:0:0:0:
48,212,89925,1,0,0:0:0:0:
56,172,90000,6,0,L|124:128,1,70
272,36,90300,2,0,L|344:100,1,70
432,232,90600,2,0,L|368:284,1,70
224,320,90900,2,0,L|192:320,1,17.5
176,192,91050,2,0,L|256:152,1,52.5000020027161
324,272,91200,2,0,L|292:272,1,17.5
276,144,91350,2,0,L|356:104,1,52.5000020027161
444,136,91500,5,0,0:0:0:0:
424,108,91575,1,0,0:0:0:0:
392,80,91650,1,0,0:0:0:0:
360,64,91725,1,0,0:0:0:0:
320,48,91800,1,0,0:0:0:0:
284,40,91875,1,0,0:0:0:0:
248,32,91950,1,0,0:0:0:0:
208,32,92025,1,0,0:0:0:0:
168,40,92100,5,0,0:0:0:0:
128,60,92175,1,0,0:0:0:0:
96,84,92250,1,0,0:0:0:0:
68,112,92325,1,0,0:0:0:0:
48,136,92400,1,0,0:0:0:0:
36,172,92475,1,0,0:0:0:0:
32,208,92550,1,0,0:0:0:0:
32,240,92625,1,0,0:0:0:0:
48,268,92700,2,0,L|84:268,1,35
152,144,92850,5,0,0:0:0:0:
192,144,92925,1,0,0:0:0:0:
228,152,93000,1,0,0:0:0:0:
264,160,93075,1,0,0:0:0:0:
304,176,93150,1,0,0:0:0:0:
336,192,93225,1,0,0:0:0:0:
368,220,93300,1,0,0:0:0:0:
388,248,93375,1,0,0:0:0:0:
352,296,93450,2,0,L|268:312,2,70
412,168,93900,6,0,L|448:252,1,70
272,104,94200,1,0,0:0:0:0:
304,172,94350,2,0,L|340:256,1,70
164,108,94650,1,0,0:0:0:0:
176,176,94800,6,0,L|212:260,1,70
36,112,95100,1,0,0:0:0:0:
100,168,95250,6,0,L|64:252,1,70
240,104,95550,1,0,0:0:0:0:
208,172,95700,2,0,L|172:256,1,70
348,108,96000,1,0,0:0:0:0:
336,176,96150,6,0,L|300:260,1,70
476,112,96450,1,0,0:0:0:0:
428,256,96600,2,0,L|340:296,1,70
176,288,96900,2,0,L|96:224,1,70
192,92,97200,2,0,L|296:92,1,70
432,192,97500,1,0,0:0:0:0:
252,52,97650,1,0,0:0:0:0:
256,192,97800,1,0,0:0:0:0:
256,196,98100,1,0,0:0:0:0:
256,196,98400,6,0,P|284:188|288:220,1,52.5000020027161
256,192,98850,2,0,P|288:168|328:200,1,52.5000020027161
256,192,99300,2,0,P|232:152|248:128,1,52.5000020027161
252,196,99750,2,0,P|228:248|204:264,1,52.5000020027161
260,192,100200,1,0,0:0:0:0:
264,192,100350,1,0,0:0:0:0:
264,192,100500,1,0,0:0:0:0:
248,196,100650,2,0,P|336:136|240:168,1,262.500010013581
256,129,101700,5,0,0:0:0:0:
256,129,102000,1,0,0:0:0:0:
264,136,102300,1,0,0:0:0:0:
256,132,102450,1,0,0:0:0:0:
264,136,102600,1,0,0:0:0:0:
256,132,102750,1,0,0:0:0:0:
264,136,102900,1,0,0:0:0:0:
256,132,103050,1,0,0:0:0:0:
