osu file format v12

[General]
AudioFilename: megaymix.mp3
AudioLeadIn: 0
PreviewTime: -1
Countdown: 1
SampleSet: Normal
StackLeniency: 0.7
Mode: 0
LetterboxInBreaks: 1
WidescreenStoryboard: 0

[Editor]
DistanceSpacing: 1
BeatDivisor: 4
GridSize: 4

[Metadata]
Title:BIRTHDAY MEGAYMIX
TitleUnicode:BIRTHDAY MEGAYMIX
Artist:Various
ArtistUnicode:Various
Creator:GensokyoAkuma
Version:Gay~
Source:
Tags:
BeatmapID:382391
BeatmapSetID:155980

[Difficulty]
HPDrainRate:6
CircleSize:3
OverallDifficulty:6
ApproachRate:9
SliderMultiplier:1.49999990463257
SliderTickRate:1

[Events]
//Background and Video events
0,0,"bg.jpg",0,0
//Break Periods
2,49489,56514
2,156759,160718
2,252770,258554
2,315761,318974
2,345174,349240
//Storyboard Layer 0 (Background)
//Storyboard Layer 1 (Fail)
//Storyboard Layer 2 (Pass)
//Storyboard Layer 3 (Foreground)
//Storyboard Sound Samples
//Background Colour Transformations
3,100,163,162,255

[TimingPoints]
924,521.741379310347,4,1,0,100,1,0
1195,521.741379310346,4,1,0,100,1,0
1700,521.741379310346,4,1,0,100,1,0
9600,521.741379310346,4,1,0,100,1,0
16600,521.741379310346,4,1,0,100,1,0
17920,521.741379310346,4,1,0,100,1,0
22263,521.741379310346,4,1,0,100,1,0
25650,521.741379310346,4,1,0,100,1,0
27406,521.741379310346,4,1,0,100,1,0
34800,521.741379310346,4,1,0,100,1,0
36500,521.741379310346,4,1,0,100,1,0
40420,521.741379310346,4,1,0,100,1,0
56514,300,4,1,0,100,1,0
57000,-66.6666666666667,4,1,0,100,0,0
69312,-57.1428571428571,4,1,0,100,0,0
87474,-100,4,1,0,100,0,0
97500,-50,4,1,0,100,0,0
97764,-50,4,1,0,100,0,1
108559,250,4,1,0,100,1,0
117559,-66.6666666666667,4,1,0,100,0,0
125559,-100,4,1,0,100,0,0
159985.322136892,333.340781934613,4,1,0,100,1,0
180136,-66.6666666666667,4,1,0,100,0,0
259161.344850526,300,4,1,0,100,1,1
259237,-50,4,1,0,100,0,1
277611,-50,4,1,0,100,0,0
278511,-66.6666666666667,4,1,0,100,0,0
297561,-50,4,1,0,100,0,1
318574.650916948,200,4,1,0,100,1,0
324271,-66.6666666666667,4,1,0,100,0,0
330730,-57.1428571428571,4,1,0,100,0,0
332274,-57.1428571428571,4,1,0,100,0,1
347340.227269151,250,4,1,0,100,1,0
347372,-133.333333333333,4,1,0,50,0,0
369632,500,4,1,0,50,1,0
369636,-133.333333333333,4,1,0,50,0,0

[Colours]
Combo1 : 255,208,100
Combo2 : 0,108,217
Combo3 : 185,236,236
Combo4 : 255,106,181

[HitObjects]
256,192,402,1,4,1:0:0:0:
200,64,924,1,4,0:0:0:0:
280,80,1184,2,4,L|368:48,1,75
464,48,1716,5,8,0:0:0:0:
440,80,1830,1,8,0:0:0:0:
416,112,1960,1,8,0:0:0:0:
464,296,2221,1,8,0:0:0:0:
440,264,2352,1,8,0:0:0:0:
416,232,2482,1,8,0:0:0:0:
320,112,2743,6,4,L|256:48,1,75
320,240,3265,2,4,L|264:304,1,75
168,184,3786,5,8,0:0:0:0:
168,224,3917,1,8,0:0:0:0:
208,224,4047,1,8,0:0:0:0:
168,184,4308,5,8,0:0:0:0:
168,144,4439,1,8,0:0:0:0:
208,144,4569,1,8,0:0:0:0:
456,48,4830,6,4,P|456:88|440:56,1,75
48,80,5352,6,4,P|48:40|64:72,1,75
208,208,5873,5,8,0:0:0:0:
232,232,6004,1,8,0:0:0:0:
256,256,6134,1,8,0:0:0:0:
400,136,6395,5,8,0:0:0:0:
376,112,6526,1,8,0:0:0:0:
352,88,6656,1,8,0:0:0:0:
280,88,6917,5,0,0:0:0:0:
208,88,7178,1,0,0:0:0:0:
136,88,7439,6,0,L|136:184,1,75
208,160,7960,1,0,0:0:0:0:
256,192,8091,12,4,9134,0:0:0:0:
144,192,9730,5,2,0:0:0:0:
348,188,9991,6,4,L|396:208,2,37.5,0|0|0,0:0|0:0|0:0,0:0:0:0:
144,192,10513,5,0,0:0:0:0:
72,192,10773,1,0,0:0:0:0:
256,160,11034,1,0,0:0:0:0:
256,352,11295,6,4,L|256:264,1,75
32,192,12078,1,8,0:0:0:0:
80,136,12208,1,8,0:0:0:0:
128,192,12339,1,8,0:0:0:0:
480,192,12600,1,8,0:0:0:0:
432,248,12730,1,8,0:0:0:0:
384,192,12860,1,8,0:0:0:0:
256,56,13121,6,4,L|320:112,1,75
312,328,13643,6,4,L|248:272,1,75
176,152,14165,1,8,0:0:0:0:
328,152,14426,1,8,0:0:0:0:
200,232,14686,1,8,0:0:0:0:
352,232,14947,2,8,L|432:232,1,75
352,232,15469,5,8,0:0:0:0:
440,112,15730,2,8,L|336:112,1,75
176,112,16252,1,8,0:0:0:0:
176,184,16513,2,8,B|176:304|176:304|184:288|184:288|192:304|192:304|192:288|192:288|200:304|200:304|200:288|200:288|208:304|208:304|208:288|208:288|216:304|216:304|216:288|216:288|224:304|224:304|224:288|224:288|232:304|232:304|232:288|232:288|240:304|240:304|240:288|240:288|248:304|248:304|248:288|248:288|256:304|256:304|272:288|272:288,1,449.999971389771
256,184,18311,5,4,0:0:0:0:
256,88,18572,1,4,0:0:0:0:
256,264,18833,1,4,0:0:0:0:
256,264,18963,2,4,L|144:264,1,112.5
56,264,19615,1,2,0:0:0:0:
48,40,19876,6,4,L|96:72,1,37.5
188,92,20398,1,2,0:0:0:0:
168,176,20659,5,2,0:0:0:0:
308,184,20920,2,4,P|404:120|284:88,1,300
44,84,22224,1,2,0:0:0:0:
48,344,22784,6,4,L|92:304,2,37.5
132,268,23306,1,4,0:0:0:0:
220,200,23567,1,4,0:0:0:0:
312,132,23828,1,4,0:0:0:0:
404,200,24089,2,4,B|376:228|376:228|368:220|368:220|372:232|372:232|364:224|364:224|368:236|368:236|360:228|360:228|364:240|364:240|356:232|356:232|360:244|360:244|352:236|352:236|356:248|356:248|348:240|348:240|352:252|352:252|344:244|344:244|348:256|348:256|340:248|340:248|344:260|344:260|336:252|336:252|340:264|340:264|332:256|332:256|336:264|336:264|180:268|104:164,1,525
404,128,26171,5,8,0:0:0:0:
404,128,26302,1,8,0:0:0:0:
404,128,26432,1,8,0:0:0:0:
400,320,26693,1,8,0:0:0:0:
400,320,26823,1,8,0:0:0:0:
400,320,26954,1,8,0:0:0:0:
320,108,27215,6,4,L|272:132,1,37.5
224,232,27666,1,4,0:0:0:0:
96,124,28319,5,4,0:0:0:0:
432,120,28579,1,4,0:0:0:0:
44,352,28971,1,4,0:0:0:0:
432,120,29362,1,4,0:0:0:0:
96,124,29623,1,4,0:0:0:0:
472,356,30014,1,4,0:0:0:0:
264,196,30406,6,4,L|176:196,1,75
108,72,31188,1,4,0:0:0:0:
184,72,31449,1,4,0:0:0:0:
260,72,31710,1,4,0:0:0:0:
336,72,31971,1,4,0:0:0:0:
412,72,32232,1,4,0:0:0:0:
416,148,32492,2,4,B|232:148|232:148|220:168|220:168|208:148|208:148|196:168|196:168|184:148|184:148|172:168|172:168|160:148|160:148|148:168|148:168|136:148|136:148|124:168|124:168|112:148|112:148|100:168|100:168|99:252|152:248,1,525
472,240,34930,5,2,0:0:0:0:
472,52,35191,1,2,0:0:0:0:
284,52,35452,1,2,0:0:0:0:
280,240,35713,2,4,P|224:224|284:160,1,150
88,240,36495,6,4,B|88:200|76:188|76:188|96:188|96:188|76:180|76:180,1,75
392,36,37021,1,2,0:0:0:0:
172,192,37543,1,2,0:0:0:0:
396,356,38065,1,2,0:0:0:0:
476,192,38586,6,4,L|400:192,1,75
256,192,39108,5,2,0:0:0:0:
96,192,39369,2,4,B|96:148|96:148|92:144|92:144|100:144|100:144|92:140|92:140|100:140|100:140|92:136|92:136|100:136|100:136|92:132|92:132|100:132|100:132|92:128|92:128|100:128|100:128|92:124|92:124|96:124|100:124|100:124|92:120|92:120|100:120|100:120|92:116|92:116|100:116|100:116|100:60,1,225
256,192,40420,5,8,0:0:0:0:
460,48,40680,1,8,0:0:0:0:
256,192,40941,1,8,0:0:0:0:
460,340,41202,1,8,0:0:0:0:
256,192,41463,1,8,0:0:0:0:
48,340,41724,1,8,0:0:0:0:
256,192,41985,1,8,0:0:0:0:
480,32,42246,5,2,0:0:0:0:
48,340,42767,1,2,0:0:0:0:
480,32,43289,1,2,0:0:0:0:
48,340,43811,2,4,B|48:324|48:324|60:344|60:344|56:320|56:320|68:340|68:340|64:316|64:316|100:340|100:340,1,150
284,336,44593,1,8,0:0:0:0:
280,148,44854,1,8,0:0:0:0:
92,148,45115,1,8,0:0:0:0:
280,148,45376,2,4,L|364:144,1,75
228,284,45898,5,8,0:0:0:0:
452,280,46159,1,8,0:0:0:0:
228,280,46420,2,4,B|108:72|108:72|408:72|408:72|268:332,1,824.999947547914
256,196,57114,5,2,0:0:0:0:
256,196,57714,1,2,0:0:0:0:
256,196,58314,1,2,0:0:0:0:
256,120,58614,5,2,0:0:0:0:
184,196,58914,1,4,0:0:0:0:
152,196,59064,1,4,0:0:0:0:
120,196,59214,5,8,0:0:0:0:
116,192,59289,1,8,0:0:0:0:
112,188,59364,1,8,0:0:0:0:
108,184,59439,1,8,0:0:0:0:
104,180,59514,2,4,P|180:240|120:352,1,225.000008583069
408,192,60114,2,4,P|312:132|328:24,1,225.000008583069
112,100,60714,6,4,B|36:188|36:188|168:248,1,225.000008583069
404,100,61314,2,4,B|480:188|480:188|344:248,1,225.000008583069
256,32,61914,5,4,0:0:0:0:
256,352,62214,1,4,0:0:0:0:
256,32,62514,1,4,0:0:0:0:
256,352,62814,1,4,0:0:0:0:
32,192,63114,1,8,0:0:0:0:
48,192,63189,1,8,0:0:0:0:
64,192,63264,1,8,0:0:0:0:
80,192,63339,1,8,0:0:0:0:
96,192,63414,1,8,0:0:0:0:
112,192,63489,1,8,0:0:0:0:
128,192,63564,1,8,0:0:0:0:
144,192,63639,1,8,0:0:0:0:
160,192,63714,1,8,0:0:0:0:
176,192,63789,1,8,0:0:0:0:
192,192,63864,1,8,0:0:0:0:
208,192,63939,1,8,0:0:0:0:
224,192,64014,1,8,0:0:0:0:
240,192,64089,1,8,0:0:0:0:
256,192,64164,1,8,0:0:0:0:
272,192,64239,1,8,0:0:0:0:
288,192,64314,1,8,0:0:0:0:
472,184,64614,6,4,L|312:4,1,225.000008583069
36,200,65214,6,4,L|188:372,1,225.000008583069
484,36,65814,6,4,P|444:100|480:32,1,225.000008583069
44,344,66414,6,4,P|84:280|48:348,1,225.000008583069
88,76,67014,5,4,0:0:0:0:
256,352,67314,1,4,0:0:0:0:
416,76,67614,1,4,0:0:0:0:
260,352,67914,5,8,0:0:0:0:
280,324,67989,1,8,0:0:0:0:
256,304,68064,1,8,0:0:0:0:
280,276,68139,1,8,0:0:0:0:
256,256,68214,1,8,0:0:0:0:
280,228,68289,1,8,0:0:0:0:
256,208,68364,1,8,0:0:0:0:
280,180,68439,1,8,0:0:0:0:
256,160,68514,1,8,0:0:0:0:
280,132,68589,1,8,0:0:0:0:
256,112,68664,1,8,0:0:0:0:
280,84,68739,1,8,0:0:0:0:
256,64,68814,2,8,L|312:64,4,56.2500021457673
456,200,69414,6,4,P|316:328|304:316,1,262.500002503395
180,48,70014,6,4,P|52:188|64:200,1,262.500002503395
352,348,70614,5,4,0:0:0:0:
36,184,70914,1,4,0:0:0:0:
352,240,71214,1,4,0:0:0:0:
36,84,71514,1,4,0:0:0:0:
480,68,71814,6,2,L|480:344,1,262.500002503395,0|0,0:0|0:0,0:0:0:0:
32,248,72414,2,0,B|56:252|16:384|164:384|216:320|124:248|164:228|164:228|184:228|184:228|164:224|164:224|184:224|184:224|164:220|164:220|184:220|184:220|164:216|164:216|184:216|184:216|164:212|164:212|184:212|184:212|164:208|164:208|184:208|184:208|164:204|164:204|184:204|184:204|164:200|164:200|184:200|184:200|164:196|164:196|184:196|184:196|164:192|164:192|184:192|184:192|164:188|164:188|184:188|184:188|164:184|164:184|184:184|184:184|164:180|164:180|184:180|184:180|164:176|164:176|184:176|184:176|164:172|164:172|184:172|184:172|164:168|164:168|184:168|184:168|164:164|164:164|184:164|184:164|164:160|164:160|184:160|184:160|164:156|164:156|184:156|184:156|164:152|164:152|128:136|236:60|168:8|8:8|20:140|24:188,1,1312.50001251698
328,128,74214,5,4,0:0:0:0:
36,128,74514,1,4,0:0:0:0:
404,128,74814,1,4,0:0:0:0:
104,128,75114,1,4,0:0:0:0:
256,352,75414,2,4,L|256:64,1,262.500002503395
184,352,76014,6,4,P|184:280|188:348,1,262.500002503395
328,348,76614,2,4,P|328:276|324:344,1,262.500002503395,4|0,0:0|0:0,0:0:0:0:
128,48,77214,1,4,0:0:0:0:
256,192,77514,5,8,0:0:0:0:
224,176,77589,1,8,0:0:0:0:
216,140,77664,1,8,0:0:0:0:
232,108,77739,1,8,0:0:0:0:
264,88,77814,1,8,0:0:0:0:
296,88,77889,1,8,0:0:0:0:
328,104,77964,1,8,0:0:0:0:
340,136,78039,1,8,0:0:0:0:
328,172,78114,1,8,0:0:0:0:
304,196,78189,1,8,0:0:0:0:
276,220,78264,1,8,0:0:0:0:
256,248,78339,1,8,0:0:0:0:
252,284,78414,1,8,0:0:0:0:
280,312,78489,1,8,0:0:0:0:
312,316,78564,1,8,0:0:0:0:
472,72,79014,5,0,0:0:0:0:
136,56,79314,5,0,0:0:0:0:
56,304,79614,5,0,0:0:0:0:
248,124,79914,5,0,0:0:0:0:
428,316,80214,5,0,0:0:0:0:
176,240,80514,5,0,0:0:0:0:
404,108,80814,5,0,0:0:0:0:
152,36,81114,5,0,0:0:0:0:
296,256,81414,5,0,0:0:0:0:
48,168,81714,5,0,0:0:0:0:
292,72,82014,5,0,0:0:0:0:
448,280,82314,5,0,0:0:0:0:
180,92,82614,5,0,0:0:0:0:
200,192,82914,5,8,0:0:0:0:
220,192,82989,1,8,0:0:0:0:
244,192,83064,1,8,0:0:0:0:
268,192,83139,1,8,0:0:0:0:
292,192,83214,1,8,0:0:0:0:
312,192,83289,1,8,0:0:0:0:
336,192,83364,1,8,0:0:0:0:
356,192,83439,1,8,0:0:0:0:
376,192,83514,1,8,0:0:0:0:
76,60,83814,5,0,0:0:0:0:
304,296,84114,5,0,0:0:0:0:
508,40,84414,5,0,0:0:0:0:
216,188,84714,5,0,0:0:0:0:
504,344,85014,5,0,0:0:0:0:
176,356,85314,5,0,0:0:0:0:
404,120,85614,5,0,0:0:0:0:
80,80,85914,5,0,0:0:0:0:
404,32,86214,5,0,0:0:0:0:
120,192,86514,5,0,0:0:0:0:
428,304,86814,5,0,0:0:0:0:
172,100,87114,5,0,0:0:0:0:
500,96,87414,5,0,0:0:0:0:
188,280,87714,5,8,0:0:0:0:
156,256,87789,1,8,0:0:0:0:
152,220,87864,1,8,0:0:0:0:
184,192,87939,1,8,0:0:0:0:
216,192,88014,1,8,0:0:0:0:
248,220,88089,1,8,0:0:0:0:
244,256,88164,1,8,0:0:0:0:
256,288,88239,1,8,0:0:0:0:
288,300,88314,2,4,B|412:300|372:208|372:208|404:208|404:208|372:204|372:204|404:204|404:204|372:200|372:200|404:200|404:200|372:196|372:196|288:124,1,450
372,76,89514,1,8,0:0:0:0:
376,300,89814,1,8,0:0:0:0:
56,192,90114,6,4,L|160:192,2,75
376,300,90714,1,8,0:0:0:0:
372,76,91014,1,8,0:0:0:0:
56,192,91314,2,4,L|156:192,2,75
468,192,91914,1,8,0:0:0:0:
272,192,92214,1,8,0:0:0:0:
56,192,92514,5,8,0:0:0:0:
92,192,92589,1,8,0:0:0:0:
128,192,92664,1,8,0:0:0:0:
164,192,92739,1,8,0:0:0:0:
200,196,92814,1,8,0:0:0:0:
236,196,92889,1,8,0:0:0:0:
280,196,92964,1,8,0:0:0:0:
320,192,93039,1,8,0:0:0:0:
360,192,93114,2,4,P|360:284|292:132,1,600
476,36,94614,5,4,0:0:0:0:
176,32,94914,1,4,0:0:0:0:
460,128,95214,1,4,0:0:0:0:
160,112,95514,1,4,0:0:0:0:
392,296,95814,5,8,0:0:0:0:
340,240,96114,1,8,0:0:0:0:
292,188,96414,2,4,L|232:128,1,75
340,344,96864,5,8,0:0:0:0:
288,288,97164,1,8,0:0:0:0:
240,236,97464,2,4,L|180:176,1,75
128,92,97914,6,8,P|80:232|96:256,1,150
288,312,98214,6,8,P|336:172|320:148,1,150
128,92,98514,6,8,P|80:232|96:256,1,150
288,312,98814,6,8,P|336:172|320:148,1,150
312,48,99114,6,8,P|464:96|468:116,1,150
220,236,99414,6,8,P|68:284|64:304,1,150
312,48,99714,6,8,P|464:96|468:116,1,150
220,236,100014,6,8,P|68:284|64:304,1,150
364,292,100314,6,8,L|480:152,1,150
156,120,100614,6,8,L|52:256,1,150
364,292,100914,6,8,L|480:152,1,150
156,120,101214,6,8,L|52:256,1,150
280,216,101514,6,8,B|276:212|276:212|280:216|280:216|281:187|281:187|280:176|280:176|270:171|270:171|244:164|244:164|248:192|248:192|256:172|256:172|228:220|228:220|284:220|284:220|288:168|288:168|224:168|224:168|224:224|224:224|288:224|288:224|288:168|288:168|276:164|276:164|228:220|228:220|284:224|284:224|288:164|288:164|224:164|224:164|224:220|224:220|251:219|251:219|280:220|280:220|268:172|268:172|232:164|232:164|228:224|228:224|276:216|276:216|232:184|232:184|232:164|232:164|232:220|232:220,1,1200
160,192,103014,2,8,L|8:192,1,149.999990463257
312,192,103314,2,8,L|480:192,1,149.999990463257
160,192,103614,6,8,L|8:192,1,149.999990463257
312,192,103914,6,8,L|480:192,1,149.999990463257
192,64,104214,6,8,P|92:96|48:168,1,149.999990463257
316,296,104514,2,8,P|416:264|460:192,1,149.999990463257
192,64,104814,6,8,P|92:96|48:168,1,149.999990463257
316,296,105114,2,8,P|416:264|460:192,1,149.999990463257
144,224,105414,6,8,L|228:347,1,149.999990463257
460,156,105714,2,8,L|371:35,1,149.999990463257
144,224,106014,6,8,L|228:347,1,149.999990463257
256,192,106314,12,0,107214,0:0:0:0:
72,128,109559,6,0,L|124:56,1,74.9999952316283
176,108,109809,2,0,L|128:172,1,74.9999952316283
300,252,110059,6,0,L|352:176,1,74.9999952316285
408,228,110309,2,0,L|348:312,1,74.9999952316285
196,80,110559,6,0,L|244:0,1,74.9999952316285
296,48,110809,2,0,L|256:112,1,74.9999952316283
192,304,111059,6,0,L|108:304,1,74.9999952316285
32,230,111309,2,0,L|116:230,1,74.9999952316285
192,192,111559,2,0,L|108:192,1,74.9999952316285
120,116,111809,2,0,L|208:116,1,74.9999952316285
344,88,112059,6,0,L|392:152,1,74.9999952316285
220,224,112309,6,0,L|276:144,1,74.9999952316285
88,92,112559,6,0,L|176:28,1,74.9999952316285
52,208,112809,6,0,L|88:304,1,74.9999952316285
12,340,113059,2,0,L|36:304,7,37.4999976158143
60,336,113559,6,0,L|152:308,1,74.9999952316285
80,136,113809,6,0,L|148:56,1,74.9999952316285
188,256,114059,6,0,L|236:316,1,74.9999952316285
252,128,114309,6,0,L|332:128,1,74.9999952316285
468,252,114559,2,0,L|388:252,1,74.9999952316285
384,64,114809,6,0,L|476:64,1,74.9999952316285
336,204,115059,2,0,L|256:204,1,74.9999952316285
120,80,115309,6,0,B|160:80|160:80|164:76|164:76|164:88|164:88|168:76|168:76|168:88|168:88|176:80,1,74.9999952316285
140,272,115559,6,0,L|64:240,1,74.9999952316285
360,168,115809,6,0,L|432:112,1,74.9999952316285
124,76,116059,6,0,L|200:136,1,74.9999952316285
320,252,116309,6,0,L|236:296,1,74.9999952316285
292,60,116559,5,0,0:0:0:0:
216,144,116684,2,0,L|188:172,1,37.4999976158143
320,304,116934,5,0,0:0:0:0:
472,160,117059,6,8,L|376:160,1,74.9999952316285
284,156,117309,5,4,0:0:0:0:
92,40,117559,6,0,L|92:168,1,112.499997138977
228,332,117809,2,0,L|332:224,1,112.499997138977
80,240,118059,6,0,L|8:336,1,112.499997138977
212,224,118309,2,0,L|344:128,1,112.499997138977
24,212,118559,6,0,L|60:164,3,56.2499985694885
128,168,118809,2,0,L|192:232,3,56.2499985694885
247,204,119059,2,0,P|313:131|317:111,1,112.499997138977
416,82,119309,1,4,0:0:0:0:
78,82,119559,6,0,L|79:203,1,112.499997138977
304,193,119809,2,0,L|302:35,1,112.499997138977
464,237,120059,6,0,L|421:290,3,56.2499985694885
371,284,120309,1,8,0:0:0:0:
133,44,120559,2,0,L|-3:120,1,112.499997138977
212,236,120809,2,0,L|302:150,1,112.499997138977
452,316,121059,6,0,L|328:352,1,112.499997138977
392,128,121309,2,0,L|504:156,1,112.499997138977
300,260,121559,6,0,L|200:184,1,112.499997138977
72,12,121809,2,0,L|200:104,1,112.499997138977
388,104,122059,6,0,L|288:220,1,112.499997138977
120,300,122309,2,0,L|208:196,1,112.499997138977
384,332,122559,6,0,P|385:279|432:252,1,112.499997138977
308,64,122809,6,0,P|307:117|261:145,1,112.499997138977
124,328,123059,5,4,0:0:0:0:
124,216,123184,1,4,0:0:0:0:
124,104,123309,1,4,0:0:0:0:
376,328,123559,2,0,P|300:304|296:272,1,112.499997138977
328,56,123809,2,0,P|404:80|408:112,1,112.499997138977
220,224,124059,6,0,L|300:136,1,112.499997138977
96,36,124309,2,0,L|12:124,1,112.499997138977
220,224,124559,6,0,L|116:332,1,112.499997138977
12,36,124934,1,0,0:0:0:0:
12,116,125059,1,0,0:0:0:0:
232,72,125309,1,0,0:0:0:0:
404,268,125559,6,0,L|340:324,2,74.9999952316285
220,224,125934,2,0,L|288:168,2,74.9999952316285,0|0|0,0:0|0:0|0:0,0:0:0:0:
136,100,126309,2,0,L|52:164,1,74.9999952316285
80,296,126559,2,4,P|140:268|148:240,1,74.9999952316285
80,296,126809,6,4,P|140:268|148:240,1,74.9999952316285,0|0,0:0|0:0,0:0:0:0:
80,296,127059,6,4,P|140:268|148:240,1,74.9999952316285
80,296,127309,2,4,P|140:268|148:240,1,74.9999952316285
328,136,127559,6,0,L|248:192,2,74.9999952316285
332,288,127934,2,0,L|408:232,2,74.9999952316285
172,192,128309,6,0,L|172:96,1,74.9999952316285
172,40,128559,1,4,0:0:0:0:
248,40,128684,1,4,0:0:0:0:
324,40,128809,1,4,0:0:0:0:
400,40,128934,1,4,0:0:0:0:
476,40,129059,2,4,L|476:92,6,37.4999976158143
400,40,129559,5,4,0:0:0:0:
176,40,129934,1,4,0:0:0:0:
224,180,130184,1,4,0:0:0:0:
300,180,130309,1,4,0:0:0:0:
296,328,130559,5,4,0:0:0:0:
84,256,130934,1,4,0:0:0:0:
84,180,131059,1,4,0:0:0:0:
160,180,131184,1,4,0:0:0:0:
160,256,131309,1,4,0:0:0:0:
288,180,131559,5,4,0:0:0:0:
396,76,131809,6,4,L|396:180,1,74.9999952316285
396,300,132184,2,4,L|396:204,1,74.9999952316285
312,100,132559,5,4,0:0:0:0:
264,156,132684,1,4,0:0:0:0:
212,208,132809,1,4,0:0:0:0:
160,264,132934,1,4,0:0:0:0:
108,320,133059,1,4,0:0:0:0:
88,248,133184,2,4,L|88:172,1,74.9999952316285
272,44,133559,6,0,L|352:76,2,74.9999952316285
240,340,133934,6,0,L|160:308,2,74.9999952316285
44,112,134309,6,0,L|44:204,1,74.9999952316285
292,268,134559,2,0,L|204:268,1,74.9999952316285
216,192,134809,2,0,L|304:192,1,74.9999952316285
292,116,135059,2,0,L|200:116,1,74.9999952316285
216,40,135309,2,0,L|316:40,1,74.9999952316285
396,280,135559,5,0,0:0:0:0:
344,224,135684,1,0,0:0:0:0:
292,280,135809,1,0,0:0:0:0:
236,328,135934,1,0,0:0:0:0:
184,384,136059,1,0,0:0:0:0:
136,324,136184,1,0,0:0:0:0:
84,272,136309,6,0,L|168:272,1,74.9999952316285
228,248,136559,5,0,0:0:0:0:
264,184,136684,1,0,0:0:0:0:
228,120,136809,1,0,0:0:0:0:
264,56,136934,1,0,0:0:0:0:
340,56,137059,2,0,L|340:96,4,37.4999976158143
416,56,137434,1,0,0:0:0:0:
416,132,137559,5,0,0:0:0:0:
340,132,137684,1,0,0:0:0:0:
264,132,137809,1,0,0:0:0:0:
268,56,137934,2,0,L|320:-4,1,74.9999952316285
368,56,138184,6,0,L|312:124,1,74.9999952316285
128,292,138559,6,0,L|48:292,1,74.9999952316285
52,188,138809,1,0,0:0:0:0:
240,188,139059,2,0,L|240:104,1,74.9999952316285
452,192,139559,5,0,0:0:0:0:
408,128,139684,1,0,0:0:0:0:
344,88,139809,1,0,0:0:0:0:
272,104,139934,1,0,0:0:0:0:
224,164,140059,1,0,0:0:0:0:
216,240,140184,1,0,0:0:0:0:
248,308,140309,1,0,0:0:0:0:
316,336,140434,1,0,0:0:0:0:
256,192,140496,12,0,141309,0:0:0:0:
184,192,141434,6,8,L|272:192,1,74.9999952316285
448,192,141809,2,8,L|356:192,1,74.9999952316285
148,56,142184,2,8,L|244:56,1,74.9999952316285
256,280,142559,5,4,0:0:0:0:
48,192,142934,1,4,0:0:0:0:
256,108,143309,1,4,0:0:0:0:
412,192,143559,6,8,L|332:192,2,74.9999952316285
412,192,143934,2,8,L|504:192,2,74.9999952316285
412,192,144309,1,8,0:0:0:0:
336,192,144434,1,8,0:0:0:0:
284,136,144559,1,8,0:0:0:0:
88,224,144934,1,8,0:0:0:0:
196,328,145309,5,8,0:0:0:0:
264,240,145559,5,8,0:0:0:0:
352,168,145809,6,8,L|412:224,1,74.9999952316285
340,308,146184,2,8,L|264:236,1,74.9999952316285
100,72,146559,5,4,0:0:0:0:
324,72,146934,1,4,0:0:0:0:
216,268,147309,1,4,0:0:0:0:
336,180,147559,5,8,0:0:0:0:
392,132,147684,1,8,0:0:0:0:
448,84,147809,1,8,0:0:0:0:
508,132,147934,1,8,0:0:0:0:
452,180,148059,1,8,0:0:0:0:
396,228,148184,1,8,0:0:0:0:
456,268,148309,2,8,L|520:212,1,74.9999952316285
512,316,148559,5,0,0:0:0:0:
249,316,148934,1,0,0:0:0:0:
24,316,149309,1,0,0:0:0:0:
124,204,149559,5,0,0:0:0:0:
196,72,149809,2,0,L|280:128,1,74.9999952316285
408,88,150184,2,0,L|384:176,1,74.9999952316285
276,260,150559,6,0,P|224:256|200:212,1,74.9999952316285
108,84,150934,5,0,0:0:0:0:
368,308,151309,1,0,0:0:0:0:
34,225,151559,6,0,L|34:149,2,74.9999952316285
376,224,151934,6,0,L|376:148,2,74.9999952316285
376,224,152309,2,0,L|286:225,1,74.9999952316285
40,224,152559,5,4,0:0:0:0:
244,60,152934,1,4,0:0:0:0:
444,228,153309,1,4,0:0:0:0:
288,260,153559,5,8,0:0:0:0:
264,188,153684,1,8,0:0:0:0:
188,172,153809,1,8,0:0:0:0:
236,116,153934,1,8,0:0:0:0:
304,84,154059,1,8,0:0:0:0:
380,80,154184,1,8,0:0:0:0:
448,116,154309,1,8,0:0:0:0:
392,304,154559,5,8,0:0:0:0:
316,304,154684,1,8,0:0:0:0:
240,304,154809,1,8,0:0:0:0:
164,304,154934,1,8,0:0:0:0:
88,304,155059,1,8,0:0:0:0:
124,236,155184,1,8,0:0:0:0:
68,184,155309,1,8,0:0:0:0:
424,316,155559,6,4,P|424:264|392:232,1,74.9999952316285
336,248,155809,1,0,0:0:0:0:
260,244,155934,6,4,P|260:192|228:160,1,74.9999952316285
172,176,156184,1,8,0:0:0:0:
96,172,156309,2,4,P|96:120|64:88,1,74.9999952316285,4|0,0:0|0:0,0:0:0:0:
144,56,156559,5,8,0:0:0:0:
256,192,161318,5,8,0:0:0:0:
256,192,161652,1,8,0:0:0:0:
476,40,162318,5,0,0:0:0:0:
324,40,162485,1,0,0:0:0:0:
168,40,162652,1,0,0:0:0:0:
88,168,162818,6,0,L|160:224,1,74.9999952316285
296,212,163152,1,0,0:0:0:0:
408,112,163318,6,0,L|480:184,1,74.9999952316285
404,304,163652,5,0,0:0:0:0:
252,304,163818,1,0,0:0:0:0:
104,304,163985,1,8,0:0:0:0:
300,76,164318,1,8,0:0:0:0:
24,268,164818,5,0,0:0:0:0:
184,368,164985,1,0,0:0:0:0:
344,268,165152,1,0,0:0:0:0:
184,168,165318,1,0,0:0:0:0:
352,80,165485,6,0,L|432:152,1,74.9999952316285
268,252,165818,2,0,L|208:192,1,74.9999952316285
76,72,166152,5,0,0:0:0:0:
264,68,166318,2,0,L|264:148,1,74.9999952316285
260,332,166652,6,8,L|336:332,2,74.9999952316285
84,192,167152,2,8,L|-12:192,2,74.9999952316285
264,56,167652,2,8,L|352:56,2,74.9999952316285
84,192,168152,2,8,L|-8:192,2,74.9999952316285
308,192,168652,1,8,0:0:0:0:
8,192,168985,1,8,0:0:0:0:
268,40,169318,5,4,0:0:0:0:
272,340,169652,1,4,0:0:0:0:
108,88,170152,6,0,L|176:156,1,74.9999952316285
404,296,170485,6,0,L|336:228,1,74.9999952316285
172,296,170985,5,0,0:0:0:0:
404,104,171318,1,0,0:0:0:0:
208,212,171485,1,0,0:0:0:0:
432,180,171652,1,0,0:0:0:0:
112,72,171985,5,4,0:0:0:0:
372,288,172318,1,4,0:0:0:0:
40,344,172985,6,0,L|108:288,1,74.9999952316285
440,68,173318,5,0,0:0:0:0:
132,196,173652,5,0,0:0:0:0:
168,196,173735,1,0,0:0:0:0:
204,196,173818,1,0,0:0:0:0:
268,104,173985,5,0,0:0:0:0:
268,292,174152,1,0,0:0:0:0:
268,104,174318,1,0,0:0:0:0:
268,292,174485,1,0,0:0:0:0:
512,196,174652,5,4,0:0:0:0:
52,192,174985,1,4,0:0:0:0:
476,44,175652,5,0,0:0:0:0:
452,72,175735,1,0,0:0:0:0:
428,100,175819,1,0,0:0:0:0:
268,259,175985,1,4,0:0:0:0:
55,46,176319,5,0,0:0:0:0:
108,100,176485,1,0,0:0:0:0:
160,152,176652,2,4,P|256:136|304:72,1,149.999990463257
364,100,177152,1,0,0:0:0:0:
64,324,177319,6,8,L|152:324,2,74.9999952316285
420,76,177819,2,8,L|332:76,2,74.9999952316285
64,324,178319,6,8,L|152:324,2,74.9999952316285
420,76,178819,2,8,L|332:76,2,74.9999952316285
288,296,179319,5,8,0:0:0:0:
288,260,179402,1,8,0:0:0:0:
288,224,179485,1,8,0:0:0:0:
288,188,179569,1,8,0:0:0:0:
288,152,179652,2,8,P|288:75|232:104,1,164.999985694885
112,192,180152,5,0,0:0:0:0:
112,80,180319,1,0,0:0:0:0:
200,144,180485,2,0,P|260:108|328:88,1,112.499997138977
368,168,180819,5,0,0:0:0:0:
368,280,180985,1,0,0:0:0:0:
264,240,181152,2,0,P|176:280|172:292,1,112.499997138977
96,204,181485,5,0,0:0:0:0:
392,64,181819,2,0,B|332:64|332:64|328:72|328:72|324:64|324:64|320:72|320:72|316:64|316:64|312:72|312:72|308:64|308:64|304:72|304:72|300:64|300:64|296:72|296:72|292:64|292:64|288:72|288:72|284:64|280:72|280:72|276:64|276:64|272:72|272:72|268:64|268:64|264:72|264:72|260:64|260:64|256:72|256:72|252:64|252:64|248:72|248:72|244:64|244:64|240:72|240:72|236:64|236:64|168:64,1,337.499991416931
256,272,182485,6,0,L|360:212,1,112.499997138977
136,272,182819,2,0,L|28:208,1,112.499997138977
256,272,183152,6,0,L|360:212,1,112.499997138977
12,20,183652,1,0,0:0:0:0:
384,148,183985,1,8,0:0:0:0:
116,236,184235,1,8,0:0:0:0:
116,236,184319,1,8,0:0:0:0:
384,320,184569,1,8,0:0:0:0:
384,320,184652,1,8,0:0:0:0:
260,68,184902,1,8,0:0:0:0:
260,68,184985,1,8,0:0:0:0:
152,200,185152,1,8,0:0:0:0:
276,312,185319,1,8,0:0:0:0:
212,220,185819,5,0,0:0:0:0:
56,148,185985,1,0,0:0:0:0:
160,16,186152,1,0,0:0:0:0:
328,20,186319,1,0,0:0:0:0:
436,148,186485,1,0,0:0:0:0:
280,216,186652,1,0,0:0:0:0:
112,220,186819,1,0,0:0:0:0:
436,320,187152,6,0,B|376:260|392:244|328:180|344:164|200:164|216:180|152:244|168:260|100:328,1,449.999988555908
103,154,187985,1,0,0:0:0:0:
476,32,188485,5,0,0:0:0:0:
80,36,188652,1,0,0:0:0:0:
80,232,188902,5,0,0:0:0:0:
192,232,189152,1,0,0:0:0:0:
304,232,189319,2,0,L|304:348,1,112.499997138977
404,232,189652,2,0,L|404:344,1,112.499997138977
508,232,189985,2,0,L|508:348,1,112.499997138977
338,344,190319,1,0,0:0:0:0:
68,56,190652,5,0,0:0:0:0:
464,56,191152,5,0,0:0:0:0:
464,337,191319,1,0,0:0:0:0:
68,340,191819,2,0,L|68:220,1,112.499997138977
68,56,192152,1,0,0:0:0:0:
312,192,192486,2,0,B|248:220|248:200|248:200|240:220|240:220|236:200|236:200|228:220|228:220|224:200|224:200|216:220|216:220|212:200|212:200|204:220|204:220|200:200|200:200|192:220|192:220|188:200|188:200|180:220|180:220|176:200|176:200|168:220|168:220|160:200|160:200|152:220|72:184,1,449.999988555908
200,68,193319,5,0,0:0:0:0:
512,72,193819,5,0,0:0:0:0:
360,308,193986,1,0,0:0:0:0:
16,20,194319,5,0,0:0:0:0:
184,168,194652,1,0,0:0:0:0:
28,232,194902,6,8,P|28:156|48:132,1,56.2499985694885
484,152,195236,6,8,P|484:228|464:252,1,56.2499985694885
20,140,195569,6,8,P|72:100|104:116,1,56.2499985694885
268,244,195819,1,8,0:0:0:0:
352,320,195986,1,8,0:0:0:0:
136,60,196486,5,0,0:0:0:0:
220,328,196652,1,0,0:0:0:0:
376,96,196819,1,0,0:0:0:0:
152,264,196986,1,0,0:0:0:0:
432,248,197152,1,0,0:0:0:0:
172,144,197319,1,0,0:0:0:0:
380,332,197486,1,0,0:0:0:0:
40,40,197819,2,0,B|44:152|126:103|126:103|296:252,1,337.499991416931
444,88,198486,6,0,L|348:160,1,112.499997138977
20,192,199152,2,0,L|20:60,1,112.499997138977
148,72,199569,1,0,0:0:0:0:
240,216,199819,1,0,0:0:0:0:
408,188,199986,6,0,P|392:116|360:112,1,112.499997138977
340,108,200319,6,0,P|268:124|264:156,1,112.499997138977
236,152,200652,6,0,P|212:104|159:108,1,112.499997138977
134,111,200986,6,0,P|86:134|90:187,1,112.499997138977
152,288,201319,1,0,0:0:0:0:
256,232,201486,1,8,0:0:0:0:
256,232,201569,1,8,0:0:0:0:
256,232,201652,1,8,0:0:0:0:
256,108,201819,1,0,0:0:0:0:
376,104,201986,2,0,L|452:224,1,112.499997138977
352,260,202319,5,8,0:0:0:0:
328,292,202402,1,8,0:0:0:0:
296,308,202486,1,8,0:0:0:0:
252,296,202569,1,8,0:0:0:0:
232,260,202652,1,8,0:0:0:0:
372,84,202819,1,0,0:0:0:0:
496,272,202986,1,0,0:0:0:0:
216,252,203152,1,0,0:0:0:0:
428,176,203319,1,0,0:0:0:0:
332,380,203486,1,0,0:0:0:0:
192,204,203652,2,0,P|153:130|188:96,1,112.499997138977
384,156,203986,5,0,0:0:0:0:
248,336,204152,1,0,0:0:0:0:
148,136,204319,1,0,0:0:0:0:
336,260,204486,2,0,L|224:192,1,112.499997138977
64,60,204902,5,0,0:0:0:0:
345,60,205152,1,0,0:0:0:0:
20,308,205653,5,8,0:0:0:0:
48,260,205736,1,8,0:0:0:0:
24,208,205819,1,8,0:0:0:0:
48,156,205903,1,8,0:0:0:0:
28,96,205986,1,8,0:0:0:0:
160,168,206153,1,0,0:0:0:0:
196,44,206319,5,8,0:0:0:0:
236,84,206403,1,8,0:0:0:0:
276,124,206486,1,8,0:0:0:0:
316,164,206569,1,8,0:0:0:0:
356,204,206653,1,8,0:0:0:0:
372,24,206903,1,0,0:0:0:0:
484,220,207153,1,0,0:0:0:0:
348,320,207319,5,8,0:0:0:0:
332,304,207403,1,8,0:0:0:0:
316,288,207486,1,8,0:0:0:0:
300,272,207569,1,8,0:0:0:0:
284,256,207653,1,8,0:0:0:0:
268,240,207736,1,8,0:0:0:0:
252,224,207819,1,8,0:0:0:0:
236,208,207903,1,8,0:0:0:0:
220,192,207986,1,8,0:0:0:0:
404,88,208319,5,0,0:0:0:0:
312,228,208486,1,0,0:0:0:0:
220,88,208653,1,0,0:0:0:0:
420,196,208819,1,0,0:0:0:0:
312,64,208986,1,0,0:0:0:0:
208,196,209153,1,0,0:0:0:0:
44,148,209319,2,0,P|40:264|48:268,1,112.499997138977
188,256,209653,2,0,P|192:140|184:136,1,112.499997138977
400,284,209986,5,8,0:0:0:0:
400,284,210153,1,8,0:0:0:0:
400,284,210319,1,8,0:0:0:0:
76,60,210486,1,8,0:0:0:0:
76,60,210653,1,8,0:0:0:0:
76,60,210819,1,8,0:0:0:0:
472,60,210986,5,8,0:0:0:0:
472,60,211153,1,8,0:0:0:0:
472,60,211319,1,8,0:0:0:0:
152,288,211486,1,8,0:0:0:0:
152,288,211653,1,8,0:0:0:0:
152,288,211819,1,8,0:0:0:0:
356,192,211986,5,8,0:0:0:0:
356,192,212069,1,8,0:0:0:0:
356,192,212153,1,8,0:0:0:0:
188,196,212319,1,8,0:0:0:0:
188,196,212486,1,8,0:0:0:0:
32,36,212653,2,8,P|96:132|96:140,2,112.499997138977
400,296,213153,2,8,P|336:200|336:192,2,112.499997138977
304,8,213653,2,8,P|208:72|200:72,2,112.499997138977
64,320,214153,2,8,P|160:256|168:256,2,112.499997138977
256,348,214653,6,8,L|256:232,1,112.499997138977
256,36,214986,1,8,0:0:0:0:
456,308,215486,5,0,0:0:0:0:
348,220,215653,1,0,0:0:0:0:
241,113,215819,1,0,0:0:0:0:
348,220,215986,1,0,0:0:0:0:
456,312,216153,1,0,0:0:0:0:
424,160,216319,5,8,0:0:0:0:
392,112,216403,1,8,0:0:0:0:
340,92,216486,1,8,0:0:0:0:
288,108,216569,1,8,0:0:0:0:
268,160,216653,1,8,0:0:0:0:
160,292,216819,1,0,0:0:0:0:
100,136,216986,1,0,0:0:0:0:
268,160,217153,1,0,0:0:0:0:
372,296,217319,1,0,0:0:0:0:
416,132,217486,1,0,0:0:0:0:
268,160,217653,1,0,0:0:0:0:
268,328,217819,2,0,P|164:248|164:244,1,112.499997138977
76,148,218153,2,0,P|24:256|24:268,1,112.499997138977
184,84,218486,5,0,0:0:0:0:
184,84,218653,1,0,0:0:0:0:
408,84,218986,5,0,0:0:0:0:
260,164,219153,1,0,0:0:0:0:
428,168,219319,1,0,0:0:0:0:
280,84,219486,1,0,0:0:0:0:
368,228,219653,1,0,0:0:0:0:
356,60,219819,1,0,0:0:0:0:
288,216,219986,1,0,0:0:0:0:
124,264,220153,6,0,P|116:184|136:160,1,112.499997138977
212,312,220486,1,0,0:0:0:0:
380,308,220653,1,0,0:0:0:0:
288,168,220820,1,0,0:0:0:0:
460,160,220986,5,0,0:0:0:0:
236,168,221153,1,0,0:0:0:0:
460,160,221320,2,0,P|408:84|400:84,1,112.499997138977
64,84,221653,5,0,0:0:0:0:
252,208,221820,1,0,0:0:0:0:
476,184,221986,5,8,0:0:0:0:
460,132,222070,1,8,0:0:0:0:
432,84,222153,1,8,0:0:0:0:
384,56,222236,1,8,0:0:0:0:
328,48,222320,1,8,0:0:0:0:
116,120,222486,1,0,0:0:0:0:
72,324,222653,5,0,0:0:0:0:
232,164,222820,1,0,0:0:0:0:
72,324,222986,1,0,0:0:0:0:
232,164,223153,1,0,0:0:0:0:
64,48,223320,5,8,0:0:0:0:
143,127,223486,1,8,0:0:0:0:
222,206,223653,1,8,0:0:0:0:
256,100,223820,5,8,0:0:0:0:
335,179,223986,1,8,0:0:0:0:
414,258,224153,1,8,0:0:0:0:
404,144,224320,5,8,0:0:0:0:
325,223,224486,1,8,0:0:0:0:
246,302,224653,1,8,0:0:0:0:
212,196,224820,5,8,0:0:0:0:
133,275,224986,1,8,0:0:0:0:
54,354,225153,1,8,0:0:0:0:
32,36,225320,5,4,0:0:0:0:
474,366,225653,1,4,0:0:0:0:
232,276,225986,5,8,0:0:0:0:
176,280,226070,1,8,0:0:0:0:
120,280,226153,1,8,0:0:0:0:
176,176,226403,1,0,0:0:0:0:
344,180,226653,1,0,0:0:0:0:
176,176,226903,1,0,0:0:0:0:
8,176,227153,1,0,0:0:0:0:
272,204,227486,1,0,0:0:0:0:
60,284,227736,1,0,0:0:0:0:
32,120,227986,1,8,0:0:0:0:
72,80,228070,1,8,0:0:0:0:
128,80,228153,1,8,0:0:0:0:
168,120,228236,1,8,0:0:0:0:
312,324,228486,1,2,0:0:0:0:
312,324,228570,1,2,0:0:0:0:
468,160,228820,6,0,P|388:88|392:80,1,112.499997138977
248,212,229153,6,0,P|168:140|172:132,1,112.499997138977
88,316,229486,6,0,P|8:244|12:236,1,112.499997138977
116,144,229820,5,8,0:0:0:0:
116,144,229903,1,8,0:0:0:0:
116,144,229986,1,8,0:0:0:0:
228,136,230153,5,0,0:0:0:0:
380,188,230403,1,0,0:0:0:0:
256,312,230653,1,0,0:0:0:0:
136,192,230903,1,8,0:0:0:0:
86,167,230986,1,8,0:0:0:0:
66,116,231070,1,8,0:0:0:0:
84,64,231153,1,8,0:0:0:0:
132,37,231236,1,8,0:0:0:0:
344,104,231486,5,0,0:0:0:0:
224,192,231736,1,0,0:0:0:0:
444,148,231986,1,0,0:0:0:0:
224,104,232236,1,0,0:0:0:0:
412,228,232486,1,0,0:0:0:0:
192,184,232820,5,0,0:0:0:0:
436,160,233070,1,0,0:0:0:0:
284,328,233320,1,0,0:0:0:0:
180,128,233570,1,0,0:0:0:0:
332,56,233820,1,0,0:0:0:0:
324,168,233986,2,0,L|224:232,1,112.499997138977
64,188,234320,6,0,L|176:108,1,112.499997138977
108,284,234653,6,0,L|-8:360,1,112.499997138977
260,192,234986,1,0,0:0:0:0:
260,192,235153,1,0,0:0:0:0:
468,100,235320,5,8,0:0:0:0:
468,156,235403,1,8,0:0:0:0:
468,212,235487,1,8,0:0:0:0:
268,316,235653,1,8,0:0:0:0:
224,280,235737,1,8,0:0:0:0:
348,108,235903,1,8,0:0:0:0:
308,68,235987,1,8,0:0:0:0:
252,68,236070,1,8,0:0:0:0:
208,104,236153,1,8,0:0:0:0:
184,156,236237,1,8,0:0:0:0:
128,156,236320,1,8,0:0:0:0:
100,108,236403,1,8,0:0:0:0:
144,72,236487,1,8,0:0:0:0:
96,40,236570,1,8,0:0:0:0:
256,192,236653,12,8,237653,0:0:0:0:
40,192,237987,5,4,0:0:0:0:
320,192,238153,1,4,0:0:0:0:
80,340,238320,1,8,0:0:0:0:
80,340,238403,1,8,0:0:0:0:
392,100,238653,5,4,0:0:0:0:
56,104,238903,1,4,0:0:0:0:
304,332,239153,1,8,0:0:0:0:
304,332,239237,1,8,0:0:0:0:
164,24,239487,5,4,0:0:0:0:
164,24,239653,1,4,0:0:0:0:
412,256,239820,1,4,0:0:0:0:
412,256,239987,1,4,0:0:0:0:
128,292,240153,1,4,0:0:0:0:
128,292,240320,1,4,0:0:0:0:
328,92,240487,1,4,0:0:0:0:
328,92,240653,1,4,0:0:0:0:
76,216,240820,5,2,0:0:0:0:
224,136,240987,1,2,0:0:0:0:
76,216,241153,1,2,0:0:0:0:
224,136,241320,1,2,0:0:0:0:
124,288,241487,1,2,0:0:0:0:
272,208,241653,1,2,0:0:0:0:
124,288,241820,1,2,0:0:0:0:
272,208,241987,1,2,0:0:0:0:
108,72,242153,6,0,L|136:120,1,56.2499985694885
364,288,242403,2,0,L|304:296,1,56.2499985694885
456,56,242653,2,0,L|512:28,1,56.2499985694885
224,220,242903,2,0,L|176:256,1,56.2499985694885
460,248,243153,1,2,0:0:0:0:
256,56,243487,6,0,L|200:88,1,56.2499985694885
92,280,243737,2,0,L|144:308,1,56.2499985694885
368,312,243987,2,0,L|300:292,1,56.2499985694885
356,76,244237,1,4,0:0:0:0:
40,196,244487,1,8,0:0:0:0:
40,196,244570,1,8,0:0:0:0:
320,192,244820,5,0,0:0:0:0:
432,192,244987,1,0,0:0:0:0:
432,76,245153,1,0,0:0:0:0:
319,76,245320,1,0,0:0:0:0:
208,80,245487,5,0,0:0:0:0:
96,80,245653,1,0,0:0:0:0:
96,196,245820,1,0,0:0:0:0:
209,196,245987,1,0,0:0:0:0:
240,304,246153,5,0,0:0:0:0:
56,52,246403,1,0,0:0:0:0:
304,80,246653,1,8,0:0:0:0:
344,120,246737,1,8,0:0:0:0:
364,172,246820,1,8,0:0:0:0:
368,228,246903,1,8,0:0:0:0:
344,280,246987,1,8,0:0:0:0:
304,320,247070,1,8,0:0:0:0:
256,340,247153,1,8,0:0:0:0:
200,340,247237,1,8,0:0:0:0:
156,304,247320,1,8,0:0:0:0:
248,160,247487,6,0,L|296:228,1,56.2499985694885
180,72,247737,2,0,L|136:8,1,56.2499985694885
100,180,247987,1,0,0:0:0:0:
56,76,248237,1,0,0:0:0:0:
4,176,248487,1,0,0:0:0:0:
332,104,248820,5,0,0:0:0:0:
80,328,249070,1,0,0:0:0:0:
416,344,249320,1,0,0:0:0:0:
224,68,249570,1,0,0:0:0:0:
500,264,249820,1,0,0:0:0:0:
288,184,250154,6,0,L|112:296,1,168.749995708466
120,52,250654,2,0,L|312:104,1,168.749995708466
188,300,251154,1,0,0:0:0:0:
348,244,251404,2,0,L|400:204,1,56.2499985694885
260,108,251654,2,0,L|232:160,1,56.2499985694885
80,228,251904,6,0,L|64:152,1,56.2499985694885
176,44,252154,2,0,L|160:104,1,56.2499985694885
428,192,252487,1,0,0:0:0:0:
428,192,252570,1,0,0:0:0:0:
256,192,259154,5,0,0:0:0:0:
108,192,259311,1,0,0:0:0:0:
232,276,259461,1,0,0:0:0:0:
172,140,259611,1,0,0:0:0:0:
148,288,259761,1,0,0:0:0:0:
248,176,259911,1,0,0:0:0:0:
104,220,260061,1,0,0:0:0:0:
248,256,260211,1,0,0:0:0:0:
144,148,260361,1,0,0:0:0:0:
176,296,260511,1,0,0:0:0:0:
228,156,260661,2,0,P|288:80|352:80,1,149.999990463257
432,192,260961,5,4,0:0:0:0:
284,196,261111,1,4,0:0:0:0:
412,276,261261,1,4,0:0:0:0:
264,276,261411,1,4,0:0:0:0:
140,344,261561,6,0,P|44:284|44:184,1,149.999990463257
320,160,261861,6,0,P|224:100|224:0,1,149.999990463257
464,240,262161,6,0,P|404:336|304:336,1,149.999990463257
252,72,262461,6,0,P|192:168|92:168,1,149.999990463257
288,260,262761,1,0,0:0:0:0:
140,272,262911,1,0,0:0:0:0:
308,172,263061,1,0,0:0:0:0:
160,188,263211,1,0,0:0:0:0:
364,120,263361,6,4,P|272:80|216:92,1,149.999990463257
156,304,263661,2,4,B|168:288|168:288|168:280|168:280|176:288|176:288|168:272|168:272|184:288|184:288|168:264|168:264|192:288|192:288|176:264|176:264|192:280|192:280|184:264|184:264|192:272|192:272|192:264|192:264|144:316,1,299.999980926514
148,88,264111,6,0,P|208:188|248:204,1,149.999990463257
420,88,264411,1,0,0:0:0:0:
272,256,264561,1,0,0:0:0:0:
120,92,264711,1,0,0:0:0:0:
120,317,264861,1,0,0:0:0:0:
320,216,265011,1,0,0:0:0:0:
116,120,265161,1,0,0:0:0:0:
332,184,265311,6,0,L|192:68,1,149.999990463257
0,152,265611,1,0,0:0:0:0:
44,336,265761,5,4,0:0:0:0:
164,248,265911,1,4,0:0:0:0:
16,256,266061,1,4,0:0:0:0:
140,168,266211,1,4,0:0:0:0:
24,20,266361,6,0,P|84:112|72:124,1,149.999990463257
380,104,266661,6,0,P|320:12|332:0,1,149.999990463257
360,304,266961,5,0,0:0:0:0:
208,140,267111,1,0,0:0:0:0:
104,340,267261,1,0,0:0:0:0:
360,304,267411,1,0,0:0:0:0:
148,236,267561,5,8,0:0:0:0:
204,288,267636,1,8,0:0:0:0:
260,336,267711,1,8,0:0:0:0:
364,228,267861,5,8,0:0:0:0:
308,180,267936,1,8,0:0:0:0:
252,128,268011,1,8,0:0:0:0:
128,316,268161,5,0,0:0:0:0:
336,228,268311,1,0,0:0:0:0:
284,8,268461,2,0,P|140:112|68:-4,1,299.999980926514
356,240,268911,1,0,0:0:0:0:
68,324,269061,2,0,L|200:216,1,149.999990463257
468,324,269361,5,0,0:0:0:0:
208,176,269511,1,0,0:0:0:0:
484,56,269661,2,0,L|352:164,1,149.999990463257
68,192,269961,5,0,0:0:0:0:
368,192,270111,1,0,0:0:0:0:
80,112,270261,1,0,0:0:0:0:
340,264,270411,1,0,0:0:0:0:
108,44,270561,6,4,L|296:44,1,149.999990463257
420,296,270861,6,4,L|232:296,1,149.999990463257
40,104,271161,1,0,0:0:0:0:
144,212,271311,1,0,0:0:0:0:
250,318,271461,2,0,L|303:371,2,74.9999952316285
124,104,271761,5,0,0:0:0:0:
230,210,271911,1,0,0:0:0:0:
336,316,272061,2,0,L|409:389,2,74.9999952316285
212,104,272361,5,0,0:0:0:0:
318,210,272511,1,0,0:0:0:0:
424,316,272661,2,0,L|481:373,2,74.9999952316285
60,324,272961,5,4,0:0:0:0:
56,176,273111,1,4,0:0:0:0:
140,300,273261,1,4,0:0:0:0:
140,150,273411,1,4,0:0:0:0:
356,68,273561,2,4,P|404:164|372:192,1,149.999990463257
88,192,273861,5,2,0:0:0:0:
448,300,274161,2,0,P|352:348|324:316,1,149.999990463257
320,32,274461,5,2,0:0:0:0:
88,324,274761,2,0,P|40:228|72:200,1,149.999990463257
356,212,275061,5,2,0:0:0:0:
132,196,275361,5,4,0:0:0:0:
248,104,275511,1,4,0:0:0:0:
196,244,275661,1,4,0:0:0:0:
172,96,275811,1,4,0:0:0:0:
268,212,275961,1,4,0:0:0:0:
128,160,276111,1,4,0:0:0:0:
64,296,276261,1,4,0:0:0:0:
364,304,276561,5,0,0:0:0:0:
460,188,276711,1,0,0:0:0:0:
312,172,276861,1,0,0:0:0:0:
56,16,277161,2,0,P|16:108|20:116,2,74.9999952316285
176,208,277461,2,0,B|184:192|184:192|180:184|180:184|188:184|188:184|180:176|180:176|188:176|188:176|180:168|180:168|188:168|188:168|180:160|180:160|188:160|188:160|180:152|180:152|188:152|188:152|180:144|180:144|188:144|188:144|180:136|180:136|188:136|188:136|180:128|180:128|188:128|188:128|180:120|180:120|188:120|188:120|180:112|180:112|188:112|188:112|180:104|180:104|188:104|188:104|180:96|180:96|188:96|188:96|180:88|180:88|188:88|188:88|180:80|180:80|188:80|188:80|180:72|180:72|188:72|188:72|192:64,1,299.999980926514
436,232,278061,2,8,L|524:232,4,74.9999952316285
292,148,278511,5,0,0:0:0:0:
180,152,278661,2,0,L|180:36,1,112.499997138977
180,152,278961,2,0,L|180:308,1,112.499997138977
292,268,279261,1,0,0:0:0:0:
380,200,279411,1,0,0:0:0:0:
376,88,279561,1,0,0:0:0:0:
468,20,279711,1,0,0:0:0:0:
480,128,279861,1,0,0:0:0:0:
468,240,280011,1,0,0:0:0:0:
380,308,280161,1,0,0:0:0:0:
272,340,280311,1,0,0:0:0:0:
200,252,280461,1,0,0:0:0:0:
348,192,280761,6,0,P|256:192|256:180,1,112.499997138977
172,144,281061,6,0,P|264:144|264:156,1,112.499997138977
348,192,281361,1,0,0:0:0:0:
427,271,281511,1,0,0:0:0:0:
320,308,281661,6,0,P|232:256|232:244,1,112.499997138977
228,148,281961,1,0,0:0:0:0:
228,36,282111,1,0,0:0:0:0:
228,148,282261,1,0,0:0:0:0:
176,248,282411,6,0,P|116:208|128:172,1,112.499997138977
232,148,282711,1,4,0:0:0:0:
176,248,282861,2,0,P|116:208|128:172,1,112.499997138977,8|0,0:0|0:0,0:0:0:0:
380,292,283161,5,0,0:0:0:0:
420,128,283311,1,0,0:0:0:0:
260,184,283461,2,0,P|220:132|232:84,1,112.499997138977
60,92,283761,5,0,0:0:0:0:
60,260,283911,1,0,0:0:0:0:
228,260,284061,1,0,0:0:0:0:
220,92,284211,1,0,0:0:0:0:
72,172,284361,5,0,0:0:0:0:
191,291,284511,1,0,0:0:0:0:
310,173,284661,1,0,0:0:0:0:
191,53,284811,1,0,0:0:0:0:
360,48,284961,6,0,L|449:140,1,112.499997138977
80,240,285261,1,0,0:0:0:0:
340,136,285561,5,0,0:0:0:0:
232,264,285711,1,0,0:0:0:0:
340,136,285861,2,0,L|476:136,1,112.499997138977
324,212,286161,1,0,0:0:0:0:
212,336,286311,1,0,0:0:0:0:
324,212,286461,2,0,L|448:212,1,112.499997138977
320,88,286761,5,0,0:0:0:0:
220,32,286911,1,0,0:0:0:0:
108,28,287061,1,0,0:0:0:0:
16,96,287211,1,0,0:0:0:0:
16,208,287361,1,0,0:0:0:0:
108,268,287511,1,0,0:0:0:0:
220,264,287661,2,0,B|284:196|254:136|352:80,1,224.999994277954
8,20,288261,5,2,0:0:0:0:
436,156,288561,1,2,0:0:0:0:
12,304,288861,1,2,0:0:0:0:
376,40,289161,1,2,0:0:0:0:
72,372,289461,1,2,0:0:0:0:
508,256,289761,1,2,0:0:0:0:
60,220,290061,1,2,0:0:0:0:
492,96,290361,1,0,0:0:0:0:
380,96,290511,1,0,0:0:0:0:
380,208,290661,2,0,L|152:208,1,224.999994277954
156,96,291111,1,0,0:0:0:0:
268,96,291261,6,0,L|268:216,1,112.499997138977
264,320,291561,1,0,0:0:0:0:
52,248,291861,1,4,0:0:0:0:
52,136,292011,1,4,0:0:0:0:
500,132,292311,1,4,0:0:0:0:
500,244,292461,1,4,0:0:0:0:
92,52,292761,5,2,0:0:0:0:
452,320,293061,1,2,0:0:0:0:
20,200,293361,1,2,0:0:0:0:
444,48,293661,1,2,0:0:0:0:
88,320,293961,1,2,0:0:0:0:
492,120,294261,1,2,0:0:0:0:
48,188,294561,1,2,0:0:0:0:
480,308,294861,1,2,0:0:0:0:
108,52,295161,1,0,0:0:0:0:
188,132,295311,1,0,0:0:0:0:
272,208,295461,2,0,L|356:88,1,112.499997138977
448,116,295761,1,0,0:0:0:0:
448,228,295911,1,0,0:0:0:0:
368,308,296061,6,0,L|308:308,3,56.2499985694885
68,192,297561,6,0,P|136:148|160:232,1,149.999990463257
472,188,297861,2,0,P|404:232|380:148,1,149.999990463257
172,84,298161,1,0,0:0:0:0:
276,284,298311,1,0,0:0:0:0:
16,12,298611,2,0,B|72:64|72:64|84:64|84:64|76:72|76:72|88:68|88:68|80:76|80:76|92:72|92:72|84:80|84:80|96:76|96:76|88:84|88:84|100:80|100:80|92:88|92:88|104:84|104:84|96:92|96:92|108:88|108:88|100:96|100:96|112:92|112:92|104:100|104:100|116:96|116:96|108:104|108:104|120:100|120:100|112:108|112:108|124:104|124:104|116:112|116:112|148:148|252:124,1,449.999971389771
444,124,299211,1,0,0:0:0:0:
228,188,299361,6,0,L|72:188,1,149.999990463257
352,308,299661,2,0,L|176:308,1,149.999990463257
332,124,299961,5,8,0:0:0:0:
332,124,300036,1,8,0:0:0:0:
332,124,300111,1,8,0:0:0:0:
112,176,300261,1,0,0:0:0:0:
328,232,300411,1,0,0:0:0:0:
104,256,300561,1,0,0:0:0:0:
320,312,300711,1,0,0:0:0:0:
44,56,301011,1,0,0:0:0:0:
424,296,301311,1,0,0:0:0:0:
8,124,301611,1,0,0:0:0:0:
452,44,301911,5,0,0:0:0:0:
340,240,302061,1,0,0:0:0:0:
40,232,302361,1,8,0:0:0:0:
40,232,302436,1,8,0:0:0:0:
40,232,302511,1,8,0:0:0:0:
228,108,302661,1,0,0:0:0:0:
224,332,302811,1,0,0:0:0:0:
380,188,302961,2,0,P|300:192|276:256,1,149.999990463257
0,40,303411,6,0,B|80:152|244:96|288:-16|464:132,1,449.999971389771
332,308,304011,1,0,0:0:0:0:
108,304,304161,1,0,0:0:0:0:
224,112,304311,1,0,0:0:0:0:
220,336,304461,1,0,0:0:0:0:
108,140,304611,1,0,0:0:0:0:
332,140,304761,2,0,L|488:140,1,149.999990463257
280,244,305061,6,0,L|160:128,1,149.999990463257
80,328,305361,5,0,0:0:0:0:
196,328,305511,1,0,0:0:0:0:
304,288,305661,2,0,B|192:256|192:256|172:220|172:220|28:176,1,299.999980926514
100,80,306111,1,0,0:0:0:0:
376,232,306411,1,0,0:0:0:0:
76,232,306711,5,0,0:0:0:0:
164,112,306861,1,0,0:0:0:0:
464,108,307161,5,0,0:0:0:0:
344,200,307311,1,0,0:0:0:0:
224,112,307461,1,0,0:0:0:0:
116,216,307611,2,0,P|294:152|362:24,1,299.999980926514
204,36,308061,5,0,0:0:0:0:
296,156,308211,2,0,P|444:364|428:384,1,299.999980926514
308,352,308661,6,0,L|264:192,1,149.999990463257
416,240,308961,5,0,0:0:0:0:
484,104,309111,1,0,0:0:0:0:
344,56,309261,1,0,0:0:0:0:
276,192,309411,1,0,0:0:0:0:
424,164,309561,5,0,0:0:0:0:
332,280,309711,1,0,0:0:0:0:
272,144,309861,1,0,0:0:0:0:
204,280,310011,5,0,0:0:0:0:
120,156,310161,1,0,0:0:0:0:
268,144,310311,2,0,P|268:-16|232:-40,1,149.999990463257
52,40,310761,5,0,0:0:0:0:
276,36,310911,1,0,0:0:0:0:
276,261,311061,1,0,0:0:0:0:
51,261,311211,1,0,0:0:0:0:
244,144,311361,1,8,0:0:0:0:
280,144,311436,1,8,0:0:0:0:
316,144,311511,1,8,0:0:0:0:
352,144,311586,1,8,0:0:0:0:
388,144,311661,1,8,0:0:0:0:
136,308,311961,6,0,P|72:168|96:128,1,149.999990463257
240,44,312261,1,0,0:0:0:0:
448,128,312411,2,0,P|304:272|228:248,1,299.999980926514
84,84,312861,1,0,0:0:0:0:
304,76,313011,2,0,P|264:304|188:300,1,299.999980926514
40,232,313461,6,0,L|148:96,1,149.999990463257
284,116,313761,1,0,0:0:0:0:
284,264,313911,1,0,0:0:0:0:
432,268,314061,1,0,0:0:0:0:
256,192,314211,12,0,315561,0:0:0:0:
256,64,319574,5,0,0:0:0:0:
184,276,319774,1,0,0:0:0:0:
52,92,319974,1,0,0:0:0:0:
236,220,320174,5,0,0:0:0:0:
248,256,320274,1,0,0:0:0:0:
272,284,320374,1,0,0:0:0:0:
304,304,320474,1,0,0:0:0:0:
340,312,320574,1,0,0:0:0:0:
420,100,320774,2,0,L|472:100,4,37.4999976158143
172,236,321174,5,4,0:0:0:0:
392,184,321374,2,4,L|340:272,1,74.9999952316285
76,140,321674,2,4,L|128:52,1,74.9999952316285
356,252,321974,2,4,L|304:340,1,74.9999952316285
40,200,322274,2,4,L|92:112,1,74.9999952316285
296,76,322574,1,0,0:0:0:0:
448,244,322774,5,0,0:0:0:0:
148,240,322974,1,0,0:0:0:0:
388,60,323174,1,0,0:0:0:0:
96,44,323374,1,0,0:0:0:0:
96,120,323474,1,0,0:0:0:0:
96,196,323574,1,0,0:0:0:0:
96,272,323674,1,0,0:0:0:0:
96,348,323774,1,0,0:0:0:0:
292,168,323974,2,0,L|344:168,4,37.4999976158143
108,308,324374,6,4,P|80:112|104:60,1,224.999994277954
476,20,324774,6,4,P|504:216|480:268,1,224.999994277954
108,308,325174,6,4,P|80:112|104:60,1,224.999994277954
476,20,325574,6,4,P|504:216|480:268,1,224.999994277954
164,192,325974,1,0,0:0:0:0:
420,312,326174,1,0,0:0:0:0:
372,36,326374,1,0,0:0:0:0:
260,292,326574,1,0,0:0:0:0:
212,324,326674,1,0,0:0:0:0:
156,332,326774,1,0,0:0:0:0:
104,316,326874,1,0,0:0:0:0:
64,276,326974,1,0,0:0:0:0:
252,68,327174,2,0,L|308:152,4,56.2499985694885
468,248,327574,5,4,0:0:0:0:
188,212,327774,1,4,0:0:0:0:
188,212,327874,1,4,0:0:0:0:
428,68,328074,1,4,0:0:0:0:
428,68,328174,1,4,0:0:0:0:
148,56,328374,1,4,0:0:0:0:
148,56,328474,1,4,0:0:0:0:
32,312,328674,5,4,0:0:0:0:
32,312,328774,2,4,L|88:312,7,56.2499985694885
452,172,329374,5,0,0:0:0:0:
128,80,329574,1,0,0:0:0:0:
352,332,329774,1,0,0:0:0:0:
288,296,329874,1,0,0:0:0:0:
248,236,329974,1,0,0:0:0:0:
244,164,330074,1,0,0:0:0:0:
272,96,330174,1,0,0:0:0:0:
100,244,330374,1,0,0:0:0:0:
128,304,330474,1,0,0:0:0:0:
172,344,330574,1,0,0:0:0:0:
484,340,330774,6,4,P|515:214|469:93,1,262.499985814095
84,16,331174,6,4,P|53:142|99:263,1,262.499985814095
484,340,331574,6,4,P|515:214|469:93,1,262.499985814095
84,16,331974,6,4,P|53:142|99:263,1,262.499985814095
376,84,332374,5,0,0:0:0:0:
316,92,332474,1,0,0:0:0:0:
256,104,332574,1,0,0:0:0:0:
196,116,332674,1,0,0:0:0:0:
140,132,332774,1,0,0:0:0:0:
84,140,332874,1,0,0:0:0:0:
40,144,332974,2,0,P|-1:217|4:272,1,131.249992907047
56,288,333174,1,0,0:0:0:0:
376,224,333374,5,0,0:0:0:0:
376,160,333474,1,0,0:0:0:0:
140,44,333674,5,0,0:0:0:0:
80,72,333774,1,0,0:0:0:0:
79,133,333874,1,0,0:0:0:0:
80,200,333974,1,0,0:0:0:0:
80,260,334074,1,0,0:0:0:0:
369,87,334324,1,0,0:0:0:0:
252,224,334574,5,0,0:0:0:0:
216,280,334674,1,0,0:0:0:0:
280,72,334924,5,0,0:0:0:0:
72,332,335174,1,0,0:0:0:0:
256,144,335374,1,0,0:0:0:0:
482,215,335574,1,0,0:0:0:0:
512,272,335674,1,0,0:0:0:0:
497,335,335774,1,0,0:0:0:0:
444,372,335874,1,0,0:0:0:0:
380,366,335974,1,0,0:0:0:0:
148,132,336174,1,0,0:0:0:0:
112,80,336274,1,0,0:0:0:0:
192,344,336574,5,0,0:0:0:0:
224,288,336674,1,0,0:0:0:0:
224,224,336774,1,0,0:0:0:0:
208,32,336974,1,0,0:0:0:0:
460,44,337174,6,0,P|196:328|88:272,1,524.999971628189
84,272,337674,1,0,0:0:0:0:
44,156,337874,1,0,0:0:0:0:
56,92,337974,1,0,0:0:0:0:
96,36,338074,1,0,0:0:0:0:
212,100,338274,2,0,L|212:240,1,131.249992907047
204,364,338524,2,0,L|64:328,1,131.249992907047
132,192,338774,5,8,0:0:0:0:
176,132,338874,1,8,0:0:0:0:
228,84,338974,1,8,0:0:0:0:
284,48,339074,1,8,0:0:0:0:
344,12,339174,2,4,P|476:188|476:204,2,196.874989360571
216,20,339574,5,8,0:0:0:0:
156,64,339674,1,8,0:0:0:0:
108,116,339774,1,8,0:0:0:0:
72,172,339874,1,8,0:0:0:0:
36,232,339974,2,4,P|212:364|228:364,2,196.874989360571
156,232,340374,5,8,0:0:0:0:
220,228,340474,1,8,0:0:0:0:
284,224,340574,1,8,0:0:0:0:
348,220,340674,1,8,0:0:0:0:
412,216,340774,2,4,P|256:112|248:112,2,196.874989360571
396,280,341174,1,8,0:0:0:0:
324,304,341274,1,8,0:0:0:0:
252,308,341374,1,8,0:0:0:0:
188,308,341474,1,8,0:0:0:0:
88,144,341674,6,8,L|268:112,1,131.249992907047
284,112,341874,1,8,0:0:0:0:
348,104,341974,1,8,0:0:0:0:
464,260,342174,5,8,0:0:0:0:
464,260,342274,1,8,0:0:0:0:
204,240,342474,1,8,0:0:0:0:
156,196,342574,1,8,0:0:0:0:
152,132,342674,1,8,0:0:0:0:
200,84,342774,1,8,0:0:0:0:
264,76,342874,1,8,0:0:0:0:
336,328,343074,1,8,0:0:0:0:
336,328,343174,1,8,0:0:0:0:
420,80,343374,5,0,0:0:0:0:
28,48,343574,2,4,P|40:296|76:356,1,262.499985814095
500,344,343974,6,4,P|488:96|452:36,1,262.499985814095,0|0,0:0|0:0,0:0:0:0:
28,48,344374,6,4,P|40:296|76:356,1,262.499985814095
500,344,344774,6,2,B|500:272|500:272|488:268|488:268|508:268|508:268|488:264|488:264|508:264|508:264|488:260|488:260|508:260|508:260|488:256|488:256|508:256|508:256|488:252|488:252|500:240|500:240|504:224|504:224,1,262.499985814095
456,188,349840,6,0,B|392:172|292:219|116:168,1,337.499991416931
136,32,350840,6,0,L|360:48,1,224.999994277954
392,116,351465,2,0,P|452:68|500:212,1,281.249992847443
456,248,352215,2,0,P|344:200|356:136,2,196.87499499321
400,44,353465,1,0,0:0:0:0:
316,212,353715,5,0,0:0:0:0:
360,240,353840,2,0,P|444:208|364:80,1,281.249992847443
176,36,354840,5,0,0:0:0:0:
112,216,355090,1,0,0:0:0:0:
324,284,355340,2,0,P|236:312|176:268,1,168.749995708466
232,24,355965,5,0,0:0:0:0:
372,176,356215,1,0,0:0:0:0:
180,296,356465,2,0,L|112:208,1,84.3749978542328
384,76,356902,6,0,P|432:88|484:112,1,84.3749978542328
296,224,357340,2,0,B|212:208|232:16|412:32|524:184|460:348|296:376|244:336|184:292|168:176,1,674.999982833862
408,248,359090,6,0,P|313:199|240:216,1,168.749995708466
96,120,359777,2,0,P|228:88|240:88,1,140.624996423721
460,228,360465,2,0,P|436:324|276:284,1,281.249992847443
212,188,361340,1,0,0:0:0:0:
296,84,361527,1,0,0:0:0:0:
416,136,361715,2,0,P|448:248|444:260,1,112.499997138977
288,288,362152,2,0,P|212:276|136:112,1,253.124993562698
48,320,362965,5,0,0:0:0:0:
304,48,363340,1,0,0:0:0:0:
428,304,363715,2,0,P|332:288|272:248,1,168.749995708466
336,164,364340,5,0,0:0:0:0:
204,220,364590,2,0,L|252:168,3,56.2499985694885
412,304,365340,2,0,P|460:176|308:100,1,337.499991416931
76,72,366340,1,0,0:0:0:0:
96,260,366715,2,0,P|200:272|332:208,1,224.999985694886
148,68,367465,1,0,0:0:0:0:
496,252,367840,2,0,P|480:304|388:332,1,149.999990463257
32,188,369340,5,0,0:0:0:0:
260,336,369882,2,0,B|284:272|312:240|336:244|364:264|432:176|404:152|480:140|444:40|340:0|300:48|272:80|272:80|268:92|268:92|260:96|260:96|256:104|256:104|252:96|252:96|244:92|244:92|240:80|240:80|212:48|172:0|60:40|28:144|124:160|96:192|148:264|180:240|204:248|228:272|248:328,1,984.374974966049
260,248,374882,6,0,B|304:228|316:248|312:276|332:312|324:362|268:378|193:368|160:340|136:326|112:286|92:206|136:138|236:118|300:160|300:160|320:155|320:155|384:84|384:84|372:40|372:40|424:40|424:40|424:88|424:88|432:104,1,843.749978542328
