osu file format v14

[General]
AudioFilename: Warak - REANIMATE.mp3
AudioLeadIn: 0
PreviewTime: 46580
Countdown: 0
SampleSet: Soft
StackLeniency: 0.7
Mode: 3
LetterboxInBreaks: 0
SpecialStyle: 0
WidescreenStoryboard: 1

[Editor]
Bookmarks: 128305
DistanceSpacing: 0.8
BeatDivisor: 4
GridSize: 4
TimelineZoom: 1.3

[Metadata]
Title:5K Madness by Happy15
TitleUnicode:5K Madness by Happy15
Artist:Various
ArtistUnicode:Various
Creator:JamesHappy15
Version:Warak - REANIMATE
Source:
Tags:
BeatmapID:0
BeatmapSetID:-1

[Difficulty]
HPDrainRate:7
CircleSize:5
OverallDifficulty:7
ApproachRate:5
SliderMultiplier:1.4
SliderTickRate:1

[Events]
//Background and Video events
0,0,"howdoieven.jpg",0,0
//Break Periods
//Storyboard Layer 0 (Background)
//Storyboard Layer 1 (Fail)
//Storyboard Layer 2 (Pass)
//Storyboard Layer 3 (Foreground)
//Storyboard Sound Samples

[TimingPoints]
2443,344.827586206897,4,2,1,50,1,0
57615,-100,4,2,1,50,0,1
68563,-100,4,2,1,50,0,0
68649,-100,4,2,1,50,0,1
79684,-100,4,2,1,50,0,0
101753,-100,4,2,2,28,0,0
118305,-100,4,2,1,50,0,1
129253,-100,4,2,1,50,0,0
129339,-100,4,2,1,50,0,1
140374,-100,4,2,1,50,0,0
145891,-100,4,2,2,28,0,0
150374,-100,4,2,1,50,0,0

[HitObjects]
256,192,1408,128,0,2443:0:0:0:0:
153,192,2443,1,0,0:0:0:0:
51,192,2443,1,0,0:0:0:0:
460,192,2443,1,0,0:0:0:0:
358,192,2529,1,0,0:0:0:0:
256,192,2615,1,0,0:0:0:0:
153,192,2701,1,0,0:0:0:0:
51,192,2787,1,0,0:0:0:0:
358,192,2787,1,0,0:0:0:0:
460,192,2960,1,0,0:0:0:0:
256,192,2960,1,0,0:0:0:0:
153,192,3132,1,0,0:0:0:0:
358,192,3132,1,0,0:0:0:0:
51,192,3477,1,0,0:0:0:0:
153,192,3563,1,0,0:0:0:0:
256,192,3649,1,0,0:0:0:0:
358,192,3736,1,0,0:0:0:0:
460,192,3822,1,0,0:0:0:0:
153,192,3822,1,0,0:0:0:0:
358,192,3994,1,0,0:0:0:0:
51,192,3994,1,0,0:0:0:0:
460,192,4167,1,0,0:0:0:0:
153,192,4167,128,0,4856:0:0:0:0:
460,192,4511,1,0,0:0:0:0:
256,192,4684,1,0,0:0:0:0:
51,192,4856,128,0,5201:0:0:0:0:
460,192,5201,1,0,0:0:0:0:
358,192,5287,1,0,0:0:0:0:
256,192,5374,1,0,0:0:0:0:
153,192,5460,1,0,0:0:0:0:
51,192,5546,1,0,0:0:0:0:
358,192,5546,1,0,0:0:0:0:
153,192,5718,1,0,0:0:0:0:
460,192,5718,1,0,0:0:0:0:
51,192,5891,1,0,0:0:0:0:
358,192,5891,1,0,0:0:0:0:
51,192,6236,1,0,0:0:0:0:
256,192,6236,1,0,0:0:0:0:
358,192,6408,1,0,0:0:0:0:
153,192,6408,1,0,0:0:0:0:
256,192,6580,1,0,0:0:0:0:
460,192,6580,1,0,0:0:0:0:
256,192,6839,1,0,0:0:0:0:
460,192,6925,1,0,0:0:0:0:
51,192,6925,1,0,0:0:0:0:
256,192,7270,1,0,0:0:0:0:
153,192,7615,1,0,0:0:0:0:
51,192,7960,1,0,0:0:0:0:
153,192,8046,1,0,0:0:0:0:
256,192,8132,1,0,0:0:0:0:
358,192,8218,1,0,0:0:0:0:
460,192,8305,1,0,0:0:0:0:
51,192,8305,1,0,0:0:0:0:
153,192,8477,1,0,0:0:0:0:
358,192,8477,1,0,0:0:0:0:
51,192,8649,1,0,0:0:0:0:
256,192,8649,1,0,0:0:0:0:
51,192,8994,1,0,0:0:0:0:
256,192,8994,1,0,0:0:0:0:
153,192,9167,1,0,0:0:0:0:
358,192,9167,1,0,0:0:0:0:
256,192,9339,1,0,0:0:0:0:
460,192,9339,1,0,0:0:0:0:
460,192,9511,1,0,0:0:0:0:
256,192,9598,1,0,0:0:0:0:
51,192,9684,1,0,0:0:0:0:
153,192,9770,1,0,0:0:0:0:
256,192,9856,1,0,0:0:0:0:
358,192,9943,1,0,0:0:0:0:
153,192,10029,1,0,0:0:0:0:
460,192,10029,128,0,10374:0:0:0:0:
51,192,10201,1,0,0:0:0:0:
153,192,10287,1,0,0:0:0:0:
256,192,10374,1,0,0:0:0:0:
51,192,10546,1,0,0:0:0:0:
256,192,10632,1,0,0:0:0:0:
460,192,10718,1,0,0:0:0:0:
358,192,10718,1,0,0:0:0:0:
460,192,10977,1,0,0:0:0:0:
358,192,11063,1,0,0:0:0:0:
256,192,11149,1,0,0:0:0:0:
358,192,11322,1,0,0:0:0:0:
256,192,11408,1,0,0:0:0:0:
153,192,11494,1,0,0:0:0:0:
256,192,11667,1,0,0:0:0:0:
153,192,11753,1,0,0:0:0:0:
51,192,11839,1,0,0:0:0:0:
460,192,12011,1,0,0:0:0:0:
256,192,12098,1,0,0:0:0:0:
51,192,12184,1,0,0:0:0:0:
358,192,12270,1,0,0:0:0:0:
256,192,12356,1,0,0:0:0:0:
153,192,12443,1,0,0:0:0:0:
256,192,12787,1,0,0:0:0:0:
153,192,13132,1,0,0:0:0:0:
256,192,13477,128,0,14167:0:0:0:0:
51,192,13477,1,0,0:0:0:0:
358,192,13563,1,0,0:0:0:0:
153,192,13649,1,0,0:0:0:0:
460,192,13736,1,0,0:0:0:0:
51,192,13822,1,0,0:0:0:0:
358,192,13822,1,0,0:0:0:0:
358,192,13994,1,0,0:0:0:0:
153,192,13994,1,0,0:0:0:0:
51,192,14167,1,0,0:0:0:0:
460,192,14167,1,0,0:0:0:0:
51,192,14511,1,0,0:0:0:0:
460,192,14598,1,0,0:0:0:0:
153,192,14684,1,0,0:0:0:0:
358,192,14770,1,0,0:0:0:0:
51,192,14856,1,0,0:0:0:0:
256,192,14856,1,0,0:0:0:0:
358,192,15029,1,0,0:0:0:0:
153,192,15029,1,0,0:0:0:0:
256,192,15201,1,0,0:0:0:0:
460,192,15201,1,0,0:0:0:0:
51,192,15546,1,0,0:0:0:0:
153,192,15546,1,0,0:0:0:0:
256,192,15546,1,0,0:0:0:0:
358,192,15718,1,0,0:0:0:0:
153,192,15891,1,0,0:0:0:0:
153,192,16236,128,0,16925:0:0:0:0:
51,192,16236,1,0,0:0:0:0:
460,192,16322,1,0,0:0:0:0:
358,192,16408,1,0,0:0:0:0:
256,192,16494,1,0,0:0:0:0:
51,192,16580,1,0,0:0:0:0:
358,192,16580,1,0,0:0:0:0:
460,192,16753,1,0,0:0:0:0:
256,192,16753,1,0,0:0:0:0:
51,192,16925,1,0,0:0:0:0:
358,192,16925,1,0,0:0:0:0:
460,192,16925,1,0,0:0:0:0:
460,192,17270,1,0,0:0:0:0:
256,192,17270,1,0,0:0:0:0:
153,192,17443,1,0,0:0:0:0:
358,192,17443,1,0,0:0:0:0:
51,192,17615,1,0,0:0:0:0:
256,192,17615,1,0,0:0:0:0:
358,192,17874,1,0,0:0:0:0:
51,192,17960,1,0,0:0:0:0:
460,192,17960,1,0,0:0:0:0:
153,192,18305,1,0,0:0:0:0:
51,192,18305,1,0,0:0:0:0:
358,192,18305,1,0,0:0:0:0:
256,192,18649,1,0,0:0:0:0:
153,192,18994,1,0,0:0:0:0:
460,192,18994,1,0,0:0:0:0:
51,192,18994,128,0,19684:0:0:0:0:
256,192,19080,1,0,0:0:0:0:
460,192,19167,1,0,0:0:0:0:
358,192,19253,1,0,0:0:0:0:
256,192,19339,1,0,0:0:0:0:
153,192,19339,1,0,0:0:0:0:
153,192,19511,1,0,0:0:0:0:
358,192,19511,1,0,0:0:0:0:
256,192,19684,1,0,0:0:0:0:
460,192,19684,1,0,0:0:0:0:
153,192,20029,1,0,0:0:0:0:
358,192,20029,1,0,0:0:0:0:
51,192,20201,1,0,0:0:0:0:
460,192,20201,1,0,0:0:0:0:
153,192,20374,1,0,0:0:0:0:
358,192,20374,1,0,0:0:0:0:
51,192,20546,1,0,0:0:0:0:
153,192,20632,1,0,0:0:0:0:
256,192,20718,1,0,0:0:0:0:
460,192,20718,1,0,0:0:0:0:
358,192,20805,1,0,0:0:0:0:
256,192,20891,1,0,0:0:0:0:
153,192,20977,1,0,0:0:0:0:
460,192,21063,1,0,0:0:0:0:
51,192,21063,1,0,0:0:0:0:
256,192,21063,128,0,21753:0:0:0:0:
358,192,21580,1,0,0:0:0:0:
153,192,21667,1,0,0:0:0:0:
51,192,21753,1,0,0:0:0:0:
358,192,21753,1,0,0:0:0:0:
460,192,21753,1,0,0:0:0:0:
153,192,21925,1,0,0:0:0:0:
256,192,22011,1,0,0:0:0:0:
460,192,22098,1,0,0:0:0:0:
358,192,22184,1,0,0:0:0:0:
256,192,22270,1,0,0:0:0:0:
153,192,22356,1,0,0:0:0:0:
358,192,22443,1,0,0:0:0:0:
460,192,22443,1,0,0:0:0:0:
51,192,22443,128,0,22960:0:0:0:0:
358,192,23046,1,0,0:0:0:0:
256,192,23132,1,0,0:0:0:0:
460,192,23132,128,0,23822:0:0:0:0:
153,192,23305,1,0,0:0:0:0:
358,192,23305,1,0,0:0:0:0:
153,192,23477,1,0,0:0:0:0:
358,192,23477,1,0,0:0:0:0:
51,192,23822,1,0,0:0:0:0:
153,192,23822,1,0,0:0:0:0:
256,192,23822,1,0,0:0:0:0:
256,192,24511,1,0,0:0:0:0:
153,192,24511,1,0,0:0:0:0:
358,192,24511,1,0,0:0:0:0:
460,192,24856,128,0,26236:0:0:0:0:
153,192,25201,128,0,26236:0:0:0:0:
358,192,25546,128,0,26236:0:0:0:0:
51,192,25891,128,0,26236:0:0:0:0:
256,192,26236,128,0,27270:0:0:0:0:
460,192,26580,128,0,27270:0:0:0:0:
51,192,26580,128,0,27270:0:0:0:0:
153,192,26925,128,0,27270:0:0:0:0:
358,192,26925,128,0,27270:0:0:0:0:
256,192,27443,1,0,0:0:0:0:
51,192,27615,128,0,28994:0:0:0:0:
153,192,27960,128,0,28994:0:0:0:0:
256,192,28477,128,0,28994:0:0:0:0:
358,192,28649,128,0,28994:0:0:0:0:
460,192,28994,128,0,30029:0:0:0:0:
358,192,29339,128,0,30029:0:0:0:0:
153,192,29339,128,0,30029:0:0:0:0:
256,192,29684,128,0,30029:0:0:0:0:
51,192,29684,128,0,30029:0:0:0:0:
256,192,30201,1,0,0:0:0:0:
460,192,30374,128,0,32787:0:0:0:0:
153,192,30718,128,0,32787:0:0:0:0:
358,192,31063,128,0,32787:0:0:0:0:
51,192,31408,128,0,32787:0:0:0:0:
256,192,31753,1,0,0:0:0:0:
256,192,32098,128,0,32787:0:0:0:0:
51,192,33132,128,0,35546:0:0:0:0:
358,192,33477,128,0,35546:0:0:0:0:
153,192,33822,128,0,35546:0:0:0:0:
256,192,34167,128,0,35546:0:0:0:0:
460,192,34684,1,0,0:0:0:0:
460,192,34856,128,0,35546:0:0:0:0:
256,192,35718,1,0,0:0:0:0:
460,192,35891,128,0,37270:0:0:0:0:
51,192,36236,128,0,37270:0:0:0:0:
256,192,36236,128,0,36925:0:0:0:0:
358,192,36580,128,0,37270:0:0:0:0:
153,192,36925,128,0,37270:0:0:0:0:
256,192,37270,128,0,38305:0:0:0:0:
358,192,37615,128,0,38305:0:0:0:0:
51,192,37615,128,0,38305:0:0:0:0:
460,192,37960,128,0,38305:0:0:0:0:
153,192,37960,128,0,38305:0:0:0:0:
256,192,38477,1,0,0:0:0:0:
51,192,38649,128,0,40029:0:0:0:0:
256,192,38994,128,0,40029:0:0:0:0:
153,192,39511,128,0,40029:0:0:0:0:
460,192,39684,128,0,40029:0:0:0:0:
358,192,40029,128,0,41063:0:0:0:0:
256,192,40374,128,0,41063:0:0:0:0:
51,192,40374,128,0,41063:0:0:0:0:
153,192,40718,128,0,41063:0:0:0:0:
460,192,40718,128,0,41063:0:0:0:0:
256,192,41236,1,0,0:0:0:0:
460,192,41408,128,0,43305:0:0:0:0:
358,192,41753,128,0,43649:0:0:0:0:
256,192,42098,128,0,43649:0:0:0:0:
153,192,42443,128,0,44339:0:0:0:0:
51,192,42960,1,0,0:0:0:0:
51,192,43132,128,0,44339:0:0:0:0:
460,192,43477,128,0,45029:0:0:0:0:
358,192,43822,128,0,45029:0:0:0:0:
256,192,43822,128,0,45029:0:0:0:0:
153,192,44511,128,0,45029:0:0:0:0:
51,192,44511,128,0,45029:0:0:0:0:
51,192,45201,1,0,0:0:0:0:
256,192,45201,1,0,0:0:0:0:
460,192,45201,1,0,0:0:0:0:
358,192,45201,128,0,45374:0:0:0:0:
153,192,45201,128,0,45374:0:0:0:0:
51,192,45546,128,0,45891:0:0:0:0:
460,192,45546,128,0,45891:0:0:0:0:
256,192,45546,128,0,45891:0:0:0:0:
358,192,45891,128,0,46580:0:0:0:0:
153,192,45891,128,0,46580:0:0:0:0:
256,192,46236,128,0,46580:0:0:0:0:
51,192,46580,1,0,0:0:0:0:
460,192,46580,1,0,0:0:0:0:
153,192,46925,1,0,0:0:0:0:
358,192,46925,1,0,0:0:0:0:
51,192,47270,1,0,0:0:0:0:
256,192,47270,1,0,0:0:0:0:
256,192,47443,1,0,0:0:0:0:
460,192,47443,1,0,0:0:0:0:
256,192,47615,1,0,0:0:0:0:
51,192,47615,1,0,0:0:0:0:
256,192,47787,1,0,0:0:0:0:
460,192,47787,1,0,0:0:0:0:
358,192,47960,1,0,0:0:0:0:
153,192,47960,1,0,0:0:0:0:
256,192,47960,1,0,0:0:0:0:
51,192,48305,1,0,0:0:0:0:
153,192,48305,1,0,0:0:0:0:
358,192,48649,128,0,49339:0:0:0:0:
460,192,48649,128,0,49339:0:0:0:0:
153,192,48822,1,0,0:0:0:0:
256,192,48994,1,0,0:0:0:0:
51,192,48994,1,0,0:0:0:0:
153,192,49167,1,0,0:0:0:0:
51,192,49339,1,0,0:0:0:0:
256,192,49339,1,0,0:0:0:0:
256,192,49684,1,0,0:0:0:0:
51,192,49684,128,0,49856:0:0:0:0:
460,192,49684,128,0,49856:0:0:0:0:
256,192,49856,1,0,0:0:0:0:
153,192,49856,128,0,50029:0:0:0:0:
358,192,49856,128,0,50029:0:0:0:0:
256,192,50029,1,0,0:0:0:0:
51,192,50029,128,0,50201:0:0:0:0:
460,192,50029,128,0,50201:0:0:0:0:
256,192,50201,1,0,0:0:0:0:
153,192,50201,128,0,50374:0:0:0:0:
358,192,50201,128,0,50374:0:0:0:0:
256,192,50374,1,0,0:0:0:0:
51,192,50374,128,0,50546:0:0:0:0:
460,192,50374,128,0,50546:0:0:0:0:
256,192,50546,1,0,0:0:0:0:
153,192,50546,128,0,50718:0:0:0:0:
358,192,50546,128,0,50718:0:0:0:0:
51,192,50718,1,0,0:0:0:0:
460,192,50718,1,0,0:0:0:0:
256,192,50718,128,0,51063:0:0:0:0:
358,192,50891,128,0,51236:0:0:0:0:
153,192,51063,128,0,51408:0:0:0:0:
51,192,51063,1,0,0:0:0:0:
256,192,51236,128,0,51580:0:0:0:0:
51,192,51408,128,0,51753:0:0:0:0:
460,192,51580,1,0,0:0:0:0:
153,192,51580,128,0,51925:0:0:0:0:
358,192,51667,1,0,0:0:0:0:
460,192,51753,1,0,0:0:0:0:
358,192,51925,1,0,0:0:0:0:
256,192,51925,128,0,52098:0:0:0:0:
153,192,52098,1,0,0:0:0:0:
460,192,52098,1,0,0:0:0:0:
51,192,52098,128,0,52443:0:0:0:0:
460,192,52443,1,0,0:0:0:0:
153,192,52443,1,0,0:0:0:0:
256,192,52787,1,0,0:0:0:0:
460,192,52787,1,0,0:0:0:0:
256,192,52874,1,0,0:0:0:0:
51,192,52874,1,0,0:0:0:0:
256,192,52960,1,0,0:0:0:0:
460,192,52960,1,0,0:0:0:0:
256,192,53132,1,0,0:0:0:0:
51,192,53132,1,0,0:0:0:0:
153,192,53132,1,0,0:0:0:0:
256,192,53305,128,0,53477:0:0:0:0:
51,192,53477,1,0,0:0:0:0:
358,192,53477,1,0,0:0:0:0:
460,192,53477,1,0,0:0:0:0:
153,192,53477,128,0,53822:0:0:0:0:
256,192,53649,1,0,0:0:0:0:
51,192,53822,1,0,0:0:0:0:
460,192,53822,1,0,0:0:0:0:
256,192,53994,128,0,54856:0:0:0:0:
358,192,53994,128,0,54856:0:0:0:0:
460,192,54167,128,0,54856:0:0:0:0:
153,192,54339,1,0,0:0:0:0:
51,192,54511,1,0,0:0:0:0:
153,192,54511,1,0,0:0:0:0:
51,192,54684,1,0,0:0:0:0:
51,192,54856,1,0,0:0:0:0:
153,192,54856,128,0,55029:0:0:0:0:
256,192,55201,1,0,0:0:0:0:
51,192,55201,1,0,0:0:0:0:
256,192,55287,1,0,0:0:0:0:
460,192,55287,1,0,0:0:0:0:
256,192,55374,1,0,0:0:0:0:
51,192,55374,1,0,0:0:0:0:
256,192,55460,1,0,0:0:0:0:
460,192,55460,1,0,0:0:0:0:
256,192,55546,1,0,0:0:0:0:
51,192,55546,1,0,0:0:0:0:
256,192,55718,1,0,0:0:0:0:
153,192,55718,1,0,0:0:0:0:
256,192,55891,1,0,0:0:0:0:
358,192,55891,1,0,0:0:0:0:
256,192,56063,1,0,0:0:0:0:
153,192,56063,1,0,0:0:0:0:
358,192,56236,1,0,0:0:0:0:
460,192,56236,1,0,0:0:0:0:
51,192,56236,128,0,56580:0:0:0:0:
153,192,56580,128,0,56925:0:0:0:0:
256,192,56580,1,0,0:0:0:0:
460,192,56580,1,0,0:0:0:0:
51,192,56925,128,0,57615:0:0:0:0:
256,192,56925,1,0,0:0:0:0:
358,192,57011,1,0,0:0:0:0:
460,192,57098,1,0,0:0:0:0:
153,192,57184,1,0,0:0:0:0:
460,192,57270,128,0,57615:0:0:0:0:
256,192,57270,1,0,0:0:0:0:
358,192,57270,1,0,0:0:0:0:
256,192,57615,1,0,0:0:0:0:
358,192,57615,1,0,0:0:0:0:
153,192,57615,1,0,0:0:0:0:
51,192,57960,1,0,0:0:0:0:
358,192,57960,1,0,0:0:0:0:
153,192,58132,1,0,0:0:0:0:
256,192,58305,1,0,0:0:0:0:
460,192,58305,1,0,0:0:0:0:
51,192,58477,1,0,0:0:0:0:
256,192,58477,1,0,0:0:0:0:
256,192,58649,1,0,0:0:0:0:
460,192,58649,1,0,0:0:0:0:
153,192,58649,1,0,0:0:0:0:
358,192,58822,1,0,0:0:0:0:
51,192,58822,1,0,0:0:0:0:
256,192,58994,1,0,0:0:0:0:
51,192,58994,128,0,59167:0:0:0:0:
358,192,58994,128,0,59167:0:0:0:0:
256,192,59167,1,0,0:0:0:0:
153,192,59167,128,0,59339:0:0:0:0:
460,192,59167,128,0,59339:0:0:0:0:
256,192,59339,1,0,0:0:0:0:
51,192,59339,128,0,59511:0:0:0:0:
358,192,59339,128,0,59511:0:0:0:0:
256,192,59511,1,0,0:0:0:0:
153,192,59511,128,0,59684:0:0:0:0:
460,192,59511,128,0,59684:0:0:0:0:
256,192,59684,1,0,0:0:0:0:
51,192,59684,128,0,59856:0:0:0:0:
358,192,59684,128,0,59856:0:0:0:0:
256,192,59856,1,0,0:0:0:0:
153,192,59856,128,0,60029:0:0:0:0:
460,192,59856,128,0,60029:0:0:0:0:
256,192,60029,1,0,0:0:0:0:
51,192,60029,1,0,0:0:0:0:
358,192,60029,128,0,60374:0:0:0:0:
256,192,60201,128,0,60374:0:0:0:0:
153,192,60201,128,0,60374:0:0:0:0:
51,192,60374,1,0,0:0:0:0:
460,192,60374,128,0,61753:0:0:0:0:
358,192,60718,1,0,0:0:0:0:
51,192,61063,128,0,61753:0:0:0:0:
358,192,61236,1,0,0:0:0:0:
256,192,61408,1,0,0:0:0:0:
153,192,61408,1,0,0:0:0:0:
358,192,61753,128,0,62443:0:0:0:0:
153,192,61753,1,0,0:0:0:0:
256,192,61753,1,0,0:0:0:0:
153,192,62098,1,0,0:0:0:0:
256,192,62098,1,0,0:0:0:0:
51,192,62270,128,0,62615:0:0:0:0:
153,192,62443,128,0,62787:0:0:0:0:
256,192,62615,128,0,62960:0:0:0:0:
460,192,62615,1,0,0:0:0:0:
358,192,62701,1,0,0:0:0:0:
460,192,62787,1,0,0:0:0:0:
51,192,62787,128,0,63132:0:0:0:0:
153,192,62960,128,0,63132:0:0:0:0:
460,192,63132,128,0,63822:0:0:0:0:
358,192,63132,1,0,0:0:0:0:
256,192,63132,1,0,0:0:0:0:
51,192,63477,1,0,0:0:0:0:
358,192,63477,1,0,0:0:0:0:
153,192,63649,1,0,0:0:0:0:
256,192,63822,1,0,0:0:0:0:
153,192,63822,1,0,0:0:0:0:
256,192,63908,1,0,0:0:0:0:
358,192,63908,1,0,0:0:0:0:
51,192,63994,1,0,0:0:0:0:
256,192,63994,1,0,0:0:0:0:
256,192,64080,1,0,0:0:0:0:
460,192,64080,1,0,0:0:0:0:
153,192,64167,1,0,0:0:0:0:
256,192,64167,1,0,0:0:0:0:
358,192,64167,1,0,0:0:0:0:
256,192,64339,1,0,0:0:0:0:
51,192,64339,1,0,0:0:0:0:
460,192,64339,1,0,0:0:0:0:
358,192,64511,1,0,0:0:0:0:
153,192,64511,1,0,0:0:0:0:
256,192,64511,1,0,0:0:0:0:
51,192,64684,1,0,0:0:0:0:
256,192,64856,1,0,0:0:0:0:
153,192,64856,128,0,65029:0:0:0:0:
358,192,64856,128,0,65029:0:0:0:0:
256,192,65029,1,0,0:0:0:0:
51,192,65029,128,0,65201:0:0:0:0:
460,192,65029,128,0,65201:0:0:0:0:
256,192,65201,1,0,0:0:0:0:
153,192,65201,128,0,65374:0:0:0:0:
358,192,65201,128,0,65374:0:0:0:0:
256,192,65374,1,0,0:0:0:0:
51,192,65374,128,0,65546:0:0:0:0:
460,192,65374,128,0,65546:0:0:0:0:
256,192,65546,1,0,0:0:0:0:
153,192,65546,128,0,65891:0:0:0:0:
358,192,65546,128,0,65891:0:0:0:0:
256,192,65718,1,0,0:0:0:0:
51,192,65718,128,0,65891:0:0:0:0:
460,192,65718,128,0,65891:0:0:0:0:
256,192,65891,128,0,66236:0:0:0:0:
153,192,66236,1,0,0:0:0:0:
358,192,66236,1,0,0:0:0:0:
51,192,66236,1,0,0:0:0:0:
256,192,66408,1,0,0:0:0:0:
153,192,66580,1,0,0:0:0:0:
51,192,66580,128,0,67270:0:0:0:0:
256,192,66667,1,0,0:0:0:0:
358,192,66753,1,0,0:0:0:0:
153,192,66839,1,0,0:0:0:0:
460,192,66925,1,0,0:0:0:0:
358,192,66925,1,0,0:0:0:0:
256,192,66925,1,0,0:0:0:0:
256,192,67098,1,0,0:0:0:0:
358,192,67270,128,0,67960:0:0:0:0:
460,192,67270,128,0,67960:0:0:0:0:
153,192,67270,1,0,0:0:0:0:
256,192,67270,128,0,68649:0:0:0:0:
153,192,67960,128,0,68649:0:0:0:0:
51,192,67960,128,0,68649:0:0:0:0:
358,192,68649,1,0,0:0:0:0:
460,192,68649,1,0,0:0:0:0:
51,192,68994,128,0,69339:0:0:0:0:
460,192,69339,1,0,0:0:0:0:
256,192,69339,1,0,0:0:0:0:
51,192,69511,1,0,0:0:0:0:
358,192,69511,1,0,0:0:0:0:
153,192,69684,1,0,0:0:0:0:
460,192,69684,1,0,0:0:0:0:
51,192,69856,1,0,0:0:0:0:
358,192,69856,1,0,0:0:0:0:
153,192,70029,1,0,0:0:0:0:
460,192,70029,1,0,0:0:0:0:
256,192,70201,1,0,0:0:0:0:
358,192,70201,1,0,0:0:0:0:
460,192,70201,1,0,0:0:0:0:
153,192,70374,1,0,0:0:0:0:
256,192,70374,1,0,0:0:0:0:
51,192,70374,1,0,0:0:0:0:
358,192,70718,128,0,71408:0:0:0:0:
460,192,70718,128,0,71408:0:0:0:0:
256,192,70718,1,0,0:0:0:0:
51,192,71408,1,0,0:0:0:0:
256,192,71408,1,0,0:0:0:0:
153,192,71408,128,0,72098:0:0:0:0:
460,192,72098,1,0,0:0:0:0:
51,192,72098,128,0,72787:0:0:0:0:
358,192,72184,1,0,0:0:0:0:
256,192,72270,1,0,0:0:0:0:
358,192,72356,1,0,0:0:0:0:
256,192,72443,1,0,0:0:0:0:
153,192,72529,1,0,0:0:0:0:
256,192,72615,1,0,0:0:0:0:
153,192,72701,1,0,0:0:0:0:
358,192,72787,1,0,0:0:0:0:
256,192,72787,1,0,0:0:0:0:
460,192,72787,128,0,73477:0:0:0:0:
153,192,72960,1,0,0:0:0:0:
358,192,72960,1,0,0:0:0:0:
153,192,73132,1,0,0:0:0:0:
358,192,73132,1,0,0:0:0:0:
153,192,73477,128,0,74167:0:0:0:0:
256,192,73477,128,0,73649:0:0:0:0:
51,192,73477,128,0,74167:0:0:0:0:
358,192,73649,128,0,73822:0:0:0:0:
460,192,73822,128,0,74167:0:0:0:0:
358,192,74167,1,0,0:0:0:0:
256,192,74167,128,0,75632:0:0:0:0:
51,192,74511,128,0,75632:0:0:0:0:
153,192,74856,128,0,75632:0:0:0:0:
358,192,74856,128,0,75632:0:0:0:0:
460,192,74856,128,0,74943:0:0:0:0:
460,192,75029,128,0,75115:0:0:0:0:
460,192,75201,128,0,75287:0:0:0:0:
460,192,75374,128,0,75460:0:0:0:0:
460,192,75546,128,0,75632:0:0:0:0:
51,192,75718,1,0,0:0:0:0:
153,192,75718,1,0,0:0:0:0:
256,192,75718,1,0,0:0:0:0:
358,192,75718,1,0,0:0:0:0:
51,192,75891,1,0,0:0:0:0:
256,192,75891,1,0,0:0:0:0:
153,192,75891,1,0,0:0:0:0:
358,192,75891,1,0,0:0:0:0:
460,192,76236,128,0,76925:0:0:0:0:
256,192,76236,128,0,76925:0:0:0:0:
51,192,76925,1,0,0:0:0:0:
153,192,76925,1,0,0:0:0:0:
358,192,76925,128,0,77615:0:0:0:0:
51,192,77615,1,0,0:0:0:0:
460,192,77615,128,0,79684:0:0:0:0:
153,192,77701,1,0,0:0:0:0:
256,192,77787,1,0,0:0:0:0:
153,192,77874,1,0,0:0:0:0:
256,192,77960,1,0,0:0:0:0:
358,192,78046,1,0,0:0:0:0:
256,192,78132,1,0,0:0:0:0:
358,192,78218,1,0,0:0:0:0:
256,192,78305,1,0,0:0:0:0:
51,192,78305,128,0,78822:0:0:0:0:
153,192,78649,128,0,78994:0:0:0:0:
256,192,78822,128,0,79167:0:0:0:0:
358,192,78994,128,0,79684:0:0:0:0:
51,192,78994,128,0,79339:0:0:0:0:
153,192,79167,128,0,79511:0:0:0:0:
256,192,79339,128,0,79684:0:0:0:0:
51,192,79511,128,0,79684:0:0:0:0:
153,192,79684,1,0,0:0:0:0:
358,192,80029,1,0,0:0:0:0:
51,192,80244,1,0,0:0:0:0:
153,192,80374,1,0,0:0:0:0:
256,192,80374,1,0,0:0:0:0:
460,192,80934,1,0,0:0:0:0:
358,192,81063,1,0,0:0:0:0:
256,192,81063,1,0,0:0:0:0:
51,192,81236,1,0,0:0:0:0:
153,192,81408,1,0,0:0:0:0:
358,192,81408,1,0,0:0:0:0:
256,192,81753,1,0,0:0:0:0:
460,192,81753,1,0,0:0:0:0:
358,192,82098,1,0,0:0:0:0:
51,192,82443,1,0,0:0:0:0:
153,192,82443,1,0,0:0:0:0:
460,192,82787,1,0,0:0:0:0:
153,192,83003,1,0,0:0:0:0:
256,192,83132,1,0,0:0:0:0:
358,192,83132,1,0,0:0:0:0:
51,192,83477,1,0,0:0:0:0:
358,192,83693,1,0,0:0:0:0:
256,192,83822,1,0,0:0:0:0:
153,192,83822,1,0,0:0:0:0:
460,192,83994,1,0,0:0:0:0:
51,192,84167,1,0,0:0:0:0:
358,192,84167,1,0,0:0:0:0:
153,192,84511,1,0,0:0:0:0:
460,192,84511,1,0,0:0:0:0:
256,192,84511,1,0,0:0:0:0:
51,192,84684,1,0,0:0:0:0:
153,192,84856,1,0,0:0:0:0:
256,192,85029,1,0,0:0:0:0:
358,192,85201,1,0,0:0:0:0:
460,192,85201,1,0,0:0:0:0:
51,192,85201,1,0,0:0:0:0:
153,192,85546,1,0,0:0:0:0:
256,192,85891,1,0,0:0:0:0:
460,192,85891,1,0,0:0:0:0:
51,192,86236,1,0,0:0:0:0:
358,192,86580,1,0,0:0:0:0:
51,192,86753,1,0,0:0:0:0:
256,192,86753,1,0,0:0:0:0:
153,192,86925,1,0,0:0:0:0:
358,192,86925,1,0,0:0:0:0:
256,192,87270,1,0,0:0:0:0:
460,192,87270,1,0,0:0:0:0:
358,192,87443,1,0,0:0:0:0:
256,192,87615,1,0,0:0:0:0:
153,192,87787,1,0,0:0:0:0:
51,192,87960,1,0,0:0:0:0:
256,192,87960,1,0,0:0:0:0:
358,192,87960,1,0,0:0:0:0:
358,192,88649,1,0,0:0:0:0:
460,192,88649,1,0,0:0:0:0:
256,192,88994,1,0,0:0:0:0:
51,192,89339,1,0,0:0:0:0:
153,192,89339,1,0,0:0:0:0:
358,192,89511,1,0,0:0:0:0:
460,192,89511,1,0,0:0:0:0:
153,192,89684,1,0,0:0:0:0:
256,192,89684,1,0,0:0:0:0:
358,192,90029,1,0,0:0:0:0:
460,192,90029,1,0,0:0:0:0:
51,192,90374,1,0,0:0:0:0:
153,192,90460,1,0,0:0:0:0:
460,192,90546,1,0,0:0:0:0:
358,192,90632,1,0,0:0:0:0:
153,192,90718,1,0,0:0:0:0:
256,192,90718,1,0,0:0:0:0:
51,192,90718,1,0,0:0:0:0:
460,192,90833,1,0,0:0:0:0:
358,192,90948,1,0,0:0:0:0:
256,192,91063,1,0,0:0:0:0:
256,192,91408,1,0,0:0:0:0:
460,192,91408,1,0,0:0:0:0:
256,192,91523,1,0,0:0:0:0:
460,192,91523,1,0,0:0:0:0:
256,192,91638,1,0,0:0:0:0:
460,192,91638,1,0,0:0:0:0:
256,192,91753,1,0,0:0:0:0:
51,192,91753,1,0,0:0:0:0:
460,192,91753,1,0,0:0:0:0:
256,192,91868,1,0,0:0:0:0:
51,192,91868,1,0,0:0:0:0:
256,192,91983,1,0,0:0:0:0:
51,192,91983,1,0,0:0:0:0:
460,192,92098,1,0,0:0:0:0:
256,192,92098,1,0,0:0:0:0:
51,192,92098,1,0,0:0:0:0:
460,192,92270,1,0,0:0:0:0:
51,192,92270,1,0,0:0:0:0:
153,192,92443,1,0,0:0:0:0:
358,192,92443,1,0,0:0:0:0:
256,192,92443,128,0,93477:0:0:0:0:
51,192,92787,128,0,93477:0:0:0:0:
153,192,92787,1,0,0:0:0:0:
460,192,92787,1,0,0:0:0:0:
460,192,93132,128,0,93477:0:0:0:0:
153,192,93477,1,0,0:0:0:0:
358,192,93477,1,0,0:0:0:0:
51,192,93592,1,0,0:0:0:0:
256,192,93707,1,0,0:0:0:0:
460,192,93822,1,0,0:0:0:0:
153,192,93822,128,0,94167:0:0:0:0:
51,192,94167,1,0,0:0:0:0:
460,192,94167,1,0,0:0:0:0:
460,192,94282,1,0,0:0:0:0:
51,192,94282,1,0,0:0:0:0:
460,192,94397,1,0,0:0:0:0:
51,192,94397,1,0,0:0:0:0:
51,192,94511,1,0,0:0:0:0:
256,192,94511,1,0,0:0:0:0:
460,192,94511,1,0,0:0:0:0:
256,192,94626,1,0,0:0:0:0:
460,192,94626,1,0,0:0:0:0:
256,192,94741,1,0,0:0:0:0:
460,192,94741,1,0,0:0:0:0:
256,192,94856,1,0,0:0:0:0:
460,192,94856,1,0,0:0:0:0:
256,192,95029,1,0,0:0:0:0:
51,192,95029,1,0,0:0:0:0:
256,192,95201,1,0,0:0:0:0:
51,192,95201,1,0,0:0:0:0:
51,192,95546,1,0,0:0:0:0:
153,192,95546,1,0,0:0:0:0:
460,192,95546,1,0,0:0:0:0:
358,192,95718,1,0,0:0:0:0:
256,192,95891,1,0,0:0:0:0:
153,192,96063,1,0,0:0:0:0:
358,192,96236,1,0,0:0:0:0:
51,192,96236,1,0,0:0:0:0:
460,192,96236,1,0,0:0:0:0:
358,192,96351,1,0,0:0:0:0:
51,192,96351,1,0,0:0:0:0:
358,192,96465,1,0,0:0:0:0:
51,192,96465,1,0,0:0:0:0:
153,192,96580,1,0,0:0:0:0:
358,192,96580,128,0,96925:0:0:0:0:
51,192,96580,1,0,0:0:0:0:
51,192,96925,1,0,0:0:0:0:
153,192,96925,1,0,0:0:0:0:
256,192,96925,1,0,0:0:0:0:
460,192,97040,1,0,0:0:0:0:
51,192,97040,1,0,0:0:0:0:
460,192,97155,1,0,0:0:0:0:
51,192,97155,1,0,0:0:0:0:
256,192,97270,1,0,0:0:0:0:
51,192,97270,1,0,0:0:0:0:
460,192,97270,1,0,0:0:0:0:
256,192,97385,1,0,0:0:0:0:
460,192,97385,1,0,0:0:0:0:
256,192,97500,1,0,0:0:0:0:
460,192,97500,1,0,0:0:0:0:
460,192,97615,128,0,97960:0:0:0:0:
256,192,97615,1,0,0:0:0:0:
51,192,97787,1,0,0:0:0:0:
256,192,97787,1,0,0:0:0:0:
51,192,97960,128,0,98994:0:0:0:0:
256,192,97960,1,0,0:0:0:0:
460,192,98305,1,0,0:0:0:0:
256,192,98305,128,0,98994:0:0:0:0:
358,192,98305,1,0,0:0:0:0:
460,192,98649,128,0,98994:0:0:0:0:
153,192,98649,1,0,0:0:0:0:
153,192,98994,1,0,0:0:0:0:
358,192,98994,1,0,0:0:0:0:
51,192,99109,1,0,0:0:0:0:
460,192,99109,1,0,0:0:0:0:
51,192,99224,1,0,0:0:0:0:
460,192,99224,1,0,0:0:0:0:
460,192,99339,1,0,0:0:0:0:
51,192,99339,1,0,0:0:0:0:
256,192,99511,1,0,0:0:0:0:
153,192,99684,1,0,0:0:0:0:
358,192,99684,1,0,0:0:0:0:
358,192,99799,1,0,0:0:0:0:
153,192,99799,1,0,0:0:0:0:
153,192,99914,1,0,0:0:0:0:
358,192,99914,1,0,0:0:0:0:
51,192,100029,1,0,0:0:0:0:
460,192,100029,1,0,0:0:0:0:
51,192,100144,1,0,0:0:0:0:
460,192,100144,1,0,0:0:0:0:
51,192,100259,1,0,0:0:0:0:
460,192,100259,1,0,0:0:0:0:
51,192,100374,128,0,101753:0:0:0:0:
460,192,100374,128,0,100632:0:0:0:0:
358,192,100718,128,0,100977:0:0:0:0:
256,192,101063,128,0,101322:0:0:0:0:
153,192,101408,128,0,101667:0:0:0:0:
460,192,101753,1,0,0:0:0:0:
256,192,101753,1,0,0:0:0:0:
358,192,101839,1,0,0:0:0:0:
51,192,101925,1,0,0:0:0:0:
153,192,102011,1,0,0:0:0:0:
256,192,102098,1,0,0:0:0:0:
358,192,102270,1,0,0:0:0:0:
460,192,102443,128,0,102787:0:0:0:0:
256,192,102787,1,0,0:0:0:0:
51,192,102874,1,0,0:0:0:0:
460,192,102960,1,0,0:0:0:0:
256,192,103046,1,0,0:0:0:0:
51,192,103132,128,0,104167:0:0:0:0:
153,192,103305,128,0,104167:0:0:0:0:
460,192,103477,1,0,0:0:0:0:
256,192,103477,128,0,104167:0:0:0:0:
358,192,103563,1,0,0:0:0:0:
460,192,103649,1,0,0:0:0:0:
358,192,103736,1,0,0:0:0:0:
460,192,103822,1,0,0:0:0:0:
358,192,103908,1,0,0:0:0:0:
460,192,103994,1,0,0:0:0:0:
358,192,104080,1,0,0:0:0:0:
460,192,104167,1,0,0:0:0:0:
358,192,104253,1,0,0:0:0:0:
256,192,104339,1,0,0:0:0:0:
153,192,104425,1,0,0:0:0:0:
51,192,104511,1,0,0:0:0:0:
358,192,104598,1,0,0:0:0:0:
256,192,104684,1,0,0:0:0:0:
153,192,104770,1,0,0:0:0:0:
460,192,104856,1,0,0:0:0:0:
256,192,105029,1,0,0:0:0:0:
51,192,105201,128,0,105546:0:0:0:0:
460,192,105718,1,0,0:0:0:0:
256,192,105718,1,0,0:0:0:0:
358,192,105891,1,0,0:0:0:0:
153,192,105891,1,0,0:0:0:0:
256,192,106149,1,0,0:0:0:0:
153,192,106236,128,0,106925:0:0:0:0:
51,192,106236,128,0,106580:0:0:0:0:
460,192,106236,1,0,0:0:0:0:
358,192,106322,1,0,0:0:0:0:
256,192,106408,1,0,0:0:0:0:
358,192,106494,1,0,0:0:0:0:
460,192,106580,1,0,0:0:0:0:
358,192,106667,1,0,0:0:0:0:
256,192,106753,1,0,0:0:0:0:
358,192,106839,1,0,0:0:0:0:
460,192,106925,1,0,0:0:0:0:
358,192,107011,1,0,0:0:0:0:
256,192,107098,1,0,0:0:0:0:
153,192,107184,1,0,0:0:0:0:
51,192,107270,1,0,0:0:0:0:
358,192,107356,1,0,0:0:0:0:
256,192,107443,1,0,0:0:0:0:
153,192,107529,1,0,0:0:0:0:
460,192,107615,1,0,0:0:0:0:
51,192,107787,1,0,0:0:0:0:
256,192,107960,128,0,108305:0:0:0:0:
358,192,108477,1,0,0:0:0:0:
153,192,108477,1,0,0:0:0:0:
460,192,108649,1,0,0:0:0:0:
51,192,108649,1,0,0:0:0:0:
256,192,108822,1,0,0:0:0:0:
358,192,108908,1,0,0:0:0:0:
153,192,108994,1,0,0:0:0:0:
256,192,109080,1,0,0:0:0:0:
51,192,109167,1,0,0:0:0:0:
153,192,109253,1,0,0:0:0:0:
358,192,109339,1,0,0:0:0:0:
256,192,109339,128,0,110029:0:0:0:0:
460,192,109511,1,0,0:0:0:0:
358,192,109598,1,0,0:0:0:0:
153,192,109684,1,0,0:0:0:0:
51,192,109770,1,0,0:0:0:0:
460,192,109856,1,0,0:0:0:0:
358,192,109943,1,0,0:0:0:0:
153,192,110029,1,0,0:0:0:0:
51,192,110201,1,0,0:0:0:0:
153,192,110287,1,0,0:0:0:0:
460,192,110374,1,0,0:0:0:0:
358,192,110460,1,0,0:0:0:0:
256,192,110546,1,0,0:0:0:0:
153,192,110632,1,0,0:0:0:0:
51,192,110718,128,0,111408:0:0:0:0:
460,192,110718,1,0,0:0:0:0:
358,192,110805,1,0,0:0:0:0:
256,192,110891,1,0,0:0:0:0:
153,192,110977,1,0,0:0:0:0:
460,192,111063,1,0,0:0:0:0:
358,192,111149,1,0,0:0:0:0:
256,192,111236,1,0,0:0:0:0:
153,192,111322,1,0,0:0:0:0:
256,192,111408,1,0,0:0:0:0:
358,192,111408,1,0,0:0:0:0:
460,192,111408,128,0,113132:0:0:0:0:
51,192,113132,128,0,114511:0:0:0:0:
153,192,113477,128,0,114856:0:0:0:0:
256,192,113822,128,0,115201:0:0:0:0:
358,192,114167,128,0,115891:0:0:0:0:
460,192,114684,128,0,116839:0:0:0:0:
51,192,114856,128,0,116839:0:0:0:0:
153,192,115201,128,0,116839:0:0:0:0:
256,192,115546,128,0,116839:0:0:0:0:
358,192,116236,128,0,116839:0:0:0:0:
51,192,116925,1,0,0:0:0:0:
153,192,116925,1,0,0:0:0:0:
256,192,116925,1,0,0:0:0:0:
460,192,116925,1,0,0:0:0:0:
358,192,116925,1,0,0:0:0:0:
460,192,117098,1,0,0:0:0:0:
358,192,117184,1,0,0:0:0:0:
256,192,117270,1,0,0:0:0:0:
51,192,117356,1,0,0:0:0:0:
153,192,117443,1,0,0:0:0:0:
256,192,117529,1,0,0:0:0:0:
460,192,117615,1,0,0:0:0:0:
51,192,117960,128,0,118305:0:0:0:0:
460,192,117960,128,0,118305:0:0:0:0:
256,192,117960,128,0,118305:0:0:0:0:
153,192,118305,128,0,118649:0:0:0:0:
358,192,118305,1,0,0:0:0:0:
256,192,118649,1,0,0:0:0:0:
358,192,118649,1,0,0:0:0:0:
51,192,118822,1,0,0:0:0:0:
256,192,118994,1,0,0:0:0:0:
460,192,118994,1,0,0:0:0:0:
256,192,119167,1,0,0:0:0:0:
51,192,119167,1,0,0:0:0:0:
256,192,119339,1,0,0:0:0:0:
358,192,119339,1,0,0:0:0:0:
153,192,119339,1,0,0:0:0:0:
51,192,119511,1,0,0:0:0:0:
256,192,119684,1,0,0:0:0:0:
358,192,119684,1,0,0:0:0:0:
460,192,119684,128,0,119856:0:0:0:0:
153,192,119684,128,0,119856:0:0:0:0:
256,192,119856,1,0,0:0:0:0:
358,192,119856,128,0,120029:0:0:0:0:
51,192,119856,128,0,120029:0:0:0:0:
256,192,120029,1,0,0:0:0:0:
153,192,120029,128,0,120201:0:0:0:0:
460,192,120029,128,0,120201:0:0:0:0:
256,192,120201,1,0,0:0:0:0:
51,192,120201,128,0,120374:0:0:0:0:
358,192,120201,128,0,120374:0:0:0:0:
256,192,120374,1,0,0:0:0:0:
153,192,120374,128,0,120546:0:0:0:0:
460,192,120374,128,0,120546:0:0:0:0:
256,192,120546,1,0,0:0:0:0:
51,192,120546,128,0,120718:0:0:0:0:
358,192,120546,128,0,120718:0:0:0:0:
153,192,120718,128,0,120891:0:0:0:0:
460,192,120718,128,0,120891:0:0:0:0:
256,192,120718,128,0,121063:0:0:0:0:
51,192,120891,128,0,121063:0:0:0:0:
358,192,120891,128,0,121063:0:0:0:0:
153,192,121063,1,0,0:0:0:0:
460,192,121063,1,0,0:0:0:0:
153,192,121408,1,0,0:0:0:0:
256,192,121408,1,0,0:0:0:0:
358,192,121580,1,0,0:0:0:0:
51,192,121580,1,0,0:0:0:0:
256,192,121753,128,0,122443:0:0:0:0:
51,192,121925,1,0,0:0:0:0:
358,192,121925,1,0,0:0:0:0:
153,192,122098,1,0,0:0:0:0:
460,192,122098,1,0,0:0:0:0:
51,192,122098,1,0,0:0:0:0:
51,192,122443,1,0,0:0:0:0:
460,192,122443,1,0,0:0:0:0:
153,192,122443,128,0,123132:0:0:0:0:
51,192,122787,1,0,0:0:0:0:
358,192,122787,1,0,0:0:0:0:
460,192,122960,128,0,123305:0:0:0:0:
358,192,123132,128,0,123477:0:0:0:0:
256,192,123305,128,0,123649:0:0:0:0:
51,192,123305,1,0,0:0:0:0:
153,192,123391,1,0,0:0:0:0:
460,192,123477,128,0,123822:0:0:0:0:
51,192,123477,1,0,0:0:0:0:
358,192,123649,128,0,123822:0:0:0:0:
51,192,123822,128,0,124167:0:0:0:0:
256,192,123822,1,0,0:0:0:0:
153,192,123822,1,0,0:0:0:0:
153,192,124167,1,0,0:0:0:0:
358,192,124167,1,0,0:0:0:0:
256,192,124511,1,0,0:0:0:0:
51,192,124511,1,0,0:0:0:0:
256,192,124598,1,0,0:0:0:0:
460,192,124598,1,0,0:0:0:0:
256,192,124684,1,0,0:0:0:0:
153,192,124684,1,0,0:0:0:0:
256,192,124770,1,0,0:0:0:0:
358,192,124770,1,0,0:0:0:0:
256,192,124856,1,0,0:0:0:0:
51,192,124856,1,0,0:0:0:0:
460,192,124856,1,0,0:0:0:0:
256,192,125029,1,0,0:0:0:0:
358,192,125029,1,0,0:0:0:0:
153,192,125201,1,0,0:0:0:0:
256,192,125201,1,0,0:0:0:0:
256,192,125546,1,0,0:0:0:0:
153,192,125546,128,0,125718:0:0:0:0:
358,192,125546,128,0,125718:0:0:0:0:
51,192,125546,1,0,0:0:0:0:
460,192,125546,1,0,0:0:0:0:
256,192,125718,1,0,0:0:0:0:
51,192,125718,128,0,125891:0:0:0:0:
460,192,125718,128,0,125891:0:0:0:0:
256,192,125891,1,0,0:0:0:0:
153,192,125891,128,0,126063:0:0:0:0:
358,192,125891,128,0,126063:0:0:0:0:
256,192,126063,1,0,0:0:0:0:
51,192,126063,128,0,126236:0:0:0:0:
460,192,126063,128,0,126236:0:0:0:0:
256,192,126236,128,0,126580:0:0:0:0:
153,192,126236,128,0,126408:0:0:0:0:
358,192,126236,128,0,126408:0:0:0:0:
51,192,126408,128,0,126580:0:0:0:0:
460,192,126408,128,0,126580:0:0:0:0:
358,192,126580,1,0,0:0:0:0:
153,192,126580,1,0,0:0:0:0:
51,192,126925,1,0,0:0:0:0:
460,192,126925,1,0,0:0:0:0:
358,192,126925,1,0,0:0:0:0:
153,192,127098,1,0,0:0:0:0:
256,192,127184,1,0,0:0:0:0:
358,192,127270,1,0,0:0:0:0:
460,192,127270,1,0,0:0:0:0:
256,192,127443,1,0,0:0:0:0:
153,192,127615,128,0,127960:0:0:0:0:
358,192,127615,128,0,127960:0:0:0:0:
51,192,127787,1,0,0:0:0:0:
460,192,127787,1,0,0:0:0:0:
256,192,127787,1,0,0:0:0:0:
51,192,127960,128,0,128649:0:0:0:0:
460,192,127960,128,0,128649:0:0:0:0:
256,192,127960,1,0,0:0:0:0:
153,192,128305,1,0,0:0:0:0:
358,192,128305,1,0,0:0:0:0:
256,192,128477,1,0,0:0:0:0:
256,192,128649,128,0,129339:0:0:0:0:
153,192,128649,128,0,129339:0:0:0:0:
358,192,128649,1,0,0:0:0:0:
460,192,128736,1,0,0:0:0:0:
358,192,128822,1,0,0:0:0:0:
460,192,128908,1,0,0:0:0:0:
358,192,128994,1,0,0:0:0:0:
51,192,128994,1,0,0:0:0:0:
460,192,129339,1,0,0:0:0:0:
51,192,129339,1,0,0:0:0:0:
51,192,129511,1,0,0:0:0:0:
460,192,129511,1,0,0:0:0:0:
153,192,129684,1,0,0:0:0:0:
358,192,129684,1,0,0:0:0:0:
256,192,130029,1,0,0:0:0:0:
153,192,130029,128,0,130201:0:0:0:0:
51,192,130029,1,0,0:0:0:0:
256,192,130201,1,0,0:0:0:0:
358,192,130201,128,0,130374:0:0:0:0:
460,192,130201,1,0,0:0:0:0:
256,192,130374,1,0,0:0:0:0:
51,192,130374,128,0,130546:0:0:0:0:
153,192,130374,1,0,0:0:0:0:
256,192,130546,1,0,0:0:0:0:
460,192,130546,128,0,130718:0:0:0:0:
358,192,130546,1,0,0:0:0:0:
256,192,130718,1,0,0:0:0:0:
51,192,130718,1,0,0:0:0:0:
153,192,130718,128,0,130891:0:0:0:0:
256,192,130891,1,0,0:0:0:0:
358,192,130891,128,0,131063:0:0:0:0:
460,192,130891,1,0,0:0:0:0:
256,192,131063,1,0,0:0:0:0:
153,192,131063,1,0,0:0:0:0:
51,192,131063,128,0,131236:0:0:0:0:
256,192,131236,1,0,0:0:0:0:
460,192,131236,128,0,131408:0:0:0:0:
358,192,131236,1,0,0:0:0:0:
256,192,131408,128,0,132098:0:0:0:0:
153,192,131408,1,0,0:0:0:0:
51,192,131408,1,0,0:0:0:0:
358,192,131580,1,0,0:0:0:0:
460,192,131753,1,0,0:0:0:0:
51,192,131753,1,0,0:0:0:0:
153,192,131925,1,0,0:0:0:0:
460,192,131925,1,0,0:0:0:0:
51,192,132098,1,0,0:0:0:0:
358,192,132098,128,0,132787:0:0:0:0:
51,192,132443,1,0,0:0:0:0:
256,192,132443,1,0,0:0:0:0:
51,192,132787,1,0,0:0:0:0:
460,192,132787,128,0,133477:0:0:0:0:
153,192,132874,1,0,0:0:0:0:
256,192,132960,1,0,0:0:0:0:
153,192,133046,1,0,0:0:0:0:
256,192,133132,1,0,0:0:0:0:
358,192,133218,1,0,0:0:0:0:
256,192,133305,1,0,0:0:0:0:
358,192,133391,1,0,0:0:0:0:
51,192,133477,1,0,0:0:0:0:
153,192,133477,1,0,0:0:0:0:
256,192,133477,128,0,134167:0:0:0:0:
460,192,133649,1,0,0:0:0:0:
51,192,133822,1,0,0:0:0:0:
358,192,133822,1,0,0:0:0:0:
153,192,133994,1,0,0:0:0:0:
460,192,134167,128,0,134511:0:0:0:0:
153,192,134339,1,0,0:0:0:0:
358,192,134425,1,0,0:0:0:0:
256,192,134511,1,0,0:0:0:0:
51,192,134511,128,0,134856:0:0:0:0:
358,192,134684,1,0,0:0:0:0:
460,192,134856,128,0,135201:0:0:0:0:
153,192,134856,128,0,135201:0:0:0:0:
256,192,135201,1,0,0:0:0:0:
358,192,135201,1,0,0:0:0:0:
256,192,135546,1,0,0:0:0:0:
51,192,135546,128,0,135718:0:0:0:0:
153,192,135546,1,0,0:0:0:0:
256,192,135718,1,0,0:0:0:0:
358,192,135718,128,0,135891:0:0:0:0:
460,192,135718,1,0,0:0:0:0:
256,192,135891,1,0,0:0:0:0:
153,192,135891,128,0,136063:0:0:0:0:
51,192,135891,1,0,0:0:0:0:
256,192,136063,1,0,0:0:0:0:
460,192,136063,128,0,136236:0:0:0:0:
358,192,136063,1,0,0:0:0:0:
256,192,136236,1,0,0:0:0:0:
51,192,136236,128,0,136408:0:0:0:0:
153,192,136236,1,0,0:0:0:0:
256,192,136408,1,0,0:0:0:0:
358,192,136408,128,0,136580:0:0:0:0:
460,192,136408,1,0,0:0:0:0:
256,192,136580,1,0,0:0:0:0:
153,192,136580,128,0,136753:0:0:0:0:
51,192,136580,1,0,0:0:0:0:
256,192,136753,1,0,0:0:0:0:
460,192,136753,128,0,136925:0:0:0:0:
358,192,136753,1,0,0:0:0:0:
256,192,136925,128,0,137615:0:0:0:0:
51,192,136925,1,0,0:0:0:0:
153,192,137098,1,0,0:0:0:0:
358,192,137098,1,0,0:0:0:0:
460,192,137270,1,0,0:0:0:0:
51,192,137270,1,0,0:0:0:0:
153,192,137443,1,0,0:0:0:0:
358,192,137443,1,0,0:0:0:0:
460,192,137615,1,0,0:0:0:0:
51,192,137615,128,0,138305:0:0:0:0:
153,192,137960,1,0,0:0:0:0:
460,192,137960,1,0,0:0:0:0:
256,192,138132,1,0,0:0:0:0:
153,192,138305,1,0,0:0:0:0:
460,192,138305,1,0,0:0:0:0:
358,192,138391,1,0,0:0:0:0:
256,192,138477,1,0,0:0:0:0:
51,192,138563,1,0,0:0:0:0:
153,192,138649,1,0,0:0:0:0:
460,192,138649,1,0,0:0:0:0:
358,192,138649,1,0,0:0:0:0:
256,192,138822,1,0,0:0:0:0:
153,192,138908,1,0,0:0:0:0:
256,192,138994,128,0,140374:0:0:0:0:
51,192,138994,1,0,0:0:0:0:
460,192,138994,128,0,139511:0:0:0:0:
358,192,139339,128,0,139684:0:0:0:0:
153,192,139511,128,0,139856:0:0:0:0:
460,192,139684,128,0,140029:0:0:0:0:
51,192,139684,128,0,140374:0:0:0:0:
358,192,139856,128,0,140201:0:0:0:0:
153,192,140029,128,0,140374:0:0:0:0:
460,192,140201,128,0,140374:0:0:0:0:
358,192,140374,1,0,0:0:0:0:
460,192,140460,1,0,0:0:0:0:
256,192,140546,1,0,0:0:0:0:
153,192,140632,1,0,0:0:0:0:
51,192,140718,1,0,0:0:0:0:
460,192,140718,1,0,0:0:0:0:
153,192,140891,1,0,0:0:0:0:
460,192,141063,128,0,141408:0:0:0:0:
256,192,141063,1,0,0:0:0:0:
51,192,141408,128,0,141753:0:0:0:0:
358,192,141408,1,0,0:0:0:0:
256,192,141494,1,0,0:0:0:0:
358,192,141580,1,0,0:0:0:0:
256,192,141667,1,0,0:0:0:0:
460,192,141753,128,0,142098:0:0:0:0:
153,192,141753,1,0,0:0:0:0:
358,192,141753,1,0,0:0:0:0:
256,192,141839,1,0,0:0:0:0:
153,192,141925,1,0,0:0:0:0:
256,192,142011,1,0,0:0:0:0:
51,192,142098,128,0,142443:0:0:0:0:
153,192,142098,1,0,0:0:0:0:
256,192,142270,1,0,0:0:0:0:
460,192,142443,128,0,143132:0:0:0:0:
358,192,142443,1,0,0:0:0:0:
153,192,142787,1,0,0:0:0:0:
256,192,142874,1,0,0:0:0:0:
153,192,142960,1,0,0:0:0:0:
256,192,143046,1,0,0:0:0:0:
358,192,143132,1,0,0:0:0:0:
51,192,143132,128,0,143822:0:0:0:0:
153,192,143218,1,0,0:0:0:0:
460,192,143305,1,0,0:0:0:0:
358,192,143391,1,0,0:0:0:0:
256,192,143477,1,0,0:0:0:0:
460,192,143649,1,0,0:0:0:0:
358,192,143822,128,0,144167:0:0:0:0:
153,192,143822,1,0,0:0:0:0:
256,192,143822,1,0,0:0:0:0:
153,192,144167,1,0,0:0:0:0:
256,192,144253,1,0,0:0:0:0:
153,192,144339,1,0,0:0:0:0:
256,192,144425,1,0,0:0:0:0:
358,192,144511,1,0,0:0:0:0:
460,192,144511,128,0,145891:0:0:0:0:
51,192,144511,128,0,144770:0:0:0:0:
153,192,144598,128,0,144856:0:0:0:0:
256,192,144684,128,0,144943:0:0:0:0:
358,192,144770,128,0,145029:0:0:0:0:
51,192,144856,128,0,145115:0:0:0:0:
153,192,144943,128,0,145115:0:0:0:0:
256,192,145029,128,0,145115:0:0:0:0:
358,192,145115,128,0,145546:0:0:0:0:
256,192,145201,1,0,0:0:0:0:
153,192,145201,1,0,0:0:0:0:
51,192,145201,1,0,0:0:0:0:
51,192,145891,1,0,0:0:0:0:
358,192,146149,1,0,0:0:0:0:
256,192,146193,1,0,0:0:0:0:
153,192,146236,1,0,0:0:0:0:
153,192,146552,1,0,0:0:0:0:
256,192,146609,1,0,0:0:0:0:
358,192,146925,1,0,0:0:0:0:
460,192,147227,1,0,0:0:0:0:
358,192,147270,1,0,0:0:0:0:
256,192,147787,1,0,0:0:0:0:
358,192,147917,1,0,0:0:0:0:
256,192,147960,1,0,0:0:0:0:
153,192,148305,1,0,0:0:0:0:
51,192,148649,1,0,0:0:0:0:
256,192,149253,1,0,0:0:0:0:
358,192,149296,1,0,0:0:0:0:
460,192,149339,1,0,0:0:0:0:
256,192,149943,1,0,0:0:0:0:
153,192,149986,1,0,0:0:0:0:
51,192,150029,1,0,0:0:0:0:
51,192,150374,128,0,150718:0:0:0:0:
256,192,150374,128,0,150718:0:0:0:0:
460,192,150374,128,0,150718:0:0:0:0:
153,192,150718,128,0,151408:0:0:0:0:
358,192,150718,128,0,151408:0:0:0:0:
