osu file format v14

[General]
AudioFilename: RedGoose.mp3
AudioLeadIn: 2000
PreviewTime: 64303
Countdown: 0
SampleSet: Soft
StackLeniency: 0.7
Mode: 3
LetterboxInBreaks: 0
SpecialStyle: 0
WidescreenStoryboard: 1

[Editor]
Bookmarks: 10249,16249
DistanceSpacing: 1.5
BeatDivisor: 4
GridSize: 4
TimelineZoom: 2.1

[Metadata]
Title:5K Madness by Happy15
TitleUnicode:5K Madness by Happy15
Artist:Various
ArtistUnicode:Various
Creator:JamesHappy15
Version:Mutsuhiko Izumi - Red Goose (Overjoy Lv.2)
Source:
Tags:
BeatmapID:0
BeatmapSetID:46239

[Difficulty]
HPDrainRate:6
CircleSize:5
OverallDifficulty:6
ApproachRate:9
SliderMultiplier:1.8
SliderTickRate:1

[Events]
//Background and Video events
0,0,"Jubeat.jpg",0,0
//Break Periods
//Storyboard Layer 0 (Background)
//Storyboard Layer 1 (Fail)
//Storyboard Layer 2 (Pass)
//Storyboard Layer 3 (Foreground)
//Storyboard Sound Samples

[TimingPoints]
-401,300,4,2,0,50,1,0

[HitObjects]
51,192,349,5,0,0:0:0:0:
51,192,499,1,0,0:0:0:0:
51,192,649,1,0,0:0:0:0:
51,192,799,1,0,0:0:0:0:
256,192,1099,5,0,0:0:0:0:
460,192,1249,1,0,0:0:0:0:
460,192,1399,1,0,0:0:0:0:
460,192,1549,1,0,0:0:0:0:
256,192,1699,1,0,0:0:0:0:
460,192,1699,1,0,0:0:0:0:
460,192,1999,1,0,0:0:0:0:
256,192,2299,1,0,0:0:0:0:
51,192,2599,1,0,0:0:0:0:
153,192,2674,1,0,0:0:0:0:
460,192,2749,1,0,0:0:0:0:
358,192,2824,1,0,0:0:0:0:
256,192,2899,1,0,0:0:0:0:
51,192,2899,1,0,0:0:0:0:
153,192,2974,1,0,0:0:0:0:
460,192,3049,1,0,0:0:0:0:
358,192,3124,1,0,0:0:0:0:
51,192,3199,1,0,0:0:0:0:
153,192,3199,1,0,0:0:0:0:
256,192,3499,1,0,0:0:0:0:
358,192,3649,1,0,0:0:0:0:
358,192,3799,1,0,0:0:0:0:
358,192,3949,1,0,0:0:0:0:
256,192,4099,1,0,0:0:0:0:
358,192,4099,1,0,0:0:0:0:
358,192,4399,1,0,0:0:0:0:
256,192,4699,1,0,0:0:0:0:
460,192,4999,1,0,0:0:0:0:
358,192,5074,1,0,0:0:0:0:
51,192,5149,1,0,0:0:0:0:
153,192,5224,1,0,0:0:0:0:
256,192,5299,1,0,0:0:0:0:
460,192,5299,1,0,0:0:0:0:
358,192,5374,1,0,0:0:0:0:
51,192,5449,1,0,0:0:0:0:
153,192,5524,1,0,0:0:0:0:
460,192,5599,1,0,0:0:0:0:
256,192,5899,1,0,0:0:0:0:
51,192,6049,1,0,0:0:0:0:
51,192,6199,1,0,0:0:0:0:
51,192,6349,1,0,0:0:0:0:
256,192,6499,1,0,0:0:0:0:
153,192,6499,1,0,0:0:0:0:
153,192,6649,1,0,0:0:0:0:
153,192,6799,1,0,0:0:0:0:
256,192,7099,1,0,0:0:0:0:
358,192,7249,1,0,0:0:0:0:
358,192,7399,1,0,0:0:0:0:
358,192,7549,1,0,0:0:0:0:
256,192,7699,1,0,0:0:0:0:
153,192,7699,1,0,0:0:0:0:
153,192,7849,1,0,0:0:0:0:
153,192,7999,1,0,0:0:0:0:
256,192,8299,1,0,0:0:0:0:
460,192,8299,1,0,0:0:0:0:
51,192,8599,1,0,0:0:0:0:
256,192,8899,1,0,0:0:0:0:
460,192,8899,1,0,0:0:0:0:
51,192,9199,1,0,0:0:0:0:
153,192,9199,1,0,0:0:0:0:
256,192,9199,128,0,10324:0:0:0:0:
358,192,9274,1,0,0:0:0:0:
460,192,9274,1,0,0:0:0:0:
153,192,9349,1,0,0:0:0:0:
51,192,9349,1,0,0:0:0:0:
358,192,9424,1,0,0:0:0:0:
460,192,9424,1,0,0:0:0:0:
153,192,9499,1,0,0:0:0:0:
51,192,9499,1,0,0:0:0:0:
358,192,9574,1,0,0:0:0:0:
460,192,9574,1,0,0:0:0:0:
153,192,9649,1,0,0:0:0:0:
51,192,9649,1,0,0:0:0:0:
358,192,9724,1,0,0:0:0:0:
460,192,9724,1,0,0:0:0:0:
153,192,9799,1,0,0:0:0:0:
51,192,9799,1,0,0:0:0:0:
358,192,9874,1,0,0:0:0:0:
460,192,9874,1,0,0:0:0:0:
153,192,9949,1,0,0:0:0:0:
51,192,9949,1,0,0:0:0:0:
358,192,10024,1,0,0:0:0:0:
460,192,10024,1,0,0:0:0:0:
153,192,10099,1,0,0:0:0:0:
51,192,10099,1,0,0:0:0:0:
358,192,10174,1,0,0:0:0:0:
460,192,10174,1,0,0:0:0:0:
153,192,10249,1,0,0:0:0:0:
51,192,10249,1,0,0:0:0:0:
358,192,10324,1,0,0:0:0:0:
460,192,10324,1,0,0:0:0:0:
51,192,10399,1,0,0:0:0:0:
153,192,10399,1,0,0:0:0:0:
256,192,10399,128,0,11524:0:0:0:0:
358,192,10474,1,0,0:0:0:0:
460,192,10474,1,0,0:0:0:0:
153,192,10549,1,0,0:0:0:0:
51,192,10549,1,0,0:0:0:0:
358,192,10624,1,0,0:0:0:0:
460,192,10624,1,0,0:0:0:0:
153,192,10699,1,0,0:0:0:0:
51,192,10699,1,0,0:0:0:0:
358,192,10774,1,0,0:0:0:0:
460,192,10774,1,0,0:0:0:0:
153,192,10849,1,0,0:0:0:0:
51,192,10849,1,0,0:0:0:0:
358,192,10924,1,0,0:0:0:0:
460,192,10924,1,0,0:0:0:0:
153,192,10999,1,0,0:0:0:0:
51,192,10999,1,0,0:0:0:0:
358,192,11074,1,0,0:0:0:0:
460,192,11074,1,0,0:0:0:0:
153,192,11149,1,0,0:0:0:0:
51,192,11149,1,0,0:0:0:0:
358,192,11224,1,0,0:0:0:0:
460,192,11224,1,0,0:0:0:0:
153,192,11299,1,0,0:0:0:0:
51,192,11299,1,0,0:0:0:0:
358,192,11374,1,0,0:0:0:0:
460,192,11374,1,0,0:0:0:0:
153,192,11449,1,0,0:0:0:0:
51,192,11449,1,0,0:0:0:0:
358,192,11524,1,0,0:0:0:0:
460,192,11524,1,0,0:0:0:0:
51,192,11599,128,0,11674:0:0:0:0:
153,192,11599,128,0,11674:0:0:0:0:
256,192,11599,128,0,11674:0:0:0:0:
460,192,11674,128,0,11749:0:0:0:0:
153,192,11749,128,0,11824:0:0:0:0:
256,192,11749,128,0,11824:0:0:0:0:
358,192,11749,128,0,11824:0:0:0:0:
51,192,11824,128,0,11899:0:0:0:0:
256,192,11899,128,0,11974:0:0:0:0:
358,192,11899,128,0,11974:0:0:0:0:
460,192,11899,128,0,11974:0:0:0:0:
51,192,11974,128,0,12049:0:0:0:0:
358,192,12049,128,0,12124:0:0:0:0:
256,192,12049,128,0,12124:0:0:0:0:
153,192,12049,128,0,12124:0:0:0:0:
460,192,12124,128,0,12199:0:0:0:0:
256,192,12199,128,0,12274:0:0:0:0:
153,192,12199,128,0,12274:0:0:0:0:
51,192,12199,128,0,12274:0:0:0:0:
460,192,12274,128,0,12349:0:0:0:0:
153,192,12349,128,0,12424:0:0:0:0:
256,192,12349,128,0,12424:0:0:0:0:
358,192,12349,128,0,12424:0:0:0:0:
51,192,12424,128,0,12499:0:0:0:0:
256,192,12499,128,0,12574:0:0:0:0:
358,192,12499,128,0,12574:0:0:0:0:
460,192,12499,128,0,12574:0:0:0:0:
51,192,12574,128,0,12649:0:0:0:0:
358,192,12649,128,0,12724:0:0:0:0:
256,192,12649,128,0,12724:0:0:0:0:
153,192,12649,128,0,12724:0:0:0:0:
460,192,12724,128,0,12799:0:0:0:0:
256,192,12799,128,0,12874:0:0:0:0:
153,192,12799,128,0,12874:0:0:0:0:
51,192,12799,128,0,12874:0:0:0:0:
460,192,12874,128,0,12949:0:0:0:0:
51,192,12949,128,0,13024:0:0:0:0:
256,192,12949,128,0,13024:0:0:0:0:
358,192,12949,128,0,13024:0:0:0:0:
153,192,13024,128,0,13099:0:0:0:0:
51,192,13099,128,0,13174:0:0:0:0:
358,192,13099,128,0,13174:0:0:0:0:
460,192,13099,128,0,13174:0:0:0:0:
153,192,13174,128,0,13249:0:0:0:0:
51,192,13249,128,0,13324:0:0:0:0:
358,192,13249,128,0,13324:0:0:0:0:
256,192,13249,128,0,13324:0:0:0:0:
460,192,13324,128,0,13399:0:0:0:0:
51,192,13399,128,0,13474:0:0:0:0:
153,192,13399,128,0,13474:0:0:0:0:
256,192,13399,128,0,13474:0:0:0:0:
460,192,13474,128,0,13549:0:0:0:0:
51,192,13549,128,0,13624:0:0:0:0:
256,192,13549,128,0,13624:0:0:0:0:
358,192,13549,128,0,13624:0:0:0:0:
153,192,13624,128,0,13699:0:0:0:0:
51,192,13699,128,0,13774:0:0:0:0:
358,192,13699,128,0,13774:0:0:0:0:
460,192,13699,128,0,13774:0:0:0:0:
256,192,13774,1,0,0:0:0:0:
153,192,13849,128,0,13924:0:0:0:0:
256,192,13849,128,0,13924:0:0:0:0:
51,192,13849,128,0,13924:0:0:0:0:
358,192,13924,1,0,0:0:0:0:
256,192,13999,128,0,14074:0:0:0:0:
460,192,13999,128,0,14074:0:0:0:0:
358,192,13999,128,0,14074:0:0:0:0:
51,192,14074,128,0,14149:0:0:0:0:
460,192,14149,128,0,14224:0:0:0:0:
256,192,14149,128,0,14224:0:0:0:0:
153,192,14149,128,0,14224:0:0:0:0:
358,192,14224,128,0,14299:0:0:0:0:
460,192,14299,128,0,14374:0:0:0:0:
153,192,14299,128,0,14374:0:0:0:0:
51,192,14299,128,0,14374:0:0:0:0:
358,192,14374,128,0,14449:0:0:0:0:
460,192,14449,128,0,14524:0:0:0:0:
153,192,14449,128,0,14524:0:0:0:0:
256,192,14449,128,0,14524:0:0:0:0:
51,192,14524,128,0,14599:0:0:0:0:
460,192,14599,128,0,14674:0:0:0:0:
256,192,14599,128,0,14674:0:0:0:0:
358,192,14599,128,0,14674:0:0:0:0:
51,192,14674,128,0,14749:0:0:0:0:
460,192,14749,128,0,14824:0:0:0:0:
153,192,14749,128,0,14824:0:0:0:0:
256,192,14749,128,0,14824:0:0:0:0:
358,192,14824,128,0,14899:0:0:0:0:
460,192,14899,128,0,14974:0:0:0:0:
51,192,14899,128,0,14974:0:0:0:0:
153,192,14899,128,0,14974:0:0:0:0:
358,192,14974,128,0,15049:0:0:0:0:
460,192,15049,128,0,15124:0:0:0:0:
153,192,15049,128,0,15124:0:0:0:0:
256,192,15049,128,0,15124:0:0:0:0:
51,192,15124,128,0,15199:0:0:0:0:
256,192,15199,128,0,15274:0:0:0:0:
358,192,15199,128,0,15274:0:0:0:0:
460,192,15199,128,0,15274:0:0:0:0:
153,192,15274,128,0,15349:0:0:0:0:
256,192,15349,128,0,15424:0:0:0:0:
358,192,15349,128,0,15424:0:0:0:0:
460,192,15349,128,0,15424:0:0:0:0:
51,192,15424,128,0,15499:0:0:0:0:
153,192,15499,128,0,15574:0:0:0:0:
256,192,15499,128,0,15574:0:0:0:0:
358,192,15499,128,0,15574:0:0:0:0:
460,192,15574,128,0,15649:0:0:0:0:
153,192,15649,128,0,15724:0:0:0:0:
256,192,15649,128,0,15724:0:0:0:0:
358,192,15649,128,0,15724:0:0:0:0:
460,192,15724,128,0,15799:0:0:0:0:
51,192,15799,128,0,15874:0:0:0:0:
153,192,15799,128,0,15874:0:0:0:0:
256,192,15799,128,0,15874:0:0:0:0:
358,192,15874,128,0,15949:0:0:0:0:
51,192,15949,128,0,16024:0:0:0:0:
153,192,15949,128,0,16024:0:0:0:0:
256,192,15949,128,0,16024:0:0:0:0:
460,192,16024,128,0,16099:0:0:0:0:
153,192,16099,128,0,16174:0:0:0:0:
256,192,16099,128,0,16174:0:0:0:0:
358,192,16099,128,0,16174:0:0:0:0:
51,192,16174,128,0,16249:0:0:0:0:
153,192,16249,128,0,16324:0:0:0:0:
256,192,16249,128,0,16324:0:0:0:0:
358,192,16249,128,0,16324:0:0:0:0:
460,192,16324,1,0,0:0:0:0:
51,192,16399,128,0,16474:0:0:0:0:
358,192,16399,128,0,16474:0:0:0:0:
460,192,16399,128,0,16474:0:0:0:0:
256,192,16474,128,0,16549:0:0:0:0:
358,192,16549,128,0,16624:0:0:0:0:
460,192,16549,128,0,16624:0:0:0:0:
51,192,16549,128,0,16624:0:0:0:0:
153,192,16624,128,0,16699:0:0:0:0:
51,192,16699,128,0,16774:0:0:0:0:
358,192,16699,128,0,16774:0:0:0:0:
460,192,16699,128,0,16774:0:0:0:0:
256,192,16774,128,0,16849:0:0:0:0:
51,192,16849,128,0,16924:0:0:0:0:
358,192,16849,128,0,16924:0:0:0:0:
460,192,16849,128,0,16924:0:0:0:0:
153,192,16924,128,0,16999:0:0:0:0:
51,192,16999,128,0,17074:0:0:0:0:
358,192,16999,128,0,17074:0:0:0:0:
460,192,16999,128,0,17074:0:0:0:0:
256,192,17074,128,0,17149:0:0:0:0:
51,192,17149,128,0,17224:0:0:0:0:
358,192,17149,128,0,17224:0:0:0:0:
460,192,17149,128,0,17224:0:0:0:0:
153,192,17224,128,0,17299:0:0:0:0:
51,192,17299,128,0,17374:0:0:0:0:
358,192,17299,128,0,17374:0:0:0:0:
460,192,17299,128,0,17374:0:0:0:0:
256,192,17374,128,0,17449:0:0:0:0:
51,192,17449,128,0,17524:0:0:0:0:
358,192,17449,128,0,17524:0:0:0:0:
460,192,17449,128,0,17524:0:0:0:0:
256,192,17524,128,0,17599:0:0:0:0:
460,192,17599,128,0,17674:0:0:0:0:
153,192,17599,128,0,17674:0:0:0:0:
51,192,17599,128,0,17674:0:0:0:0:
256,192,17674,128,0,17749:0:0:0:0:
153,192,17749,128,0,17824:0:0:0:0:
51,192,17749,128,0,17824:0:0:0:0:
460,192,17749,128,0,17824:0:0:0:0:
358,192,17824,128,0,17899:0:0:0:0:
460,192,17899,128,0,17974:0:0:0:0:
153,192,17899,128,0,17974:0:0:0:0:
51,192,17899,128,0,17974:0:0:0:0:
256,192,17974,128,0,18049:0:0:0:0:
460,192,18049,128,0,18124:0:0:0:0:
51,192,18049,128,0,18124:0:0:0:0:
153,192,18049,128,0,18124:0:0:0:0:
358,192,18124,128,0,18199:0:0:0:0:
51,192,18199,128,0,18274:0:0:0:0:
153,192,18199,128,0,18274:0:0:0:0:
460,192,18199,128,0,18274:0:0:0:0:
256,192,18274,128,0,18349:0:0:0:0:
460,192,18349,128,0,18424:0:0:0:0:
153,192,18349,128,0,18424:0:0:0:0:
51,192,18349,128,0,18424:0:0:0:0:
358,192,18424,128,0,18499:0:0:0:0:
460,192,18499,128,0,18574:0:0:0:0:
153,192,18499,128,0,18574:0:0:0:0:
51,192,18499,128,0,18574:0:0:0:0:
256,192,18574,128,0,18649:0:0:0:0:
153,192,18649,128,0,18724:0:0:0:0:
51,192,18649,128,0,18724:0:0:0:0:
460,192,18649,128,0,18724:0:0:0:0:
358,192,18724,128,0,18874:0:0:0:0:
256,192,18799,128,0,21124:0:0:0:0:
460,192,18799,128,0,19024:0:0:0:0:
51,192,18799,128,0,18874:0:0:0:0:
153,192,18874,128,0,18949:0:0:0:0:
51,192,18949,128,0,19024:0:0:0:0:
358,192,18949,128,0,19174:0:0:0:0:
153,192,19024,128,0,19099:0:0:0:0:
460,192,19099,128,0,19324:0:0:0:0:
51,192,19099,128,0,19174:0:0:0:0:
153,192,19174,128,0,19249:0:0:0:0:
51,192,19249,128,0,19324:0:0:0:0:
358,192,19249,128,0,19474:0:0:0:0:
153,192,19324,128,0,19399:0:0:0:0:
460,192,19399,128,0,19624:0:0:0:0:
51,192,19399,128,0,19474:0:0:0:0:
153,192,19474,128,0,19549:0:0:0:0:
51,192,19549,128,0,19624:0:0:0:0:
358,192,19549,128,0,19774:0:0:0:0:
153,192,19624,128,0,19699:0:0:0:0:
460,192,19699,128,0,19924:0:0:0:0:
51,192,19699,128,0,19774:0:0:0:0:
153,192,19774,128,0,19849:0:0:0:0:
51,192,19849,128,0,19924:0:0:0:0:
358,192,19849,128,0,19999:0:0:0:0:
153,192,19924,128,0,20074:0:0:0:0:
51,192,19999,128,0,20224:0:0:0:0:
460,192,19999,128,0,20074:0:0:0:0:
358,192,20074,128,0,20149:0:0:0:0:
460,192,20149,128,0,20224:0:0:0:0:
153,192,20149,128,0,20374:0:0:0:0:
358,192,20224,128,0,20299:0:0:0:0:
51,192,20299,128,0,20524:0:0:0:0:
460,192,20299,128,0,20374:0:0:0:0:
358,192,20374,128,0,20449:0:0:0:0:
460,192,20449,128,0,20524:0:0:0:0:
153,192,20449,128,0,20674:0:0:0:0:
358,192,20524,128,0,20599:0:0:0:0:
51,192,20599,128,0,20824:0:0:0:0:
460,192,20599,128,0,20674:0:0:0:0:
358,192,20674,128,0,20749:0:0:0:0:
460,192,20749,128,0,20824:0:0:0:0:
153,192,20749,128,0,20974:0:0:0:0:
358,192,20824,128,0,20899:0:0:0:0:
51,192,20899,128,0,21124:0:0:0:0:
460,192,20899,128,0,20974:0:0:0:0:
358,192,20974,128,0,21049:0:0:0:0:
460,192,21049,128,0,21124:0:0:0:0:
153,192,21049,128,0,21124:0:0:0:0:
358,192,21124,1,0,0:0:0:0:
153,192,21199,128,0,21274:0:0:0:0:
256,192,21199,128,0,21274:0:0:0:0:
358,192,21199,128,0,21274:0:0:0:0:
460,192,21199,128,0,21274:0:0:0:0:
51,192,21274,1,0,0:0:0:0:
256,192,21349,128,0,21424:0:0:0:0:
358,192,21349,128,0,21424:0:0:0:0:
460,192,21349,128,0,21424:0:0:0:0:
51,192,21349,128,0,21424:0:0:0:0:
153,192,21424,1,0,0:0:0:0:
358,192,21499,128,0,21574:0:0:0:0:
460,192,21499,128,0,21574:0:0:0:0:
51,192,21499,128,0,21574:0:0:0:0:
153,192,21499,128,0,21574:0:0:0:0:
256,192,21574,1,0,0:0:0:0:
51,192,21649,128,0,21724:0:0:0:0:
153,192,21649,128,0,21724:0:0:0:0:
256,192,21649,128,0,21724:0:0:0:0:
460,192,21649,128,0,21724:0:0:0:0:
358,192,21724,1,0,0:0:0:0:
51,192,21799,128,0,21874:0:0:0:0:
153,192,21799,128,0,21874:0:0:0:0:
256,192,21799,128,0,21874:0:0:0:0:
358,192,21799,128,0,21874:0:0:0:0:
460,192,21874,1,0,0:0:0:0:
153,192,21949,128,0,22024:0:0:0:0:
256,192,21949,128,0,22024:0:0:0:0:
358,192,21949,128,0,22024:0:0:0:0:
460,192,21949,128,0,22024:0:0:0:0:
51,192,22024,1,0,0:0:0:0:
256,192,22099,128,0,22174:0:0:0:0:
358,192,22099,128,0,22174:0:0:0:0:
460,192,22099,128,0,22174:0:0:0:0:
51,192,22099,128,0,22174:0:0:0:0:
153,192,22174,1,0,0:0:0:0:
51,192,22249,128,0,22324:0:0:0:0:
153,192,22249,128,0,22324:0:0:0:0:
358,192,22249,128,0,22324:0:0:0:0:
460,192,22249,128,0,22324:0:0:0:0:
256,192,22324,1,0,0:0:0:0:
51,192,22399,128,0,22474:0:0:0:0:
153,192,22399,128,0,22474:0:0:0:0:
256,192,22399,128,0,22474:0:0:0:0:
460,192,22399,128,0,22474:0:0:0:0:
358,192,22474,1,0,0:0:0:0:
51,192,22549,128,0,22624:0:0:0:0:
153,192,22549,128,0,22624:0:0:0:0:
256,192,22549,128,0,22624:0:0:0:0:
358,192,22549,128,0,22624:0:0:0:0:
460,192,22624,1,0,0:0:0:0:
153,192,22699,128,0,22774:0:0:0:0:
256,192,22699,128,0,22774:0:0:0:0:
358,192,22699,128,0,22774:0:0:0:0:
460,192,22699,128,0,22774:0:0:0:0:
51,192,22774,1,0,0:0:0:0:
256,192,22849,128,0,22924:0:0:0:0:
358,192,22849,128,0,22924:0:0:0:0:
460,192,22849,128,0,22924:0:0:0:0:
51,192,22849,128,0,22924:0:0:0:0:
153,192,22924,1,0,0:0:0:0:
51,192,22999,128,0,23074:0:0:0:0:
358,192,22999,128,0,23074:0:0:0:0:
460,192,22999,128,0,23074:0:0:0:0:
153,192,22999,128,0,23074:0:0:0:0:
256,192,23074,1,0,0:0:0:0:
51,192,23149,128,0,23224:0:0:0:0:
153,192,23149,128,0,23224:0:0:0:0:
256,192,23149,128,0,23224:0:0:0:0:
460,192,23149,128,0,23224:0:0:0:0:
358,192,23224,1,0,0:0:0:0:
51,192,23299,128,0,23374:0:0:0:0:
153,192,23299,128,0,23374:0:0:0:0:
256,192,23299,128,0,23374:0:0:0:0:
358,192,23299,128,0,23374:0:0:0:0:
460,192,23374,1,0,0:0:0:0:
153,192,23449,128,0,23524:0:0:0:0:
256,192,23449,128,0,23524:0:0:0:0:
358,192,23449,128,0,23524:0:0:0:0:
460,192,23449,128,0,23524:0:0:0:0:
51,192,23524,1,0,0:0:0:0:
51,192,23599,128,0,23674:0:0:0:0:
153,192,23599,1,0,0:0:0:0:
256,192,23599,1,0,0:0:0:0:
460,192,23599,1,0,0:0:0:0:
358,192,23674,1,0,0:0:0:0:
51,192,23749,128,0,23824:0:0:0:0:
460,192,23749,1,0,0:0:0:0:
153,192,23749,1,0,0:0:0:0:
256,192,23824,1,0,0:0:0:0:
51,192,23899,128,0,23974:0:0:0:0:
358,192,23899,1,0,0:0:0:0:
460,192,23899,1,0,0:0:0:0:
153,192,23974,1,0,0:0:0:0:
51,192,24049,128,0,24274:0:0:0:0:
256,192,24049,1,0,0:0:0:0:
358,192,24049,1,0,0:0:0:0:
460,192,24124,1,0,0:0:0:0:
153,192,24199,1,0,0:0:0:0:
256,192,24199,1,0,0:0:0:0:
358,192,24274,1,0,0:0:0:0:
51,192,24349,128,0,24424:0:0:0:0:
460,192,24349,1,0,0:0:0:0:
153,192,24349,1,0,0:0:0:0:
256,192,24424,1,0,0:0:0:0:
51,192,24499,128,0,24574:0:0:0:0:
358,192,24499,1,0,0:0:0:0:
460,192,24499,1,0,0:0:0:0:
153,192,24574,1,0,0:0:0:0:
51,192,24649,128,0,24724:0:0:0:0:
256,192,24649,1,0,0:0:0:0:
358,192,24649,1,0,0:0:0:0:
460,192,24724,1,0,0:0:0:0:
153,192,24799,1,0,0:0:0:0:
256,192,24799,1,0,0:0:0:0:
460,192,24799,128,0,24874:0:0:0:0:
358,192,24874,1,0,0:0:0:0:
460,192,24949,128,0,25024:0:0:0:0:
51,192,24949,1,0,0:0:0:0:
153,192,24949,1,0,0:0:0:0:
256,192,25024,1,0,0:0:0:0:
460,192,25099,128,0,25174:0:0:0:0:
51,192,25099,1,0,0:0:0:0:
358,192,25099,1,0,0:0:0:0:
153,192,25174,1,0,0:0:0:0:
460,192,25249,128,0,25474:0:0:0:0:
256,192,25249,1,0,0:0:0:0:
358,192,25249,1,0,0:0:0:0:
51,192,25324,1,0,0:0:0:0:
153,192,25399,1,0,0:0:0:0:
256,192,25399,1,0,0:0:0:0:
358,192,25474,1,0,0:0:0:0:
460,192,25549,128,0,25624:0:0:0:0:
51,192,25549,1,0,0:0:0:0:
153,192,25549,1,0,0:0:0:0:
256,192,25624,1,0,0:0:0:0:
460,192,25699,128,0,25774:0:0:0:0:
358,192,25699,1,0,0:0:0:0:
51,192,25699,1,0,0:0:0:0:
153,192,25774,1,0,0:0:0:0:
460,192,25849,128,0,25924:0:0:0:0:
256,192,25849,1,0,0:0:0:0:
358,192,25849,1,0,0:0:0:0:
51,192,25924,1,0,0:0:0:0:
460,192,25999,1,0,0:0:0:0:
153,192,25999,1,0,0:0:0:0:
256,192,25999,128,0,26074:0:0:0:0:
358,192,25999,1,0,0:0:0:0:
51,192,26074,1,0,0:0:0:0:
256,192,26149,128,0,26224:0:0:0:0:
358,192,26149,1,0,0:0:0:0:
460,192,26149,1,0,0:0:0:0:
153,192,26224,1,0,0:0:0:0:
256,192,26299,128,0,26374:0:0:0:0:
358,192,26299,1,0,0:0:0:0:
460,192,26299,1,0,0:0:0:0:
51,192,26374,1,0,0:0:0:0:
256,192,26449,128,0,26674:0:0:0:0:
358,192,26449,1,0,0:0:0:0:
460,192,26449,1,0,0:0:0:0:
153,192,26524,1,0,0:0:0:0:
358,192,26599,1,0,0:0:0:0:
51,192,26599,1,0,0:0:0:0:
460,192,26674,1,0,0:0:0:0:
256,192,26749,128,0,26824:0:0:0:0:
153,192,26749,1,0,0:0:0:0:
51,192,26749,1,0,0:0:0:0:
358,192,26824,1,0,0:0:0:0:
256,192,26899,128,0,26974:0:0:0:0:
153,192,26899,1,0,0:0:0:0:
51,192,26899,1,0,0:0:0:0:
460,192,26974,1,0,0:0:0:0:
256,192,27049,128,0,27124:0:0:0:0:
153,192,27049,1,0,0:0:0:0:
51,192,27049,1,0,0:0:0:0:
358,192,27124,1,0,0:0:0:0:
153,192,27199,1,0,0:0:0:0:
460,192,27199,1,0,0:0:0:0:
51,192,27199,128,0,27274:0:0:0:0:
256,192,27274,1,0,0:0:0:0:
51,192,27349,128,0,27424:0:0:0:0:
358,192,27349,1,0,0:0:0:0:
460,192,27349,1,0,0:0:0:0:
153,192,27424,1,0,0:0:0:0:
51,192,27499,128,0,27574:0:0:0:0:
256,192,27499,1,0,0:0:0:0:
358,192,27499,1,0,0:0:0:0:
460,192,27574,1,0,0:0:0:0:
51,192,27649,128,0,27874:0:0:0:0:
153,192,27649,1,0,0:0:0:0:
256,192,27649,1,0,0:0:0:0:
358,192,27724,1,0,0:0:0:0:
460,192,27799,1,0,0:0:0:0:
153,192,27799,1,0,0:0:0:0:
256,192,27874,1,0,0:0:0:0:
51,192,27949,128,0,28024:0:0:0:0:
358,192,27949,1,0,0:0:0:0:
460,192,27949,1,0,0:0:0:0:
153,192,28024,1,0,0:0:0:0:
51,192,28099,128,0,28174:0:0:0:0:
256,192,28099,1,0,0:0:0:0:
358,192,28099,1,0,0:0:0:0:
460,192,28174,1,0,0:0:0:0:
51,192,28249,128,0,28324:0:0:0:0:
153,192,28249,1,0,0:0:0:0:
256,192,28249,1,0,0:0:0:0:
358,192,28324,1,0,0:0:0:0:
51,192,28399,1,0,0:0:0:0:
460,192,28399,1,0,0:0:0:0:
153,192,28399,128,0,28474:0:0:0:0:
256,192,28474,1,0,0:0:0:0:
153,192,28549,128,0,28624:0:0:0:0:
358,192,28549,1,0,0:0:0:0:
460,192,28549,1,0,0:0:0:0:
51,192,28624,1,0,0:0:0:0:
153,192,28699,128,0,28774:0:0:0:0:
256,192,28699,1,0,0:0:0:0:
358,192,28699,1,0,0:0:0:0:
460,192,28774,1,0,0:0:0:0:
153,192,28849,128,0,29074:0:0:0:0:
256,192,28849,1,0,0:0:0:0:
51,192,28849,1,0,0:0:0:0:
358,192,28924,1,0,0:0:0:0:
460,192,28999,1,0,0:0:0:0:
51,192,28999,1,0,0:0:0:0:
256,192,29074,1,0,0:0:0:0:
153,192,29149,128,0,29224:0:0:0:0:
358,192,29149,1,0,0:0:0:0:
460,192,29149,1,0,0:0:0:0:
51,192,29224,1,0,0:0:0:0:
153,192,29299,128,0,29374:0:0:0:0:
256,192,29299,1,0,0:0:0:0:
358,192,29299,1,0,0:0:0:0:
460,192,29374,1,0,0:0:0:0:
153,192,29449,128,0,29524:0:0:0:0:
51,192,29449,1,0,0:0:0:0:
358,192,29449,1,0,0:0:0:0:
256,192,29524,1,0,0:0:0:0:
51,192,29599,1,0,0:0:0:0:
153,192,29599,1,0,0:0:0:0:
460,192,29599,128,0,29674:0:0:0:0:
358,192,29674,1,0,0:0:0:0:
460,192,29749,128,0,29824:0:0:0:0:
256,192,29749,1,0,0:0:0:0:
153,192,29749,1,0,0:0:0:0:
51,192,29824,1,0,0:0:0:0:
460,192,29899,128,0,29974:0:0:0:0:
256,192,29899,1,0,0:0:0:0:
358,192,29899,1,0,0:0:0:0:
153,192,29974,1,0,0:0:0:0:
460,192,30049,128,0,30274:0:0:0:0:
51,192,30049,1,0,0:0:0:0:
358,192,30049,1,0,0:0:0:0:
256,192,30124,1,0,0:0:0:0:
153,192,30199,1,0,0:0:0:0:
51,192,30199,1,0,0:0:0:0:
358,192,30274,1,0,0:0:0:0:
460,192,30349,128,0,30424:0:0:0:0:
256,192,30349,1,0,0:0:0:0:
153,192,30349,1,0,0:0:0:0:
51,192,30424,1,0,0:0:0:0:
460,192,30499,128,0,30574:0:0:0:0:
358,192,30499,1,0,0:0:0:0:
256,192,30499,1,0,0:0:0:0:
153,192,30574,1,0,0:0:0:0:
460,192,30649,128,0,30724:0:0:0:0:
51,192,30649,1,0,0:0:0:0:
358,192,30649,1,0,0:0:0:0:
256,192,30724,1,0,0:0:0:0:
153,192,30799,1,0,0:0:0:0:
51,192,30799,1,0,0:0:0:0:
460,192,30799,1,0,0:0:0:0:
358,192,30799,128,0,30874:0:0:0:0:
256,192,30874,1,0,0:0:0:0:
358,192,30949,128,0,31024:0:0:0:0:
460,192,30949,1,0,0:0:0:0:
51,192,30949,1,0,0:0:0:0:
153,192,31024,1,0,0:0:0:0:
358,192,31099,128,0,31174:0:0:0:0:
256,192,31099,1,0,0:0:0:0:
460,192,31099,1,0,0:0:0:0:
51,192,31174,1,0,0:0:0:0:
358,192,31249,128,0,31474:0:0:0:0:
153,192,31249,1,0,0:0:0:0:
256,192,31249,1,0,0:0:0:0:
460,192,31324,1,0,0:0:0:0:
51,192,31399,1,0,0:0:0:0:
153,192,31399,1,0,0:0:0:0:
256,192,31474,1,0,0:0:0:0:
358,192,31549,128,0,31624:0:0:0:0:
460,192,31549,1,0,0:0:0:0:
51,192,31549,1,0,0:0:0:0:
153,192,31624,1,0,0:0:0:0:
358,192,31699,128,0,31774:0:0:0:0:
256,192,31699,1,0,0:0:0:0:
460,192,31699,1,0,0:0:0:0:
51,192,31774,1,0,0:0:0:0:
358,192,31849,128,0,31924:0:0:0:0:
153,192,31849,1,0,0:0:0:0:
256,192,31849,1,0,0:0:0:0:
460,192,31924,1,0,0:0:0:0:
51,192,31999,1,0,0:0:0:0:
153,192,31999,1,0,0:0:0:0:
256,192,31999,128,0,32074:0:0:0:0:
358,192,32074,1,0,0:0:0:0:
256,192,32149,128,0,32224:0:0:0:0:
460,192,32149,1,0,0:0:0:0:
51,192,32149,1,0,0:0:0:0:
153,192,32224,1,0,0:0:0:0:
256,192,32299,128,0,32374:0:0:0:0:
358,192,32299,1,0,0:0:0:0:
460,192,32299,1,0,0:0:0:0:
51,192,32374,1,0,0:0:0:0:
256,192,32449,128,0,32674:0:0:0:0:
153,192,32449,1,0,0:0:0:0:
358,192,32449,1,0,0:0:0:0:
460,192,32524,1,0,0:0:0:0:
51,192,32599,1,0,0:0:0:0:
153,192,32599,1,0,0:0:0:0:
358,192,32674,1,0,0:0:0:0:
256,192,32749,128,0,32824:0:0:0:0:
460,192,32749,1,0,0:0:0:0:
51,192,32749,1,0,0:0:0:0:
153,192,32824,1,0,0:0:0:0:
256,192,32899,128,0,32974:0:0:0:0:
358,192,32899,1,0,0:0:0:0:
460,192,32899,1,0,0:0:0:0:
51,192,32974,1,0,0:0:0:0:
256,192,33049,128,0,33124:0:0:0:0:
153,192,33049,1,0,0:0:0:0:
358,192,33049,1,0,0:0:0:0:
460,192,33124,1,0,0:0:0:0:
51,192,33199,128,0,33274:0:0:0:0:
153,192,33199,128,0,33274:0:0:0:0:
256,192,33199,128,0,33274:0:0:0:0:
358,192,33274,128,0,33349:0:0:0:0:
51,192,33349,128,0,33424:0:0:0:0:
153,192,33349,128,0,33424:0:0:0:0:
256,192,33349,128,0,33424:0:0:0:0:
358,192,33424,128,0,33499:0:0:0:0:
51,192,33499,128,0,33574:0:0:0:0:
153,192,33499,128,0,33574:0:0:0:0:
256,192,33499,128,0,33574:0:0:0:0:
358,192,33574,128,0,33649:0:0:0:0:
51,192,33649,128,0,33874:0:0:0:0:
153,192,33649,128,0,33874:0:0:0:0:
256,192,33649,128,0,33874:0:0:0:0:
358,192,33724,128,0,33799:0:0:0:0:
358,192,33874,128,0,33949:0:0:0:0:
51,192,33949,128,0,34024:0:0:0:0:
153,192,33949,128,0,34024:0:0:0:0:
256,192,33949,128,0,34024:0:0:0:0:
358,192,34024,128,0,34099:0:0:0:0:
51,192,34099,128,0,34174:0:0:0:0:
153,192,34099,128,0,34174:0:0:0:0:
256,192,34099,128,0,34174:0:0:0:0:
358,192,34174,128,0,34249:0:0:0:0:
51,192,34249,128,0,34324:0:0:0:0:
153,192,34249,128,0,34324:0:0:0:0:
256,192,34249,128,0,34324:0:0:0:0:
460,192,34324,128,0,34399:0:0:0:0:
153,192,34399,128,0,34474:0:0:0:0:
256,192,34399,128,0,34474:0:0:0:0:
358,192,34399,128,0,34474:0:0:0:0:
460,192,34474,128,0,34549:0:0:0:0:
153,192,34549,128,0,34624:0:0:0:0:
256,192,34549,128,0,34624:0:0:0:0:
358,192,34549,128,0,34624:0:0:0:0:
460,192,34624,128,0,34699:0:0:0:0:
153,192,34699,128,0,34774:0:0:0:0:
256,192,34699,128,0,34774:0:0:0:0:
358,192,34699,128,0,34774:0:0:0:0:
460,192,34774,128,0,34849:0:0:0:0:
153,192,34849,128,0,35074:0:0:0:0:
256,192,34849,128,0,35074:0:0:0:0:
358,192,34849,128,0,35074:0:0:0:0:
460,192,34924,128,0,34999:0:0:0:0:
460,192,35074,128,0,35149:0:0:0:0:
153,192,35149,128,0,35224:0:0:0:0:
256,192,35149,128,0,35224:0:0:0:0:
358,192,35149,128,0,35224:0:0:0:0:
460,192,35224,128,0,35299:0:0:0:0:
153,192,35299,128,0,35374:0:0:0:0:
256,192,35299,128,0,35374:0:0:0:0:
358,192,35299,128,0,35374:0:0:0:0:
460,192,35374,128,0,35449:0:0:0:0:
153,192,35449,128,0,35524:0:0:0:0:
256,192,35449,128,0,35524:0:0:0:0:
358,192,35449,128,0,35524:0:0:0:0:
51,192,35524,128,0,35599:0:0:0:0:
358,192,35599,128,0,35674:0:0:0:0:
256,192,35599,128,0,35674:0:0:0:0:
460,192,35599,128,0,35674:0:0:0:0:
153,192,35674,128,0,35749:0:0:0:0:
460,192,35749,128,0,35824:0:0:0:0:
358,192,35749,128,0,35824:0:0:0:0:
256,192,35749,128,0,35824:0:0:0:0:
153,192,35824,128,0,35899:0:0:0:0:
256,192,35899,128,0,35974:0:0:0:0:
358,192,35899,128,0,35974:0:0:0:0:
460,192,35899,128,0,35974:0:0:0:0:
153,192,35974,128,0,36049:0:0:0:0:
358,192,36049,128,0,36274:0:0:0:0:
256,192,36049,128,0,36274:0:0:0:0:
460,192,36049,128,0,36274:0:0:0:0:
153,192,36124,128,0,36199:0:0:0:0:
153,192,36274,128,0,36349:0:0:0:0:
256,192,36349,128,0,36424:0:0:0:0:
358,192,36349,128,0,36424:0:0:0:0:
460,192,36349,128,0,36424:0:0:0:0:
153,192,36424,128,0,36499:0:0:0:0:
460,192,36499,128,0,36574:0:0:0:0:
358,192,36499,128,0,36574:0:0:0:0:
256,192,36499,128,0,36574:0:0:0:0:
153,192,36574,128,0,36649:0:0:0:0:
256,192,36649,128,0,36724:0:0:0:0:
358,192,36649,128,0,36724:0:0:0:0:
460,192,36649,128,0,36724:0:0:0:0:
51,192,36724,128,0,36799:0:0:0:0:
358,192,36799,128,0,36874:0:0:0:0:
153,192,36799,128,0,36874:0:0:0:0:
256,192,36799,128,0,36874:0:0:0:0:
51,192,36874,128,0,36949:0:0:0:0:
153,192,36949,128,0,37024:0:0:0:0:
256,192,36949,128,0,37024:0:0:0:0:
358,192,36949,128,0,37024:0:0:0:0:
51,192,37024,128,0,37099:0:0:0:0:
358,192,37099,128,0,37174:0:0:0:0:
256,192,37099,128,0,37174:0:0:0:0:
153,192,37099,128,0,37174:0:0:0:0:
51,192,37174,128,0,37249:0:0:0:0:
358,192,37249,128,0,37474:0:0:0:0:
153,192,37249,128,0,37474:0:0:0:0:
256,192,37249,128,0,37474:0:0:0:0:
51,192,37324,128,0,37399:0:0:0:0:
51,192,37474,128,0,37549:0:0:0:0:
358,192,37549,128,0,37624:0:0:0:0:
256,192,37549,128,0,37624:0:0:0:0:
153,192,37549,128,0,37624:0:0:0:0:
51,192,37624,128,0,37699:0:0:0:0:
153,192,37699,128,0,37774:0:0:0:0:
256,192,37699,128,0,37774:0:0:0:0:
358,192,37699,128,0,37774:0:0:0:0:
51,192,37774,128,0,37849:0:0:0:0:
358,192,37849,128,0,37924:0:0:0:0:
256,192,37849,128,0,37924:0:0:0:0:
153,192,37849,128,0,37924:0:0:0:0:
460,192,37924,128,0,37999:0:0:0:0:
153,192,37999,128,0,38074:0:0:0:0:
51,192,37999,128,0,38074:0:0:0:0:
256,192,37999,128,0,38074:0:0:0:0:
358,192,38074,128,0,38149:0:0:0:0:
256,192,38149,128,0,38224:0:0:0:0:
153,192,38149,128,0,38224:0:0:0:0:
51,192,38149,128,0,38224:0:0:0:0:
460,192,38224,128,0,38299:0:0:0:0:
51,192,38299,128,0,38374:0:0:0:0:
153,192,38299,128,0,38374:0:0:0:0:
256,192,38299,128,0,38374:0:0:0:0:
358,192,38374,128,0,38449:0:0:0:0:
153,192,38449,128,0,38674:0:0:0:0:
51,192,38449,128,0,38674:0:0:0:0:
256,192,38449,128,0,38674:0:0:0:0:
460,192,38524,128,0,38599:0:0:0:0:
358,192,38674,128,0,38749:0:0:0:0:
51,192,38749,128,0,38824:0:0:0:0:
153,192,38749,128,0,38824:0:0:0:0:
256,192,38749,128,0,38824:0:0:0:0:
460,192,38824,128,0,38899:0:0:0:0:
256,192,38899,128,0,38974:0:0:0:0:
153,192,38899,128,0,38974:0:0:0:0:
51,192,38899,128,0,38974:0:0:0:0:
358,192,38974,128,0,39049:0:0:0:0:
51,192,39049,128,0,39124:0:0:0:0:
153,192,39049,128,0,39124:0:0:0:0:
256,192,39049,128,0,39124:0:0:0:0:
460,192,39124,128,0,39199:0:0:0:0:
358,192,39199,128,0,39274:0:0:0:0:
153,192,39199,128,0,39274:0:0:0:0:
256,192,39199,128,0,39274:0:0:0:0:
51,192,39274,128,0,39349:0:0:0:0:
153,192,39349,128,0,39424:0:0:0:0:
256,192,39349,128,0,39424:0:0:0:0:
358,192,39349,128,0,39424:0:0:0:0:
460,192,39424,128,0,39499:0:0:0:0:
358,192,39499,128,0,39574:0:0:0:0:
256,192,39499,128,0,39574:0:0:0:0:
153,192,39499,128,0,39574:0:0:0:0:
51,192,39574,128,0,39649:0:0:0:0:
358,192,39649,128,0,39874:0:0:0:0:
153,192,39649,128,0,39874:0:0:0:0:
256,192,39649,128,0,39874:0:0:0:0:
460,192,39724,128,0,39799:0:0:0:0:
460,192,39874,128,0,39949:0:0:0:0:
358,192,39949,128,0,40024:0:0:0:0:
256,192,39949,128,0,40024:0:0:0:0:
153,192,39949,128,0,40024:0:0:0:0:
51,192,40024,128,0,40099:0:0:0:0:
153,192,40099,128,0,40174:0:0:0:0:
256,192,40099,128,0,40174:0:0:0:0:
358,192,40099,128,0,40174:0:0:0:0:
460,192,40174,128,0,40249:0:0:0:0:
358,192,40249,128,0,40324:0:0:0:0:
256,192,40249,128,0,40324:0:0:0:0:
153,192,40249,128,0,40324:0:0:0:0:
51,192,40324,128,0,40399:0:0:0:0:
358,192,40399,128,0,40474:0:0:0:0:
256,192,40399,128,0,40474:0:0:0:0:
460,192,40399,128,0,40474:0:0:0:0:
153,192,40474,128,0,40549:0:0:0:0:
460,192,40549,128,0,40624:0:0:0:0:
358,192,40549,128,0,40624:0:0:0:0:
256,192,40549,128,0,40624:0:0:0:0:
51,192,40624,128,0,40699:0:0:0:0:
256,192,40699,128,0,40774:0:0:0:0:
358,192,40699,128,0,40774:0:0:0:0:
460,192,40699,128,0,40774:0:0:0:0:
153,192,40774,128,0,40849:0:0:0:0:
358,192,40849,128,0,41074:0:0:0:0:
256,192,40849,128,0,41074:0:0:0:0:
460,192,40849,128,0,41074:0:0:0:0:
51,192,40924,128,0,40999:0:0:0:0:
153,192,41074,128,0,41149:0:0:0:0:
256,192,41149,128,0,41224:0:0:0:0:
358,192,41149,128,0,41224:0:0:0:0:
460,192,41149,128,0,41224:0:0:0:0:
51,192,41224,128,0,41299:0:0:0:0:
460,192,41299,128,0,41374:0:0:0:0:
358,192,41299,128,0,41374:0:0:0:0:
256,192,41299,128,0,41374:0:0:0:0:
153,192,41374,128,0,41449:0:0:0:0:
256,192,41449,128,0,41524:0:0:0:0:
358,192,41449,128,0,41524:0:0:0:0:
460,192,41449,128,0,41524:0:0:0:0:
51,192,41524,1,0,0:0:0:0:
256,192,41599,128,0,41674:0:0:0:0:
51,192,41599,128,0,41674:0:0:0:0:
153,192,41599,128,0,41674:0:0:0:0:
358,192,41599,128,0,41674:0:0:0:0:
460,192,41674,128,0,41749:0:0:0:0:
51,192,41749,128,0,41824:0:0:0:0:
153,192,41749,128,0,41824:0:0:0:0:
256,192,41749,128,0,41824:0:0:0:0:
358,192,41749,128,0,41824:0:0:0:0:
460,192,41824,128,0,41899:0:0:0:0:
256,192,41899,128,0,41974:0:0:0:0:
153,192,41899,128,0,41974:0:0:0:0:
51,192,41899,128,0,41974:0:0:0:0:
358,192,41899,128,0,41974:0:0:0:0:
460,192,41974,128,0,42049:0:0:0:0:
256,192,42049,128,0,42274:0:0:0:0:
51,192,42049,128,0,42274:0:0:0:0:
153,192,42049,128,0,42274:0:0:0:0:
358,192,42049,128,0,42124:0:0:0:0:
460,192,42124,128,0,42199:0:0:0:0:
358,192,42199,128,0,42274:0:0:0:0:
460,192,42274,128,0,42349:0:0:0:0:
256,192,42349,128,0,42424:0:0:0:0:
153,192,42349,128,0,42424:0:0:0:0:
51,192,42349,128,0,42424:0:0:0:0:
358,192,42349,128,0,42424:0:0:0:0:
460,192,42424,128,0,42499:0:0:0:0:
51,192,42499,128,0,42574:0:0:0:0:
153,192,42499,128,0,42574:0:0:0:0:
256,192,42499,128,0,42574:0:0:0:0:
358,192,42499,128,0,42574:0:0:0:0:
460,192,42574,128,0,42724:0:0:0:0:
256,192,42649,128,0,42724:0:0:0:0:
153,192,42649,128,0,42724:0:0:0:0:
51,192,42649,128,0,42724:0:0:0:0:
358,192,42649,128,0,42799:0:0:0:0:
51,192,42799,128,0,43024:0:0:0:0:
153,192,42799,128,0,42949:0:0:0:0:
460,192,42799,128,0,42874:0:0:0:0:
256,192,42799,128,0,42874:0:0:0:0:
358,192,42874,128,0,43024:0:0:0:0:
256,192,42949,128,0,43099:0:0:0:0:
460,192,42949,128,0,43324:0:0:0:0:
153,192,43024,128,0,43174:0:0:0:0:
51,192,43099,128,0,43249:0:0:0:0:
358,192,43099,128,0,43174:0:0:0:0:
256,192,43174,128,0,43324:0:0:0:0:
153,192,43249,128,0,43399:0:0:0:0:
358,192,43249,128,0,43624:0:0:0:0:
51,192,43324,128,0,43474:0:0:0:0:
460,192,43399,128,0,43624:0:0:0:0:
256,192,43399,128,0,43549:0:0:0:0:
153,192,43474,128,0,43624:0:0:0:0:
51,192,43549,128,0,43699:0:0:0:0:
256,192,43624,128,0,43774:0:0:0:0:
153,192,43699,128,0,43849:0:0:0:0:
358,192,43699,128,0,43924:0:0:0:0:
460,192,43699,128,0,43924:0:0:0:0:
51,192,43774,128,0,43924:0:0:0:0:
256,192,43849,128,0,44074:0:0:0:0:
153,192,43924,128,0,43999:0:0:0:0:
51,192,43999,128,0,44149:0:0:0:0:
460,192,43999,128,0,44224:0:0:0:0:
358,192,43999,128,0,44149:0:0:0:0:
153,192,44074,128,0,44224:0:0:0:0:
256,192,44149,128,0,44524:0:0:0:0:
358,192,44224,128,0,44299:0:0:0:0:
51,192,44224,128,0,44374:0:0:0:0:
460,192,44299,128,0,44374:0:0:0:0:
153,192,44299,128,0,44449:0:0:0:0:
358,192,44374,128,0,44524:0:0:0:0:
460,192,44449,128,0,44524:0:0:0:0:
51,192,44449,128,0,44599:0:0:0:0:
153,192,44524,128,0,44674:0:0:0:0:
256,192,44599,128,0,44749:0:0:0:0:
460,192,44599,128,0,44899:0:0:0:0:
358,192,44599,128,0,44824:0:0:0:0:
51,192,44674,128,0,45199:0:0:0:0:
153,192,44749,128,0,45124:0:0:0:0:
256,192,44824,128,0,45049:0:0:0:0:
358,192,44899,128,0,44974:0:0:0:0:
460,192,44974,128,0,45124:0:0:0:0:
358,192,45049,128,0,45199:0:0:0:0:
256,192,45124,128,0,45274:0:0:0:0:
153,192,45199,128,0,45349:0:0:0:0:
460,192,45199,128,0,45424:0:0:0:0:
51,192,45274,128,0,45424:0:0:0:0:
358,192,45274,128,0,45424:0:0:0:0:
256,192,45349,128,0,45499:0:0:0:0:
153,192,45424,128,0,45574:0:0:0:0:
51,192,45499,128,0,45649:0:0:0:0:
460,192,45499,128,0,45724:0:0:0:0:
358,192,45499,128,0,45724:0:0:0:0:
256,192,45574,128,0,45724:0:0:0:0:
153,192,45649,128,0,45799:0:0:0:0:
51,192,45724,128,0,45874:0:0:0:0:
460,192,45799,128,0,46024:0:0:0:0:
358,192,45799,128,0,46024:0:0:0:0:
256,192,45799,128,0,45949:0:0:0:0:
153,192,45874,128,0,46024:0:0:0:0:
51,192,45949,128,0,46099:0:0:0:0:
256,192,46024,128,0,46174:0:0:0:0:
358,192,46099,128,0,46474:0:0:0:0:
460,192,46099,128,0,46549:0:0:0:0:
153,192,46099,128,0,46324:0:0:0:0:
51,192,46174,128,0,46324:0:0:0:0:
256,192,46249,128,0,46399:0:0:0:0:
51,192,46399,128,0,46624:0:0:0:0:
153,192,46399,128,0,46624:0:0:0:0:
256,192,46474,128,0,46624:0:0:0:0:
358,192,46549,128,0,46699:0:0:0:0:
460,192,46624,128,0,46774:0:0:0:0:
153,192,46699,128,0,46924:0:0:0:0:
51,192,46699,128,0,46924:0:0:0:0:
256,192,46699,128,0,46774:0:0:0:0:
358,192,46774,128,0,46849:0:0:0:0:
460,192,46849,128,0,46924:0:0:0:0:
256,192,46849,128,0,46924:0:0:0:0:
358,192,46924,128,0,46999:0:0:0:0:
460,192,46999,128,0,47074:0:0:0:0:
153,192,46999,128,0,47224:0:0:0:0:
51,192,46999,128,0,47224:0:0:0:0:
256,192,46999,128,0,47074:0:0:0:0:
358,192,47074,128,0,47149:0:0:0:0:
460,192,47149,128,0,47224:0:0:0:0:
256,192,47149,128,0,47224:0:0:0:0:
358,192,47224,128,0,47299:0:0:0:0:
153,192,47299,128,0,47524:0:0:0:0:
51,192,47299,128,0,47524:0:0:0:0:
460,192,47299,128,0,47374:0:0:0:0:
256,192,47299,128,0,47374:0:0:0:0:
358,192,47374,128,0,47449:0:0:0:0:
256,192,47449,128,0,47524:0:0:0:0:
460,192,47449,128,0,47674:0:0:0:0:
358,192,47524,128,0,47599:0:0:0:0:
256,192,47599,128,0,47824:0:0:0:0:
153,192,47599,128,0,47749:0:0:0:0:
51,192,47599,128,0,47674:0:0:0:0:
358,192,47674,128,0,47899:0:0:0:0:
51,192,47749,128,0,47899:0:0:0:0:
460,192,47749,128,0,47974:0:0:0:0:
153,192,47824,128,0,47974:0:0:0:0:
256,192,47899,128,0,48049:0:0:0:0:
358,192,47974,128,0,48124:0:0:0:0:
51,192,47974,128,0,48349:0:0:0:0:
460,192,48049,128,0,48124:0:0:0:0:
153,192,48049,128,0,48274:0:0:0:0:
256,192,48124,128,0,48199:0:0:0:0:
358,192,48199,128,0,48424:0:0:0:0:
460,192,48199,128,0,48424:0:0:0:0:
256,192,48274,128,0,48424:0:0:0:0:
153,192,48349,128,0,48499:0:0:0:0:
51,192,48424,128,0,48574:0:0:0:0:
358,192,48499,128,0,48724:0:0:0:0:
460,192,48499,128,0,48724:0:0:0:0:
256,192,48499,128,0,48649:0:0:0:0:
153,192,48574,128,0,48799:0:0:0:0:
51,192,48649,128,0,48724:0:0:0:0:
256,192,48724,128,0,48874:0:0:0:0:
460,192,48799,128,0,49024:0:0:0:0:
358,192,48799,128,0,48949:0:0:0:0:
51,192,48799,128,0,49024:0:0:0:0:
153,192,48874,128,0,49099:0:0:0:0:
256,192,48949,128,0,49174:0:0:0:0:
358,192,49024,128,0,49249:0:0:0:0:
460,192,49099,128,0,49324:0:0:0:0:
51,192,49099,128,0,49324:0:0:0:0:
153,192,49174,128,0,49399:0:0:0:0:
256,192,49249,128,0,49474:0:0:0:0:
358,192,49324,128,0,49549:0:0:0:0:
460,192,49399,128,0,49624:0:0:0:0:
51,192,49399,128,0,49624:0:0:0:0:
153,192,49474,128,0,49699:0:0:0:0:
256,192,49549,128,0,49774:0:0:0:0:
358,192,49624,128,0,49849:0:0:0:0:
460,192,49699,128,0,49924:0:0:0:0:
51,192,49699,128,0,49924:0:0:0:0:
153,192,49774,128,0,50149:0:0:0:0:
256,192,49849,128,0,50074:0:0:0:0:
358,192,49924,128,0,49999:0:0:0:0:
460,192,49999,128,0,50224:0:0:0:0:
51,192,49999,128,0,50224:0:0:0:0:
358,192,50074,128,0,50299:0:0:0:0:
256,192,50149,128,0,50374:0:0:0:0:
153,192,50224,128,0,50449:0:0:0:0:
51,192,50299,128,0,50524:0:0:0:0:
460,192,50299,128,0,50524:0:0:0:0:
358,192,50374,128,0,50599:0:0:0:0:
256,192,50449,128,0,50674:0:0:0:0:
153,192,50524,128,0,50749:0:0:0:0:
51,192,50599,128,0,50824:0:0:0:0:
460,192,50599,128,0,50824:0:0:0:0:
358,192,50674,128,0,50899:0:0:0:0:
256,192,50749,128,0,50974:0:0:0:0:
153,192,50824,128,0,51049:0:0:0:0:
51,192,50899,128,0,51124:0:0:0:0:
460,192,50899,128,0,51124:0:0:0:0:
358,192,50974,128,0,51049:0:0:0:0:
256,192,51049,128,0,51124:0:0:0:0:
153,192,51124,128,0,51199:0:0:0:0:
358,192,51124,128,0,51349:0:0:0:0:
256,192,51199,128,0,51274:0:0:0:0:
460,192,51199,128,0,52324:0:0:0:0:
51,192,51199,128,0,51724:0:0:0:0:
153,192,51274,128,0,51349:0:0:0:0:
256,192,51349,128,0,51424:0:0:0:0:
358,192,51424,128,0,51499:0:0:0:0:
153,192,51424,128,0,51649:0:0:0:0:
256,192,51499,128,0,51574:0:0:0:0:
358,192,51574,128,0,52024:0:0:0:0:
256,192,51649,128,0,51799:0:0:0:0:
153,192,51724,128,0,51874:0:0:0:0:
51,192,51799,128,0,51949:0:0:0:0:
256,192,51874,128,0,52024:0:0:0:0:
153,192,51949,128,0,52099:0:0:0:0:
51,192,52024,128,0,52174:0:0:0:0:
256,192,52099,128,0,52249:0:0:0:0:
358,192,52099,128,0,52324:0:0:0:0:
153,192,52174,128,0,52324:0:0:0:0:
51,192,52249,128,0,52324:0:0:0:0:
256,192,52324,1,0,0:0:0:0:
51,192,52399,1,0,0:0:0:0:
153,192,52424,1,0,0:0:0:0:
256,192,52449,1,0,0:0:0:0:
358,192,52474,1,0,0:0:0:0:
460,192,52499,1,0,0:0:0:0:
358,192,52524,1,0,0:0:0:0:
256,192,52549,1,0,0:0:0:0:
153,192,52574,1,0,0:0:0:0:
51,192,52599,1,0,0:0:0:0:
153,192,52624,1,0,0:0:0:0:
256,192,52649,1,0,0:0:0:0:
358,192,52674,1,0,0:0:0:0:
460,192,52699,1,0,0:0:0:0:
358,192,52724,1,0,0:0:0:0:
256,192,52749,1,0,0:0:0:0:
153,192,52774,1,0,0:0:0:0:
51,192,52799,1,0,0:0:0:0:
153,192,52824,1,0,0:0:0:0:
256,192,52849,1,0,0:0:0:0:
358,192,52874,1,0,0:0:0:0:
460,192,52899,1,0,0:0:0:0:
358,192,52924,1,0,0:0:0:0:
256,192,52949,1,0,0:0:0:0:
153,192,52974,1,0,0:0:0:0:
51,192,52999,1,0,0:0:0:0:
153,192,53024,1,0,0:0:0:0:
256,192,53049,1,0,0:0:0:0:
358,192,53074,1,0,0:0:0:0:
460,192,53099,1,0,0:0:0:0:
358,192,53124,1,0,0:0:0:0:
256,192,53149,1,0,0:0:0:0:
153,192,53174,1,0,0:0:0:0:
51,192,53199,1,0,0:0:0:0:
153,192,53224,1,0,0:0:0:0:
256,192,53249,1,0,0:0:0:0:
358,192,53274,1,0,0:0:0:0:
460,192,53299,1,0,0:0:0:0:
358,192,53324,1,0,0:0:0:0:
256,192,53349,1,0,0:0:0:0:
153,192,53374,1,0,0:0:0:0:
51,192,53399,1,0,0:0:0:0:
153,192,53424,1,0,0:0:0:0:
256,192,53449,1,0,0:0:0:0:
358,192,53474,1,0,0:0:0:0:
460,192,53499,1,0,0:0:0:0:
358,192,53524,1,0,0:0:0:0:
256,192,53549,1,0,0:0:0:0:
153,192,53574,1,0,0:0:0:0:
51,192,53599,1,0,0:0:0:0:
460,192,53599,128,0,53624:0:0:0:0:
358,192,53624,128,0,53649:0:0:0:0:
256,192,53649,128,0,53674:0:0:0:0:
153,192,53674,128,0,53699:0:0:0:0:
51,192,53699,128,0,53724:0:0:0:0:
460,192,53724,128,0,53749:0:0:0:0:
358,192,53749,128,0,53774:0:0:0:0:
256,192,53774,128,0,53799:0:0:0:0:
153,192,53799,128,0,53824:0:0:0:0:
51,192,53824,128,0,53849:0:0:0:0:
460,192,53849,128,0,53874:0:0:0:0:
358,192,53874,128,0,53899:0:0:0:0:
256,192,53899,128,0,53924:0:0:0:0:
153,192,53924,128,0,53949:0:0:0:0:
51,192,53949,128,0,53974:0:0:0:0:
460,192,53974,128,0,53999:0:0:0:0:
358,192,53999,128,0,54024:0:0:0:0:
256,192,54024,128,0,54049:0:0:0:0:
153,192,54049,128,0,54074:0:0:0:0:
51,192,54074,128,0,54099:0:0:0:0:
460,192,54099,128,0,54124:0:0:0:0:
358,192,54124,128,0,54149:0:0:0:0:
256,192,54149,128,0,54174:0:0:0:0:
153,192,54174,128,0,54199:0:0:0:0:
51,192,54199,128,0,54224:0:0:0:0:
460,192,54224,128,0,54249:0:0:0:0:
358,192,54249,128,0,54274:0:0:0:0:
256,192,54274,128,0,54299:0:0:0:0:
153,192,54299,128,0,54324:0:0:0:0:
51,192,54324,128,0,54349:0:0:0:0:
460,192,54349,128,0,54374:0:0:0:0:
358,192,54374,128,0,54399:0:0:0:0:
256,192,54399,128,0,54424:0:0:0:0:
153,192,54424,128,0,54449:0:0:0:0:
51,192,54449,128,0,54474:0:0:0:0:
460,192,54474,128,0,54499:0:0:0:0:
358,192,54499,128,0,54524:0:0:0:0:
256,192,54524,128,0,54549:0:0:0:0:
153,192,54549,128,0,54574:0:0:0:0:
51,192,54574,128,0,54599:0:0:0:0:
460,192,54599,128,0,54624:0:0:0:0:
358,192,54624,128,0,54649:0:0:0:0:
256,192,54649,128,0,54674:0:0:0:0:
153,192,54674,128,0,54699:0:0:0:0:
51,192,54699,128,0,54724:0:0:0:0:
460,192,54724,128,0,54749:0:0:0:0:
358,192,54749,128,0,54774:0:0:0:0:
256,192,54774,128,0,54799:0:0:0:0:
153,192,54799,1,0,0:0:0:0:
51,192,54799,1,0,0:0:0:0:
460,192,54799,1,0,0:0:0:0:
358,192,54874,1,0,0:0:0:0:
256,192,54874,1,0,0:0:0:0:
51,192,55024,1,0,0:0:0:0:
153,192,55024,1,0,0:0:0:0:
256,192,55099,1,0,0:0:0:0:
358,192,55099,1,0,0:0:0:0:
460,192,55099,1,0,0:0:0:0:
153,192,55174,1,0,0:0:0:0:
51,192,55174,1,0,0:0:0:0:
51,192,55399,1,0,0:0:0:0:
256,192,55399,1,0,0:0:0:0:
460,192,55399,1,0,0:0:0:0:
153,192,55549,1,0,0:0:0:0:
358,192,55549,1,0,0:0:0:0:
51,192,55699,1,0,0:0:0:0:
256,192,55699,1,0,0:0:0:0:
460,192,55699,1,0,0:0:0:0:
358,192,55774,1,0,0:0:0:0:
153,192,55774,1,0,0:0:0:0:
51,192,55849,1,0,0:0:0:0:
256,192,55849,1,0,0:0:0:0:
51,192,55999,1,0,0:0:0:0:
153,192,55999,1,0,0:0:0:0:
256,192,55999,1,0,0:0:0:0:
358,192,56074,1,0,0:0:0:0:
460,192,56074,1,0,0:0:0:0:
51,192,56224,1,0,0:0:0:0:
153,192,56224,1,0,0:0:0:0:
256,192,56299,1,0,0:0:0:0:
460,192,56299,1,0,0:0:0:0:
358,192,56299,1,0,0:0:0:0:
153,192,56374,1,0,0:0:0:0:
51,192,56374,1,0,0:0:0:0:
153,192,56599,1,0,0:0:0:0:
256,192,56599,1,0,0:0:0:0:
358,192,56599,1,0,0:0:0:0:
51,192,56749,1,0,0:0:0:0:
460,192,56749,1,0,0:0:0:0:
153,192,56899,1,0,0:0:0:0:
256,192,56899,1,0,0:0:0:0:
460,192,56899,1,0,0:0:0:0:
358,192,56974,1,0,0:0:0:0:
51,192,56974,1,0,0:0:0:0:
153,192,57049,1,0,0:0:0:0:
460,192,57049,1,0,0:0:0:0:
51,192,57199,1,0,0:0:0:0:
358,192,57199,1,0,0:0:0:0:
460,192,57199,1,0,0:0:0:0:
256,192,57274,1,0,0:0:0:0:
153,192,57274,1,0,0:0:0:0:
358,192,57424,1,0,0:0:0:0:
460,192,57424,1,0,0:0:0:0:
256,192,57499,1,0,0:0:0:0:
153,192,57499,1,0,0:0:0:0:
51,192,57499,1,0,0:0:0:0:
358,192,57574,1,0,0:0:0:0:
460,192,57574,1,0,0:0:0:0:
51,192,57799,1,0,0:0:0:0:
153,192,57799,1,0,0:0:0:0:
460,192,57799,1,0,0:0:0:0:
256,192,57949,1,0,0:0:0:0:
358,192,57949,1,0,0:0:0:0:
51,192,58099,1,0,0:0:0:0:
153,192,58099,1,0,0:0:0:0:
460,192,58099,1,0,0:0:0:0:
358,192,58174,1,0,0:0:0:0:
256,192,58174,1,0,0:0:0:0:
153,192,58249,1,0,0:0:0:0:
51,192,58249,1,0,0:0:0:0:
51,192,58399,1,0,0:0:0:0:
358,192,58399,1,0,0:0:0:0:
460,192,58399,1,0,0:0:0:0:
256,192,58474,1,0,0:0:0:0:
153,192,58474,1,0,0:0:0:0:
358,192,58624,1,0,0:0:0:0:
460,192,58624,1,0,0:0:0:0:
153,192,58699,1,0,0:0:0:0:
51,192,58699,1,0,0:0:0:0:
256,192,58699,1,0,0:0:0:0:
358,192,58774,1,0,0:0:0:0:
460,192,58774,1,0,0:0:0:0:
153,192,58924,1,0,0:0:0:0:
256,192,58924,1,0,0:0:0:0:
51,192,58999,1,0,0:0:0:0:
358,192,58999,1,0,0:0:0:0:
460,192,58999,1,0,0:0:0:0:
153,192,59074,1,0,0:0:0:0:
256,192,59074,1,0,0:0:0:0:
51,192,59299,1,0,0:0:0:0:
153,192,59299,1,0,0:0:0:0:
256,192,59299,1,0,0:0:0:0:
358,192,59374,1,0,0:0:0:0:
460,192,59374,1,0,0:0:0:0:
256,192,59449,1,0,0:0:0:0:
153,192,59449,1,0,0:0:0:0:
256,192,59599,1,0,0:0:0:0:
358,192,59599,1,0,0:0:0:0:
460,192,59599,1,0,0:0:0:0:
51,192,59674,1,0,0:0:0:0:
153,192,59674,1,0,0:0:0:0:
358,192,59824,1,0,0:0:0:0:
460,192,59824,1,0,0:0:0:0:
256,192,59899,1,0,0:0:0:0:
153,192,59899,1,0,0:0:0:0:
51,192,59899,1,0,0:0:0:0:
358,192,59974,1,0,0:0:0:0:
460,192,59974,1,0,0:0:0:0:
51,192,60199,1,0,0:0:0:0:
153,192,60199,1,0,0:0:0:0:
358,192,60199,1,0,0:0:0:0:
256,192,60349,1,0,0:0:0:0:
460,192,60349,1,0,0:0:0:0:
153,192,60499,1,0,0:0:0:0:
358,192,60499,1,0,0:0:0:0:
460,192,60499,1,0,0:0:0:0:
256,192,60574,1,0,0:0:0:0:
51,192,60574,1,0,0:0:0:0:
153,192,60649,1,0,0:0:0:0:
358,192,60649,1,0,0:0:0:0:
51,192,60799,1,0,0:0:0:0:
358,192,60799,1,0,0:0:0:0:
460,192,60799,1,0,0:0:0:0:
256,192,60874,1,0,0:0:0:0:
153,192,60874,1,0,0:0:0:0:
51,192,61024,1,0,0:0:0:0:
460,192,61024,1,0,0:0:0:0:
153,192,61099,1,0,0:0:0:0:
256,192,61099,1,0,0:0:0:0:
358,192,61099,1,0,0:0:0:0:
460,192,61174,1,0,0:0:0:0:
51,192,61174,1,0,0:0:0:0:
153,192,61399,1,0,0:0:0:0:
256,192,61399,1,0,0:0:0:0:
460,192,61399,1,0,0:0:0:0:
51,192,61549,1,0,0:0:0:0:
358,192,61549,1,0,0:0:0:0:
51,192,61699,1,0,0:0:0:0:
153,192,61699,1,0,0:0:0:0:
460,192,61699,1,0,0:0:0:0:
256,192,61774,1,0,0:0:0:0:
358,192,61774,1,0,0:0:0:0:
153,192,61849,1,0,0:0:0:0:
460,192,61849,1,0,0:0:0:0:
51,192,61999,1,0,0:0:0:0:
358,192,61999,1,0,0:0:0:0:
460,192,61999,1,0,0:0:0:0:
256,192,62074,1,0,0:0:0:0:
153,192,62074,1,0,0:0:0:0:
51,192,62224,1,0,0:0:0:0:
358,192,62224,1,0,0:0:0:0:
256,192,62299,1,0,0:0:0:0:
153,192,62299,1,0,0:0:0:0:
460,192,62299,1,0,0:0:0:0:
358,192,62374,1,0,0:0:0:0:
51,192,62374,1,0,0:0:0:0:
153,192,62599,1,0,0:0:0:0:
256,192,62599,1,0,0:0:0:0:
51,192,62599,1,0,0:0:0:0:
358,192,62749,1,0,0:0:0:0:
460,192,62749,1,0,0:0:0:0:
256,192,62899,1,0,0:0:0:0:
51,192,62899,1,0,0:0:0:0:
460,192,62899,1,0,0:0:0:0:
153,192,62974,1,0,0:0:0:0:
358,192,62974,1,0,0:0:0:0:
51,192,63049,1,0,0:0:0:0:
256,192,63049,1,0,0:0:0:0:
51,192,63199,1,0,0:0:0:0:
358,192,63199,1,0,0:0:0:0:
460,192,63199,1,0,0:0:0:0:
256,192,63274,1,0,0:0:0:0:
153,192,63274,1,0,0:0:0:0:
153,192,63424,1,0,0:0:0:0:
51,192,63424,1,0,0:0:0:0:
460,192,63499,1,0,0:0:0:0:
358,192,63499,1,0,0:0:0:0:
256,192,63499,1,0,0:0:0:0:
153,192,63574,1,0,0:0:0:0:
51,192,63574,1,0,0:0:0:0:
358,192,63724,1,0,0:0:0:0:
460,192,63724,1,0,0:0:0:0:
256,192,63799,1,0,0:0:0:0:
153,192,63799,1,0,0:0:0:0:
51,192,63799,1,0,0:0:0:0:
460,192,63874,1,0,0:0:0:0:
358,192,63874,1,0,0:0:0:0:
358,192,63949,1,0,0:0:0:0:
256,192,63949,1,0,0:0:0:0:
256,192,64024,1,0,0:0:0:0:
153,192,64024,1,0,0:0:0:0:
153,192,64099,1,0,0:0:0:0:
51,192,64099,1,0,0:0:0:0:
460,192,64099,1,0,0:0:0:0:
256,192,64174,1,0,0:0:0:0:
153,192,64174,1,0,0:0:0:0:
358,192,64249,1,0,0:0:0:0:
256,192,64249,1,0,0:0:0:0:
460,192,64324,1,0,0:0:0:0:
358,192,64324,1,0,0:0:0:0:
51,192,64399,1,0,0:0:0:0:
153,192,64399,1,0,0:0:0:0:
460,192,64399,1,0,0:0:0:0:
256,192,64399,1,0,0:0:0:0:
358,192,64474,1,0,0:0:0:0:
51,192,64624,1,0,0:0:0:0:
153,192,64624,1,0,0:0:0:0:
256,192,64699,1,0,0:0:0:0:
358,192,64699,1,0,0:0:0:0:
460,192,64699,1,0,0:0:0:0:
153,192,64774,1,0,0:0:0:0:
51,192,64774,1,0,0:0:0:0:
256,192,64999,1,0,0:0:0:0:
153,192,64999,1,0,0:0:0:0:
358,192,64999,1,0,0:0:0:0:
460,192,65149,1,0,0:0:0:0:
51,192,65149,1,0,0:0:0:0:
51,192,65299,1,0,0:0:0:0:
460,192,65299,1,0,0:0:0:0:
256,192,65299,1,0,0:0:0:0:
153,192,65374,1,0,0:0:0:0:
358,192,65374,1,0,0:0:0:0:
256,192,65449,1,0,0:0:0:0:
460,192,65449,1,0,0:0:0:0:
51,192,65599,1,0,0:0:0:0:
153,192,65599,1,0,0:0:0:0:
358,192,65599,1,0,0:0:0:0:
460,192,65599,1,0,0:0:0:0:
51,192,65674,1,0,0:0:0:0:
460,192,65674,1,0,0:0:0:0:
153,192,65824,1,0,0:0:0:0:
256,192,65824,1,0,0:0:0:0:
358,192,65899,1,0,0:0:0:0:
460,192,65899,1,0,0:0:0:0:
51,192,65899,1,0,0:0:0:0:
153,192,65974,1,0,0:0:0:0:
256,192,65974,1,0,0:0:0:0:
256,192,66199,1,0,0:0:0:0:
358,192,66199,1,0,0:0:0:0:
460,192,66199,1,0,0:0:0:0:
51,192,66349,1,0,0:0:0:0:
153,192,66349,1,0,0:0:0:0:
256,192,66499,1,0,0:0:0:0:
51,192,66499,1,0,0:0:0:0:
358,192,66499,1,0,0:0:0:0:
460,192,66574,1,0,0:0:0:0:
153,192,66574,1,0,0:0:0:0:
51,192,66649,1,0,0:0:0:0:
358,192,66649,1,0,0:0:0:0:
51,192,66799,1,0,0:0:0:0:
256,192,66799,1,0,0:0:0:0:
358,192,66799,1,0,0:0:0:0:
460,192,66799,1,0,0:0:0:0:
51,192,66874,1,0,0:0:0:0:
460,192,66874,1,0,0:0:0:0:
153,192,67024,1,0,0:0:0:0:
358,192,67024,1,0,0:0:0:0:
51,192,67099,1,0,0:0:0:0:
256,192,67099,1,0,0:0:0:0:
460,192,67099,1,0,0:0:0:0:
153,192,67174,1,0,0:0:0:0:
358,192,67174,1,0,0:0:0:0:
51,192,67399,1,0,0:0:0:0:
153,192,67399,1,0,0:0:0:0:
460,192,67399,1,0,0:0:0:0:
256,192,67549,1,0,0:0:0:0:
358,192,67549,1,0,0:0:0:0:
51,192,67699,1,0,0:0:0:0:
460,192,67699,1,0,0:0:0:0:
256,192,67699,1,0,0:0:0:0:
358,192,67774,1,0,0:0:0:0:
153,192,67774,1,0,0:0:0:0:
460,192,67849,1,0,0:0:0:0:
256,192,67849,1,0,0:0:0:0:
51,192,67999,1,0,0:0:0:0:
153,192,67999,1,0,0:0:0:0:
460,192,67999,1,0,0:0:0:0:
51,192,68074,1,0,0:0:0:0:
460,192,68074,1,0,0:0:0:0:
256,192,68224,1,0,0:0:0:0:
358,192,68224,1,0,0:0:0:0:
153,192,68299,1,0,0:0:0:0:
51,192,68299,1,0,0:0:0:0:
460,192,68299,1,0,0:0:0:0:
358,192,68374,1,0,0:0:0:0:
153,192,68374,1,0,0:0:0:0:
256,192,68524,1,0,0:0:0:0:
460,192,68524,1,0,0:0:0:0:
51,192,68599,1,0,0:0:0:0:
153,192,68599,1,0,0:0:0:0:
358,192,68599,1,0,0:0:0:0:
256,192,68674,1,0,0:0:0:0:
460,192,68674,1,0,0:0:0:0:
153,192,68899,1,0,0:0:0:0:
256,192,68899,1,0,0:0:0:0:
460,192,68899,1,0,0:0:0:0:
358,192,68974,1,0,0:0:0:0:
51,192,68974,1,0,0:0:0:0:
153,192,69049,1,0,0:0:0:0:
460,192,69049,1,0,0:0:0:0:
51,192,69199,1,0,0:0:0:0:
153,192,69199,1,0,0:0:0:0:
358,192,69199,1,0,0:0:0:0:
460,192,69199,1,0,0:0:0:0:
153,192,69274,1,0,0:0:0:0:
358,192,69274,1,0,0:0:0:0:
51,192,69424,1,0,0:0:0:0:
460,192,69424,1,0,0:0:0:0:
153,192,69499,1,0,0:0:0:0:
256,192,69499,1,0,0:0:0:0:
358,192,69499,1,0,0:0:0:0:
51,192,69574,1,0,0:0:0:0:
460,192,69574,1,0,0:0:0:0:
256,192,69799,1,0,0:0:0:0:
358,192,69799,1,0,0:0:0:0:
460,192,69799,1,0,0:0:0:0:
153,192,69949,1,0,0:0:0:0:
51,192,69949,1,0,0:0:0:0:
153,192,70099,1,0,0:0:0:0:
358,192,70099,1,0,0:0:0:0:
460,192,70099,1,0,0:0:0:0:
256,192,70174,1,0,0:0:0:0:
51,192,70174,1,0,0:0:0:0:
358,192,70249,1,0,0:0:0:0:
153,192,70249,1,0,0:0:0:0:
51,192,70399,1,0,0:0:0:0:
153,192,70399,1,0,0:0:0:0:
256,192,70399,1,0,0:0:0:0:
460,192,70399,1,0,0:0:0:0:
51,192,70474,1,0,0:0:0:0:
460,192,70474,1,0,0:0:0:0:
256,192,70624,1,0,0:0:0:0:
358,192,70624,1,0,0:0:0:0:
153,192,70699,1,0,0:0:0:0:
51,192,70699,1,0,0:0:0:0:
460,192,70699,1,0,0:0:0:0:
358,192,70774,1,0,0:0:0:0:
256,192,70774,1,0,0:0:0:0:
51,192,70999,1,0,0:0:0:0:
153,192,70999,1,0,0:0:0:0:
460,192,70999,1,0,0:0:0:0:
358,192,71149,1,0,0:0:0:0:
153,192,71149,1,0,0:0:0:0:
51,192,71299,1,0,0:0:0:0:
256,192,71299,1,0,0:0:0:0:
358,192,71299,1,0,0:0:0:0:
153,192,71374,1,0,0:0:0:0:
460,192,71374,1,0,0:0:0:0:
358,192,71449,1,0,0:0:0:0:
51,192,71449,1,0,0:0:0:0:
51,192,71599,1,0,0:0:0:0:
153,192,71599,1,0,0:0:0:0:
358,192,71599,1,0,0:0:0:0:
460,192,71599,1,0,0:0:0:0:
153,192,71674,1,0,0:0:0:0:
358,192,71674,1,0,0:0:0:0:
51,192,71824,1,0,0:0:0:0:
256,192,71824,1,0,0:0:0:0:
358,192,71899,1,0,0:0:0:0:
460,192,71899,1,0,0:0:0:0:
153,192,71899,1,0,0:0:0:0:
256,192,71974,1,0,0:0:0:0:
460,192,71974,1,0,0:0:0:0:
51,192,72199,1,0,0:0:0:0:
153,192,72199,1,0,0:0:0:0:
358,192,72199,1,0,0:0:0:0:
256,192,72349,1,0,0:0:0:0:
460,192,72349,1,0,0:0:0:0:
153,192,72499,1,0,0:0:0:0:
460,192,72499,1,0,0:0:0:0:
358,192,72499,1,0,0:0:0:0:
256,192,72574,1,0,0:0:0:0:
51,192,72574,1,0,0:0:0:0:
153,192,72649,1,0,0:0:0:0:
460,192,72649,1,0,0:0:0:0:
51,192,72799,1,0,0:0:0:0:
153,192,72799,1,0,0:0:0:0:
358,192,72799,1,0,0:0:0:0:
460,192,72799,1,0,0:0:0:0:
51,192,72874,1,0,0:0:0:0:
460,192,72874,1,0,0:0:0:0:
256,192,73024,1,0,0:0:0:0:
153,192,73024,1,0,0:0:0:0:
358,192,73099,1,0,0:0:0:0:
51,192,73099,1,0,0:0:0:0:
460,192,73099,1,0,0:0:0:0:
153,192,73174,1,0,0:0:0:0:
256,192,73174,1,0,0:0:0:0:
358,192,73324,1,0,0:0:0:0:
256,192,73324,1,0,0:0:0:0:
51,192,73399,1,0,0:0:0:0:
153,192,73399,1,0,0:0:0:0:
460,192,73399,1,0,0:0:0:0:
358,192,73474,1,0,0:0:0:0:
256,192,73549,1,0,0:0:0:0:
153,192,73624,1,0,0:0:0:0:
51,192,73699,1,0,0:0:0:0:
460,192,73699,1,0,0:0:0:0:
256,192,73699,1,0,0:0:0:0:
358,192,73774,1,0,0:0:0:0:
256,192,73849,1,0,0:0:0:0:
153,192,73924,1,0,0:0:0:0:
358,192,73999,128,0,74224:0:0:0:0:
460,192,73999,128,0,74224:0:0:0:0:
153,192,73999,128,0,74074:0:0:0:0:
256,192,73999,128,0,74149:0:0:0:0:
51,192,73999,1,0,0:0:0:0:
51,192,74074,128,0,74224:0:0:0:0:
153,192,74149,128,0,74299:0:0:0:0:
256,192,74224,128,0,74374:0:0:0:0:
358,192,74299,128,0,74524:0:0:0:0:
460,192,74299,128,0,74524:0:0:0:0:
51,192,74299,128,0,74449:0:0:0:0:
153,192,74374,128,0,74524:0:0:0:0:
256,192,74449,128,0,74599:0:0:0:0:
51,192,74524,128,0,74674:0:0:0:0:
358,192,74599,128,0,74824:0:0:0:0:
460,192,74599,128,0,74824:0:0:0:0:
153,192,74599,128,0,74749:0:0:0:0:
256,192,74674,128,0,74824:0:0:0:0:
51,192,74749,128,0,74899:0:0:0:0:
153,192,74824,128,0,74974:0:0:0:0:
358,192,74899,128,0,75124:0:0:0:0:
460,192,74899,128,0,75199:0:0:0:0:
256,192,74899,128,0,75049:0:0:0:0:
51,192,74974,128,0,75124:0:0:0:0:
153,192,75049,128,0,75124:0:0:0:0:
256,192,75124,128,0,75274:0:0:0:0:
51,192,75199,128,0,75424:0:0:0:0:
153,192,75199,128,0,75424:0:0:0:0:
358,192,75199,128,0,75349:0:0:0:0:
460,192,75274,128,0,75424:0:0:0:0:
256,192,75349,128,0,75499:0:0:0:0:
358,192,75424,128,0,75574:0:0:0:0:
153,192,75499,128,0,75724:0:0:0:0:
51,192,75499,128,0,75724:0:0:0:0:
460,192,75499,128,0,75649:0:0:0:0:
256,192,75574,128,0,75724:0:0:0:0:
358,192,75649,128,0,75799:0:0:0:0:
460,192,75724,128,0,75874:0:0:0:0:
153,192,75799,128,0,76024:0:0:0:0:
51,192,75799,128,0,76024:0:0:0:0:
256,192,75799,128,0,75949:0:0:0:0:
358,192,75874,128,0,76024:0:0:0:0:
460,192,75949,128,0,76099:0:0:0:0:
256,192,76024,128,0,76174:0:0:0:0:
153,192,76099,128,0,76324:0:0:0:0:
51,192,76099,128,0,76324:0:0:0:0:
358,192,76099,128,0,76324:0:0:0:0:
460,192,76174,128,0,76249:0:0:0:0:
256,192,76249,128,0,76399:0:0:0:0:
460,192,76324,128,0,76474:0:0:0:0:
358,192,76399,128,0,76549:0:0:0:0:
153,192,76399,128,0,76624:0:0:0:0:
51,192,76399,128,0,76624:0:0:0:0:
256,192,76474,128,0,76624:0:0:0:0:
460,192,76549,128,0,76699:0:0:0:0:
358,192,76624,128,0,76774:0:0:0:0:
153,192,76699,128,0,76924:0:0:0:0:
51,192,76699,128,0,76924:0:0:0:0:
256,192,76699,128,0,76849:0:0:0:0:
460,192,76774,128,0,76924:0:0:0:0:
358,192,76849,128,0,76999:0:0:0:0:
256,192,76924,128,0,77074:0:0:0:0:
153,192,76999,128,0,77224:0:0:0:0:
51,192,76999,128,0,77224:0:0:0:0:
460,192,76999,128,0,77149:0:0:0:0:
358,192,77074,128,0,77224:0:0:0:0:
256,192,77149,128,0,77299:0:0:0:0:
460,192,77224,128,0,77374:0:0:0:0:
153,192,77299,128,0,77599:0:0:0:0:
51,192,77299,128,0,77674:0:0:0:0:
358,192,77299,128,0,77449:0:0:0:0:
256,192,77374,128,0,77524:0:0:0:0:
460,192,77449,128,0,77524:0:0:0:0:
358,192,77524,128,0,77824:0:0:0:0:
256,192,77599,128,0,77749:0:0:0:0:
460,192,77599,128,0,77824:0:0:0:0:
153,192,77674,128,0,77824:0:0:0:0:
51,192,77749,128,0,77899:0:0:0:0:
256,192,77824,128,0,77974:0:0:0:0:
358,192,77899,128,0,78124:0:0:0:0:
460,192,77899,128,0,78124:0:0:0:0:
153,192,77899,128,0,78049:0:0:0:0:
51,192,77974,128,0,78124:0:0:0:0:
256,192,78049,128,0,78199:0:0:0:0:
153,192,78124,128,0,78274:0:0:0:0:
51,192,78199,128,0,78349:0:0:0:0:
358,192,78199,128,0,78424:0:0:0:0:
460,192,78199,128,0,78424:0:0:0:0:
256,192,78274,128,0,78424:0:0:0:0:
153,192,78349,128,0,78499:0:0:0:0:
51,192,78424,128,0,78574:0:0:0:0:
358,192,78499,128,0,78724:0:0:0:0:
460,192,78499,128,0,78724:0:0:0:0:
256,192,78499,128,0,78649:0:0:0:0:
153,192,78574,128,0,78799:0:0:0:0:
51,192,78649,128,0,78724:0:0:0:0:
256,192,78724,128,0,78874:0:0:0:0:
358,192,78799,128,0,78949:0:0:0:0:
460,192,78799,128,0,79024:0:0:0:0:
51,192,78799,128,0,79024:0:0:0:0:
153,192,78874,128,0,79024:0:0:0:0:
256,192,78949,128,0,79099:0:0:0:0:
358,192,79024,128,0,79174:0:0:0:0:
460,192,79099,128,0,79324:0:0:0:0:
51,192,79099,128,0,79324:0:0:0:0:
153,192,79099,128,0,79249:0:0:0:0:
256,192,79174,128,0,79324:0:0:0:0:
358,192,79249,128,0,79399:0:0:0:0:
153,192,79324,128,0,79474:0:0:0:0:
256,192,79399,128,0,79549:0:0:0:0:
460,192,79399,128,0,79624:0:0:0:0:
51,192,79399,128,0,79624:0:0:0:0:
358,192,79474,128,0,79624:0:0:0:0:
153,192,79549,128,0,79699:0:0:0:0:
256,192,79624,128,0,79774:0:0:0:0:
51,192,79699,128,0,79924:0:0:0:0:
460,192,79699,128,0,79924:0:0:0:0:
358,192,79699,128,0,79849:0:0:0:0:
153,192,79774,128,0,79999:0:0:0:0:
256,192,79849,128,0,79924:0:0:0:0:
358,192,79924,128,0,80074:0:0:0:0:
51,192,79999,128,0,80224:0:0:0:0:
460,192,79999,128,0,80224:0:0:0:0:
256,192,79999,128,0,80149:0:0:0:0:
153,192,80074,128,0,80224:0:0:0:0:
358,192,80149,128,0,80299:0:0:0:0:
256,192,80224,128,0,80374:0:0:0:0:
51,192,80299,128,0,80524:0:0:0:0:
460,192,80299,128,0,80524:0:0:0:0:
153,192,80299,128,0,80449:0:0:0:0:
358,192,80374,128,0,80524:0:0:0:0:
256,192,80449,128,0,80599:0:0:0:0:
153,192,80524,128,0,80674:0:0:0:0:
51,192,80599,128,0,80824:0:0:0:0:
460,192,80599,128,0,80824:0:0:0:0:
358,192,80599,128,0,80749:0:0:0:0:
256,192,80674,128,0,80824:0:0:0:0:
153,192,80749,128,0,80899:0:0:0:0:
358,192,80824,128,0,80974:0:0:0:0:
51,192,80899,128,0,81124:0:0:0:0:
460,192,80899,128,0,81124:0:0:0:0:
256,192,80899,128,0,81049:0:0:0:0:
153,192,80974,128,0,81124:0:0:0:0:
358,192,81049,128,0,81199:0:0:0:0:
256,192,81124,128,0,81274:0:0:0:0:
153,192,81199,128,0,81424:0:0:0:0:
51,192,81199,128,0,81424:0:0:0:0:
460,192,81199,128,0,81349:0:0:0:0:
358,192,81274,128,0,81424:0:0:0:0:
256,192,81349,128,0,81499:0:0:0:0:
460,192,81424,128,0,81574:0:0:0:0:
153,192,81499,128,0,81874:0:0:0:0:
51,192,81499,128,0,81949:0:0:0:0:
358,192,81499,128,0,81724:0:0:0:0:
256,192,81574,128,0,81799:0:0:0:0:
460,192,81649,128,0,81724:0:0:0:0:
358,192,81799,128,0,82024:0:0:0:0:
460,192,81799,128,0,82024:0:0:0:0:
256,192,81874,128,0,82024:0:0:0:0:
153,192,81949,128,0,82099:0:0:0:0:
51,192,82024,128,0,82174:0:0:0:0:
358,192,82099,128,0,82324:0:0:0:0:
460,192,82099,128,0,82399:0:0:0:0:
256,192,82099,128,0,82249:0:0:0:0:
153,192,82174,128,0,82324:0:0:0:0:
51,192,82249,128,0,82399:0:0:0:0:
256,192,82324,128,0,82474:0:0:0:0:
153,192,82399,128,0,82549:0:0:0:0:
358,192,82399,128,0,82549:0:0:0:0:
51,192,82474,128,0,82624:0:0:0:0:
460,192,82474,128,0,82624:0:0:0:0:
256,192,82549,128,0,82699:0:0:0:0:
153,192,82624,128,0,82774:0:0:0:0:
358,192,82624,128,0,82774:0:0:0:0:
51,192,82699,128,0,82849:0:0:0:0:
460,192,82699,128,0,82849:0:0:0:0:
256,192,82774,128,0,82924:0:0:0:0:
153,192,82849,128,0,82999:0:0:0:0:
358,192,82849,128,0,82999:0:0:0:0:
51,192,82924,128,0,83074:0:0:0:0:
460,192,82924,128,0,83074:0:0:0:0:
256,192,82999,128,0,83149:0:0:0:0:
153,192,83074,128,0,83224:0:0:0:0:
358,192,83074,128,0,83224:0:0:0:0:
460,192,83149,128,0,83299:0:0:0:0:
51,192,83149,128,0,83299:0:0:0:0:
256,192,83224,128,0,83374:0:0:0:0:
153,192,83299,128,0,83449:0:0:0:0:
358,192,83299,128,0,83449:0:0:0:0:
51,192,83374,128,0,83524:0:0:0:0:
460,192,83374,128,0,83524:0:0:0:0:
256,192,83449,128,0,83524:0:0:0:0:
153,192,83524,1,0,0:0:0:0:
358,192,83524,1,0,0:0:0:0:
51,192,83599,128,0,83674:0:0:0:0:
153,192,83599,128,0,83674:0:0:0:0:
358,192,83599,128,0,83674:0:0:0:0:
460,192,83599,128,0,83674:0:0:0:0:
256,192,83674,128,0,83749:0:0:0:0:
358,192,83749,128,0,83824:0:0:0:0:
153,192,83749,128,0,83824:0:0:0:0:
51,192,83749,128,0,83824:0:0:0:0:
460,192,83749,128,0,83824:0:0:0:0:
256,192,83824,128,0,83899:0:0:0:0:
358,192,83899,128,0,83974:0:0:0:0:
153,192,83899,128,0,83974:0:0:0:0:
51,192,83899,128,0,83974:0:0:0:0:
460,192,83899,128,0,83974:0:0:0:0:
256,192,83974,128,0,84049:0:0:0:0:
51,192,84049,128,0,84124:0:0:0:0:
358,192,84049,128,0,84124:0:0:0:0:
153,192,84049,128,0,84124:0:0:0:0:
460,192,84049,128,0,84124:0:0:0:0:
256,192,84124,128,0,84199:0:0:0:0:
51,192,84199,128,0,84274:0:0:0:0:
153,192,84199,128,0,84274:0:0:0:0:
358,192,84199,128,0,84274:0:0:0:0:
460,192,84199,128,0,84274:0:0:0:0:
256,192,84274,128,0,84349:0:0:0:0:
153,192,84349,128,0,84424:0:0:0:0:
358,192,84349,128,0,84424:0:0:0:0:
51,192,84349,128,0,84424:0:0:0:0:
460,192,84349,128,0,84424:0:0:0:0:
256,192,84424,128,0,84499:0:0:0:0:
358,192,84499,128,0,84574:0:0:0:0:
153,192,84499,128,0,84574:0:0:0:0:
51,192,84499,128,0,84574:0:0:0:0:
460,192,84499,128,0,84574:0:0:0:0:
256,192,84574,128,0,84649:0:0:0:0:
51,192,84649,128,0,84724:0:0:0:0:
358,192,84649,128,0,84724:0:0:0:0:
153,192,84649,128,0,84724:0:0:0:0:
460,192,84649,128,0,84724:0:0:0:0:
256,192,84724,128,0,84799:0:0:0:0:
51,192,84799,1,0,0:0:0:0:
460,192,84799,1,0,0:0:0:0:
153,192,84836,1,0,0:0:0:0:
358,192,84836,1,0,0:0:0:0:
256,192,84874,1,0,0:0:0:0:
358,192,84911,1,0,0:0:0:0:
153,192,84911,1,0,0:0:0:0:
460,192,84949,1,0,0:0:0:0:
51,192,84949,1,0,0:0:0:0:
153,192,84986,1,0,0:0:0:0:
358,192,84986,1,0,0:0:0:0:
256,192,85024,1,0,0:0:0:0:
358,192,85061,1,0,0:0:0:0:
153,192,85061,1,0,0:0:0:0:
460,192,85099,1,0,0:0:0:0:
51,192,85099,1,0,0:0:0:0:
153,192,85136,1,0,0:0:0:0:
358,192,85136,1,0,0:0:0:0:
256,192,85174,1,0,0:0:0:0:
358,192,85211,1,0,0:0:0:0:
153,192,85211,1,0,0:0:0:0:
51,192,85249,1,0,0:0:0:0:
460,192,85249,1,0,0:0:0:0:
153,192,85286,1,0,0:0:0:0:
358,192,85286,1,0,0:0:0:0:
256,192,85324,1,0,0:0:0:0:
358,192,85361,1,0,0:0:0:0:
153,192,85361,1,0,0:0:0:0:
460,192,85399,1,0,0:0:0:0:
51,192,85399,1,0,0:0:0:0:
153,192,85436,1,0,0:0:0:0:
358,192,85436,1,0,0:0:0:0:
256,192,85474,1,0,0:0:0:0:
358,192,85511,1,0,0:0:0:0:
153,192,85511,1,0,0:0:0:0:
460,192,85549,1,0,0:0:0:0:
51,192,85549,1,0,0:0:0:0:
153,192,85586,1,0,0:0:0:0:
358,192,85586,1,0,0:0:0:0:
256,192,85624,1,0,0:0:0:0:
358,192,85661,1,0,0:0:0:0:
153,192,85661,1,0,0:0:0:0:
460,192,85699,1,0,0:0:0:0:
51,192,85699,1,0,0:0:0:0:
153,192,85736,1,0,0:0:0:0:
358,192,85736,1,0,0:0:0:0:
256,192,85774,1,0,0:0:0:0:
358,192,85811,1,0,0:0:0:0:
153,192,85811,1,0,0:0:0:0:
51,192,85849,1,0,0:0:0:0:
460,192,85849,1,0,0:0:0:0:
153,192,85886,1,0,0:0:0:0:
358,192,85886,1,0,0:0:0:0:
256,192,85924,1,0,0:0:0:0:
358,192,85961,1,0,0:0:0:0:
153,192,85961,1,0,0:0:0:0:
460,192,85999,1,0,0:0:0:0:
51,192,85999,128,0,86074:0:0:0:0:
51,192,86149,128,0,86224:0:0:0:0:
256,192,86149,1,0,0:0:0:0:
51,192,86299,128,0,86374:0:0:0:0:
51,192,86449,128,0,86674:0:0:0:0:
256,192,86449,1,0,0:0:0:0:
51,192,86749,128,0,86824:0:0:0:0:
256,192,86749,1,0,0:0:0:0:
51,192,86899,128,0,86974:0:0:0:0:
51,192,87049,128,0,87124:0:0:0:0:
256,192,87049,1,0,0:0:0:0:
153,192,87199,128,0,87274:0:0:0:0:
153,192,87349,128,0,87424:0:0:0:0:
256,192,87349,1,0,0:0:0:0:
153,192,87499,128,0,87574:0:0:0:0:
153,192,87649,128,0,87874:0:0:0:0:
256,192,87649,1,0,0:0:0:0:
153,192,87949,128,0,88024:0:0:0:0:
256,192,87949,1,0,0:0:0:0:
153,192,88099,128,0,88174:0:0:0:0:
153,192,88249,128,0,88324:0:0:0:0:
256,192,88249,1,0,0:0:0:0:
460,192,88399,128,0,88474:0:0:0:0:
358,192,88399,1,0,0:0:0:0:
51,192,88399,1,0,0:0:0:0:
460,192,88549,128,0,88624:0:0:0:0:
256,192,88549,1,0,0:0:0:0:
51,192,88549,1,0,0:0:0:0:
460,192,88699,128,0,88774:0:0:0:0:
460,192,88849,128,0,89074:0:0:0:0:
256,192,88849,1,0,0:0:0:0:
460,192,89149,128,0,89224:0:0:0:0:
256,192,89149,1,0,0:0:0:0:
460,192,89299,128,0,89374:0:0:0:0:
460,192,89449,128,0,89524:0:0:0:0:
256,192,89449,1,0,0:0:0:0:
358,192,89599,128,0,89674:0:0:0:0:
358,192,89749,128,0,89824:0:0:0:0:
256,192,89749,1,0,0:0:0:0:
358,192,89899,128,0,89974:0:0:0:0:
358,192,90049,128,0,90274:0:0:0:0:
256,192,90049,1,0,0:0:0:0:
358,192,90349,128,0,90424:0:0:0:0:
256,192,90349,1,0,0:0:0:0:
358,192,90499,128,0,90574:0:0:0:0:
358,192,90649,128,0,90724:0:0:0:0:
256,192,90649,1,0,0:0:0:0:
51,192,90799,128,0,90874:0:0:0:0:
153,192,90799,1,0,0:0:0:0:
460,192,90799,1,0,0:0:0:0:
51,192,90949,128,0,91024:0:0:0:0:
256,192,90949,1,0,0:0:0:0:
51,192,91099,128,0,91174:0:0:0:0:
51,192,91249,128,0,91474:0:0:0:0:
256,192,91249,1,0,0:0:0:0:
51,192,91549,128,0,91624:0:0:0:0:
256,192,91549,1,0,0:0:0:0:
51,192,91699,128,0,91774:0:0:0:0:
51,192,91849,128,0,91924:0:0:0:0:
256,192,91849,1,0,0:0:0:0:
153,192,91999,128,0,92074:0:0:0:0:
153,192,92149,128,0,92224:0:0:0:0:
256,192,92149,1,0,0:0:0:0:
153,192,92299,128,0,92374:0:0:0:0:
153,192,92449,128,0,92674:0:0:0:0:
256,192,92449,1,0,0:0:0:0:
153,192,92749,128,0,92824:0:0:0:0:
256,192,92749,1,0,0:0:0:0:
153,192,92899,128,0,92974:0:0:0:0:
153,192,93049,128,0,93124:0:0:0:0:
256,192,93049,1,0,0:0:0:0:
460,192,93199,128,0,93274:0:0:0:0:
51,192,93199,1,0,0:0:0:0:
358,192,93199,1,0,0:0:0:0:
460,192,93349,128,0,93424:0:0:0:0:
51,192,93349,1,0,0:0:0:0:
256,192,93349,1,0,0:0:0:0:
460,192,93499,128,0,93574:0:0:0:0:
460,192,93649,128,0,93874:0:0:0:0:
256,192,93649,1,0,0:0:0:0:
460,192,93949,128,0,94024:0:0:0:0:
256,192,93949,1,0,0:0:0:0:
460,192,94099,128,0,94174:0:0:0:0:
460,192,94249,128,0,94324:0:0:0:0:
256,192,94249,1,0,0:0:0:0:
358,192,94399,128,0,94474:0:0:0:0:
358,192,94549,128,0,94624:0:0:0:0:
256,192,94549,1,0,0:0:0:0:
358,192,94699,128,0,94774:0:0:0:0:
358,192,94849,128,0,95074:0:0:0:0:
256,192,94849,1,0,0:0:0:0:
358,192,95149,128,0,95224:0:0:0:0:
256,192,95149,1,0,0:0:0:0:
358,192,95299,128,0,95374:0:0:0:0:
358,192,95449,128,0,95524:0:0:0:0:
256,192,95449,1,0,0:0:0:0:
51,192,95599,1,0,0:0:0:0:
153,192,95599,1,0,0:0:0:0:
460,192,95599,1,0,0:0:0:0:
358,192,95674,1,0,0:0:0:0:
51,192,95749,1,0,0:0:0:0:
256,192,95749,1,0,0:0:0:0:
460,192,95824,1,0,0:0:0:0:
153,192,95899,1,0,0:0:0:0:
358,192,95899,1,0,0:0:0:0:
51,192,95974,1,0,0:0:0:0:
256,192,96049,1,0,0:0:0:0:
460,192,96049,1,0,0:0:0:0:
51,192,96124,1,0,0:0:0:0:
358,192,96199,1,0,0:0:0:0:
153,192,96199,1,0,0:0:0:0:
460,192,96274,1,0,0:0:0:0:
51,192,96349,1,0,0:0:0:0:
256,192,96349,1,0,0:0:0:0:
460,192,96424,1,0,0:0:0:0:
153,192,96499,1,0,0:0:0:0:
358,192,96499,1,0,0:0:0:0:
51,192,96574,1,0,0:0:0:0:
256,192,96649,1,0,0:0:0:0:
460,192,96649,1,0,0:0:0:0:
153,192,96724,1,0,0:0:0:0:
51,192,96799,1,0,0:0:0:0:
256,192,96799,1,0,0:0:0:0:
460,192,96799,1,0,0:0:0:0:
358,192,96874,1,0,0:0:0:0:
153,192,96949,1,0,0:0:0:0:
460,192,96949,1,0,0:0:0:0:
256,192,97024,1,0,0:0:0:0:
51,192,97099,1,0,0:0:0:0:
358,192,97099,1,0,0:0:0:0:
256,192,97174,1,0,0:0:0:0:
51,192,97249,1,0,0:0:0:0:
358,192,97249,1,0,0:0:0:0:
153,192,97324,1,0,0:0:0:0:
256,192,97399,1,0,0:0:0:0:
460,192,97399,1,0,0:0:0:0:
358,192,97474,1,0,0:0:0:0:
256,192,97549,1,0,0:0:0:0:
51,192,97549,1,0,0:0:0:0:
153,192,97624,1,0,0:0:0:0:
358,192,97699,1,0,0:0:0:0:
460,192,97699,1,0,0:0:0:0:
256,192,97774,1,0,0:0:0:0:
153,192,97849,1,0,0:0:0:0:
51,192,97849,1,0,0:0:0:0:
256,192,97924,1,0,0:0:0:0:
51,192,97999,1,0,0:0:0:0:
358,192,97999,1,0,0:0:0:0:
460,192,97999,1,0,0:0:0:0:
153,192,98074,1,0,0:0:0:0:
256,192,98149,1,0,0:0:0:0:
460,192,98149,1,0,0:0:0:0:
153,192,98224,1,0,0:0:0:0:
51,192,98299,1,0,0:0:0:0:
460,192,98299,1,0,0:0:0:0:
358,192,98374,1,0,0:0:0:0:
256,192,98449,1,0,0:0:0:0:
51,192,98449,1,0,0:0:0:0:
358,192,98524,1,0,0:0:0:0:
51,192,98599,1,0,0:0:0:0:
460,192,98599,1,0,0:0:0:0:
153,192,98674,1,0,0:0:0:0:
358,192,98749,1,0,0:0:0:0:
460,192,98749,1,0,0:0:0:0:
153,192,98824,1,0,0:0:0:0:
51,192,98899,1,0,0:0:0:0:
460,192,98899,1,0,0:0:0:0:
358,192,98974,1,0,0:0:0:0:
51,192,99049,1,0,0:0:0:0:
153,192,99049,1,0,0:0:0:0:
358,192,99124,1,0,0:0:0:0:
51,192,99199,1,0,0:0:0:0:
256,192,99199,1,0,0:0:0:0:
460,192,99199,1,0,0:0:0:0:
153,192,99274,1,0,0:0:0:0:
256,192,99349,1,0,0:0:0:0:
358,192,99349,1,0,0:0:0:0:
51,192,99424,1,0,0:0:0:0:
153,192,99499,1,0,0:0:0:0:
256,192,99499,1,0,0:0:0:0:
460,192,99574,1,0,0:0:0:0:
358,192,99649,1,0,0:0:0:0:
256,192,99649,1,0,0:0:0:0:
51,192,99724,1,0,0:0:0:0:
153,192,99799,1,0,0:0:0:0:
256,192,99799,1,0,0:0:0:0:
460,192,99874,1,0,0:0:0:0:
358,192,99949,1,0,0:0:0:0:
256,192,99949,1,0,0:0:0:0:
51,192,100024,1,0,0:0:0:0:
153,192,100099,1,0,0:0:0:0:
256,192,100099,1,0,0:0:0:0:
460,192,100174,1,0,0:0:0:0:
358,192,100249,1,0,0:0:0:0:
256,192,100249,1,0,0:0:0:0:
51,192,100324,1,0,0:0:0:0:
153,192,100399,1,0,0:0:0:0:
358,192,100399,1,0,0:0:0:0:
460,192,100399,1,0,0:0:0:0:
256,192,100474,1,0,0:0:0:0:
51,192,100549,1,0,0:0:0:0:
153,192,100549,1,0,0:0:0:0:
460,192,100624,1,0,0:0:0:0:
153,192,100699,1,0,0:0:0:0:
51,192,100699,1,0,0:0:0:0:
256,192,100774,1,0,0:0:0:0:
153,192,100849,1,0,0:0:0:0:
51,192,100849,1,0,0:0:0:0:
460,192,100924,1,0,0:0:0:0:
51,192,100999,1,0,0:0:0:0:
153,192,100999,1,0,0:0:0:0:
256,192,101074,1,0,0:0:0:0:
51,192,101149,1,0,0:0:0:0:
153,192,101149,1,0,0:0:0:0:
460,192,101224,1,0,0:0:0:0:
51,192,101299,1,0,0:0:0:0:
153,192,101299,1,0,0:0:0:0:
256,192,101374,1,0,0:0:0:0:
51,192,101449,1,0,0:0:0:0:
153,192,101449,1,0,0:0:0:0:
460,192,101524,1,0,0:0:0:0:
51,192,101599,1,0,0:0:0:0:
153,192,101599,1,0,0:0:0:0:
358,192,101599,1,0,0:0:0:0:
256,192,101674,1,0,0:0:0:0:
358,192,101749,1,0,0:0:0:0:
460,192,101749,1,0,0:0:0:0:
51,192,101824,1,0,0:0:0:0:
358,192,101899,1,0,0:0:0:0:
460,192,101899,1,0,0:0:0:0:
256,192,101974,1,0,0:0:0:0:
358,192,102049,1,0,0:0:0:0:
460,192,102049,1,0,0:0:0:0:
51,192,102124,1,0,0:0:0:0:
358,192,102199,1,0,0:0:0:0:
460,192,102199,1,0,0:0:0:0:
256,192,102274,1,0,0:0:0:0:
358,192,102349,1,0,0:0:0:0:
460,192,102349,1,0,0:0:0:0:
51,192,102424,1,0,0:0:0:0:
358,192,102499,1,0,0:0:0:0:
460,192,102499,1,0,0:0:0:0:
256,192,102574,1,0,0:0:0:0:
358,192,102649,1,0,0:0:0:0:
460,192,102649,1,0,0:0:0:0:
51,192,102724,1,0,0:0:0:0:
358,192,102799,1,0,0:0:0:0:
153,192,102799,1,0,0:0:0:0:
256,192,102799,1,0,0:0:0:0:
460,192,102874,1,0,0:0:0:0:
358,192,102949,1,0,0:0:0:0:
153,192,102949,1,0,0:0:0:0:
256,192,103024,1,0,0:0:0:0:
153,192,103099,1,0,0:0:0:0:
358,192,103099,1,0,0:0:0:0:
51,192,103174,1,0,0:0:0:0:
153,192,103249,1,0,0:0:0:0:
358,192,103249,1,0,0:0:0:0:
256,192,103324,1,0,0:0:0:0:
153,192,103399,1,0,0:0:0:0:
358,192,103399,1,0,0:0:0:0:
460,192,103474,1,0,0:0:0:0:
153,192,103549,1,0,0:0:0:0:
358,192,103549,1,0,0:0:0:0:
256,192,103624,1,0,0:0:0:0:
153,192,103699,1,0,0:0:0:0:
358,192,103699,1,0,0:0:0:0:
51,192,103774,1,0,0:0:0:0:
358,192,103849,1,0,0:0:0:0:
153,192,103849,1,0,0:0:0:0:
256,192,103924,1,0,0:0:0:0:
153,192,103999,1,0,0:0:0:0:
358,192,103999,1,0,0:0:0:0:
256,192,104074,1,0,0:0:0:0:
51,192,104149,1,0,0:0:0:0:
460,192,104149,1,0,0:0:0:0:
153,192,104224,1,0,0:0:0:0:
51,192,104299,1,0,0:0:0:0:
460,192,104299,1,0,0:0:0:0:
358,192,104374,1,0,0:0:0:0:
51,192,104449,1,0,0:0:0:0:
460,192,104449,1,0,0:0:0:0:
256,192,104524,1,0,0:0:0:0:
51,192,104599,1,0,0:0:0:0:
460,192,104599,1,0,0:0:0:0:
153,192,104674,1,0,0:0:0:0:
51,192,104749,1,0,0:0:0:0:
460,192,104749,1,0,0:0:0:0:
358,192,104824,1,0,0:0:0:0:
51,192,104899,1,0,0:0:0:0:
460,192,104899,1,0,0:0:0:0:
256,192,104974,1,0,0:0:0:0:
51,192,105049,1,0,0:0:0:0:
460,192,105049,1,0,0:0:0:0:
153,192,105124,1,0,0:0:0:0:
51,192,105199,1,0,0:0:0:0:
460,192,105199,1,0,0:0:0:0:
256,192,105349,1,0,0:0:0:0:
256,192,105649,1,0,0:0:0:0:
256,192,105949,1,0,0:0:0:0:
51,192,106099,128,0,106324:0:0:0:0:
153,192,106174,128,0,106399:0:0:0:0:
256,192,106249,128,0,106474:0:0:0:0:
358,192,106324,128,0,106549:0:0:0:0:
460,192,106399,128,0,106624:0:0:0:0:
51,192,106399,128,0,106624:0:0:0:0:
153,192,106474,128,0,106699:0:0:0:0:
256,192,106549,128,0,106774:0:0:0:0:
358,192,106624,128,0,106849:0:0:0:0:
460,192,106699,128,0,106924:0:0:0:0:
51,192,106699,128,0,107224:0:0:0:0:
153,192,106774,128,0,107149:0:0:0:0:
256,192,106849,128,0,107074:0:0:0:0:
358,192,106924,128,0,106999:0:0:0:0:
460,192,106999,128,0,107224:0:0:0:0:
358,192,107074,128,0,107299:0:0:0:0:
256,192,107149,128,0,107374:0:0:0:0:
153,192,107224,128,0,107449:0:0:0:0:
51,192,107299,128,0,107524:0:0:0:0:
460,192,107299,128,0,107524:0:0:0:0:
358,192,107374,128,0,107599:0:0:0:0:
256,192,107449,128,0,107674:0:0:0:0:
153,192,107524,128,0,107749:0:0:0:0:
51,192,107599,128,0,107824:0:0:0:0:
460,192,107599,128,0,107749:0:0:0:0:
358,192,107674,128,0,107824:0:0:0:0:
256,192,107749,128,0,107899:0:0:0:0:
153,192,107824,128,0,107974:0:0:0:0:
460,192,107824,128,0,107974:0:0:0:0:
51,192,107899,128,0,108049:0:0:0:0:
358,192,107899,128,0,108049:0:0:0:0:
256,192,107974,128,0,108124:0:0:0:0:
153,192,108049,128,0,108199:0:0:0:0:
460,192,108049,128,0,108574:0:0:0:0:
51,192,108124,128,0,108274:0:0:0:0:
358,192,108124,128,0,108499:0:0:0:0:
256,192,108199,128,0,108424:0:0:0:0:
153,192,108274,128,0,108349:0:0:0:0:
51,192,108349,128,0,108499:0:0:0:0:
153,192,108424,128,0,108574:0:0:0:0:
256,192,108499,128,0,108649:0:0:0:0:
358,192,108574,128,0,108724:0:0:0:0:
51,192,108574,128,0,108724:0:0:0:0:
460,192,108649,128,0,108799:0:0:0:0:
153,192,108649,128,0,108799:0:0:0:0:
256,192,108724,128,0,108874:0:0:0:0:
358,192,108799,128,0,108949:0:0:0:0:
460,192,108949,1,0,0:0:0:0:
51,192,108949,1,0,0:0:0:0:
153,192,108949,1,0,0:0:0:0:
256,192,109024,1,0,0:0:0:0:
51,192,109099,1,0,0:0:0:0:
153,192,109099,1,0,0:0:0:0:
358,192,109174,1,0,0:0:0:0:
460,192,109249,1,0,0:0:0:0:
51,192,109249,1,0,0:0:0:0:
153,192,109249,1,0,0:0:0:0:
256,192,109324,1,0,0:0:0:0:
51,192,109399,1,0,0:0:0:0:
153,192,109399,1,0,0:0:0:0:
358,192,109474,1,0,0:0:0:0:
460,192,109549,1,0,0:0:0:0:
51,192,109549,1,0,0:0:0:0:
153,192,109549,1,0,0:0:0:0:
256,192,109624,1,0,0:0:0:0:
51,192,109699,1,0,0:0:0:0:
153,192,109699,1,0,0:0:0:0:
358,192,109774,1,0,0:0:0:0:
460,192,109849,1,0,0:0:0:0:
51,192,109849,1,0,0:0:0:0:
153,192,109849,1,0,0:0:0:0:
256,192,109924,1,0,0:0:0:0:
460,192,109999,1,0,0:0:0:0:
358,192,109999,1,0,0:0:0:0:
51,192,109999,1,0,0:0:0:0:
153,192,110074,1,0,0:0:0:0:
460,192,110149,1,0,0:0:0:0:
358,192,110149,1,0,0:0:0:0:
51,192,110149,1,0,0:0:0:0:
256,192,110224,1,0,0:0:0:0:
358,192,110299,1,0,0:0:0:0:
460,192,110299,1,0,0:0:0:0:
153,192,110374,1,0,0:0:0:0:
358,192,110449,1,0,0:0:0:0:
460,192,110449,1,0,0:0:0:0:
51,192,110449,1,0,0:0:0:0:
256,192,110524,1,0,0:0:0:0:
358,192,110599,1,0,0:0:0:0:
460,192,110599,1,0,0:0:0:0:
153,192,110674,1,0,0:0:0:0:
51,192,110749,1,0,0:0:0:0:
358,192,110749,1,0,0:0:0:0:
460,192,110749,1,0,0:0:0:0:
256,192,110824,1,0,0:0:0:0:
358,192,110899,1,0,0:0:0:0:
460,192,110899,1,0,0:0:0:0:
153,192,110974,1,0,0:0:0:0:
51,192,111049,1,0,0:0:0:0:
358,192,111049,1,0,0:0:0:0:
460,192,111049,1,0,0:0:0:0:
51,192,111199,128,0,111574:0:0:0:0:
153,192,111274,128,0,111649:0:0:0:0:
256,192,111349,128,0,111724:0:0:0:0:
358,192,111424,128,0,111799:0:0:0:0:
460,192,111499,128,0,111874:0:0:0:0:
51,192,111649,128,0,112024:0:0:0:0:
153,192,111724,128,0,112099:0:0:0:0:
256,192,111799,128,0,112174:0:0:0:0:
358,192,111874,128,0,112249:0:0:0:0:
460,192,111949,128,0,112324:0:0:0:0:
51,192,112099,1,0,0:0:0:0:
153,192,112174,1,0,0:0:0:0:
256,192,112249,1,0,0:0:0:0:
358,192,112324,1,0,0:0:0:0:
460,192,112399,1,0,0:0:0:0:
51,192,112399,1,0,0:0:0:0:
256,192,112399,1,0,0:0:0:0:
153,192,112474,1,0,0:0:0:0:
51,192,112549,1,0,0:0:0:0:
256,192,112549,1,0,0:0:0:0:
358,192,112624,1,0,0:0:0:0:
51,192,112699,1,0,0:0:0:0:
256,192,112699,1,0,0:0:0:0:
460,192,112774,1,0,0:0:0:0:
51,192,112849,1,0,0:0:0:0:
256,192,112849,1,0,0:0:0:0:
358,192,112924,1,0,0:0:0:0:
51,192,112999,1,0,0:0:0:0:
256,192,112999,1,0,0:0:0:0:
153,192,113074,1,0,0:0:0:0:
51,192,113149,1,0,0:0:0:0:
256,192,113149,1,0,0:0:0:0:
358,192,113224,1,0,0:0:0:0:
51,192,113299,1,0,0:0:0:0:
256,192,113299,1,0,0:0:0:0:
460,192,113374,1,0,0:0:0:0:
51,192,113449,1,0,0:0:0:0:
256,192,113449,1,0,0:0:0:0:
358,192,113524,1,0,0:0:0:0:
51,192,113599,1,0,0:0:0:0:
256,192,113599,1,0,0:0:0:0:
460,192,113599,1,0,0:0:0:0:
153,192,113674,1,0,0:0:0:0:
256,192,113749,1,0,0:0:0:0:
460,192,113749,1,0,0:0:0:0:
51,192,113824,1,0,0:0:0:0:
256,192,113899,1,0,0:0:0:0:
460,192,113899,1,0,0:0:0:0:
153,192,113974,1,0,0:0:0:0:
256,192,114049,1,0,0:0:0:0:
460,192,114049,1,0,0:0:0:0:
358,192,114124,1,0,0:0:0:0:
256,192,114199,1,0,0:0:0:0:
460,192,114199,1,0,0:0:0:0:
51,192,114199,1,0,0:0:0:0:
256,192,114349,1,0,0:0:0:0:
460,192,114349,1,0,0:0:0:0:
51,192,114349,1,0,0:0:0:0:
256,192,114499,128,0,117199:0:0:0:0:
460,192,114499,128,0,114749:0:0:0:0:
358,192,114499,128,0,114799:0:0:0:0:
153,192,114499,128,0,114849:0:0:0:0:
51,192,114499,128,0,114899:0:0:0:0:
461,192,114799,128,0,114899:0:0:0:0:
359,192,114849,128,0,114949:0:0:0:0:
153,192,114899,128,0,114999:0:0:0:0:
51,192,114949,128,0,115049:0:0:0:0:
461,192,114949,128,0,115049:0:0:0:0:
359,192,114999,128,0,115099:0:0:0:0:
153,192,115049,128,0,115149:0:0:0:0:
51,192,115099,128,0,115199:0:0:0:0:
461,192,115099,128,0,115349:0:0:0:0:
359,192,115149,128,0,115299:0:0:0:0:
153,192,115199,128,0,115249:0:0:0:0:
51,192,115249,128,0,115349:0:0:0:0:
153,192,115299,128,0,115399:0:0:0:0:
359,192,115349,128,0,115449:0:0:0:0:
461,192,115399,128,0,115499:0:0:0:0:
51,192,115399,128,0,115499:0:0:0:0:
153,192,115449,128,0,115549:0:0:0:0:
359,192,115499,128,0,115599:0:0:0:0:
461,192,115549,128,0,115649:0:0:0:0:
51,192,115549,128,0,115799:0:0:0:0:
153,192,115599,128,0,115749:0:0:0:0:
359,192,115649,128,0,115699:0:0:0:0:
461,192,115699,128,0,115799:0:0:0:0:
359,192,115749,128,0,115849:0:0:0:0:
153,192,115799,128,0,115899:0:0:0:0:
51,192,115849,128,0,115949:0:0:0:0:
461,192,115849,128,0,115949:0:0:0:0:
359,192,115899,128,0,115999:0:0:0:0:
153,192,115949,128,0,116049:0:0:0:0:
51,192,115999,128,0,116099:0:0:0:0:
461,192,115999,128,0,116249:0:0:0:0:
359,192,116049,128,0,116199:0:0:0:0:
153,192,116099,128,0,116149:0:0:0:0:
51,192,116149,128,0,116249:0:0:0:0:
153,192,116199,128,0,116299:0:0:0:0:
359,192,116249,128,0,116349:0:0:0:0:
461,192,116299,128,0,116399:0:0:0:0:
51,192,116299,128,0,116399:0:0:0:0:
153,192,116349,128,0,116449:0:0:0:0:
359,192,116399,128,0,116499:0:0:0:0:
461,192,116449,128,0,116549:0:0:0:0:
51,192,116449,128,0,116699:0:0:0:0:
153,192,116499,128,0,116649:0:0:0:0:
359,192,116549,128,0,116599:0:0:0:0:
461,192,116599,128,0,116699:0:0:0:0:
359,192,116649,128,0,116749:0:0:0:0:
153,192,116699,128,0,116799:0:0:0:0:
51,192,116749,128,0,116849:0:0:0:0:
461,192,116749,128,0,116849:0:0:0:0:
359,192,116799,128,0,116899:0:0:0:0:
153,192,116849,128,0,116949:0:0:0:0:
461,192,116899,1,0,0:0:0:0:
51,192,116899,128,0,116999:0:0:0:0:
359,192,116949,1,0,0:0:0:0:
153,192,116999,1,0,0:0:0:0:
51,192,117049,1,0,0:0:0:0:
51,192,117799,1,0,0:0:0:0:
153,192,117799,1,0,0:0:0:0:
256,192,117799,1,0,0:0:0:0:
358,192,117799,1,0,0:0:0:0:
460,192,117799,1,0,0:0:0:0:
