osu file format v14

[General]
AudioFilename: End Time.mp3
AudioLeadIn: 0
PreviewTime: 77333
Countdown: 0
SampleSet: Soft
StackLeniency: 0.7
Mode: 3
LetterboxInBreaks: 1
SpecialStyle: 0
WidescreenStoryboard: 1

[Editor]
DistanceSpacing: 2
BeatDivisor: 12
GridSize: 16
TimelineZoom: 0.8

[Metadata]
Title:5K Madness by Happy15
TitleUnicode:5K Madness by Happy15
Artist:Various
ArtistUnicode:Various
Creator:JamesHappy15
Version:Cres - Endtime (Overjoy Lv. Boss)
Source:
Tags:
BeatmapID:0
BeatmapSetID:-1

[Difficulty]
HPDrainRate:0
CircleSize:5
OverallDifficulty:10
ApproachRate:5
SliderMultiplier:1.4
SliderTickRate:1

[Events]
//Background and Video events
0,0,"endtime.jpg",0,0
//Break Periods
//Storyboard Layer 0 (Background)
//Storyboard Layer 1 (Fail)
//Storyboard Layer 2 (Pass)
//Storyboard Layer 3 (Foreground)
//Storyboard Sound Samples

[TimingPoints]
1342,333.333333333333,4,2,1,5,1,0
77341,-100,4,2,0,5,0,1
109341,-100,4,2,0,5,0,0
124001,375,4,2,1,5,1,0
124751,400,4,2,1,5,1,0
125551,352.941176470588,4,2,1,5,1,0
126256,375,4,2,1,5,1,0
127024,428.571428571429,4,2,1,5,1,0
128756,500,4,2,1,5,1,0

[HitObjects]
329,192,1342,5,0,0:0:0:0:
475,192,2341,1,0,0:0:0:0:
475,192,2675,1,0,0:0:0:0:
402,192,3008,1,0,0:0:0:0:
329,192,3341,1,0,0:0:0:0:
182,192,3675,1,0,0:0:0:0:
329,192,4008,1,0,0:0:0:0:
475,192,5008,1,0,0:0:0:0:
475,192,5341,1,0,0:0:0:0:
402,192,5675,1,0,0:0:0:0:
329,192,6008,1,0,0:0:0:0:
182,192,6341,1,0,0:0:0:0:
36,192,6675,1,0,0:0:0:0:
182,192,8008,1,0,0:0:0:0:
329,192,9341,1,0,0:0:0:0:
36,192,13341,1,0,0:0:0:0:
182,192,13508,1,0,0:0:0:0:
475,192,13508,1,0,0:0:0:0:
256,192,13591,1,0,0:0:0:0:
36,192,13675,1,0,0:0:0:0:
402,192,13675,1,0,0:0:0:0:
109,192,13758,1,0,0:0:0:0:
329,192,13841,1,0,0:0:0:0:
475,192,13841,1,0,0:0:0:0:
109,192,13925,1,0,0:0:0:0:
36,192,14008,1,0,0:0:0:0:
256,192,14008,1,0,0:0:0:0:
109,192,14091,1,0,0:0:0:0:
358,192,14175,1,0,0:0:0:0:
475,192,14175,1,0,0:0:0:0:
256,192,14258,1,0,0:0:0:0:
36,192,14341,1,0,0:0:0:0:
329,192,14341,1,0,0:0:0:0:
109,192,14425,1,0,0:0:0:0:
256,192,14508,1,0,0:0:0:0:
475,192,14508,1,0,0:0:0:0:
109,192,14591,1,0,0:0:0:0:
36,192,14675,1,0,0:0:0:0:
182,192,14841,1,0,0:0:0:0:
475,192,14841,1,0,0:0:0:0:
256,192,14925,1,0,0:0:0:0:
36,192,15008,1,0,0:0:0:0:
402,192,15008,1,0,0:0:0:0:
109,192,15091,1,0,0:0:0:0:
329,192,15175,1,0,0:0:0:0:
475,192,15175,1,0,0:0:0:0:
109,192,15258,1,0,0:0:0:0:
36,192,15341,1,0,0:0:0:0:
256,192,15341,1,0,0:0:0:0:
109,192,15425,1,0,0:0:0:0:
358,192,15508,1,0,0:0:0:0:
109,192,15591,1,0,0:0:0:0:
36,192,15675,1,0,0:0:0:0:
329,192,15675,1,0,0:0:0:0:
109,192,15758,1,0,0:0:0:0:
36,192,15841,1,0,0:0:0:0:
256,192,15841,1,0,0:0:0:0:
475,192,15841,1,0,0:0:0:0:
109,192,15925,1,0,0:0:0:0:
36,192,16008,1,0,0:0:0:0:
182,192,16175,1,0,0:0:0:0:
475,192,16175,1,0,0:0:0:0:
256,192,16258,1,0,0:0:0:0:
36,192,16341,1,0,0:0:0:0:
402,192,16341,1,0,0:0:0:0:
109,192,16425,1,0,0:0:0:0:
329,192,16508,1,0,0:0:0:0:
475,192,16508,1,0,0:0:0:0:
109,192,16591,1,0,0:0:0:0:
36,192,16675,1,0,0:0:0:0:
256,192,16675,1,0,0:0:0:0:
109,192,16758,1,0,0:0:0:0:
358,192,16841,1,0,0:0:0:0:
475,192,16841,1,0,0:0:0:0:
109,192,16925,1,0,0:0:0:0:
36,192,17008,1,0,0:0:0:0:
329,192,17008,1,0,0:0:0:0:
109,192,17091,1,0,0:0:0:0:
256,192,17175,1,0,0:0:0:0:
475,192,17175,1,0,0:0:0:0:
109,192,17258,1,0,0:0:0:0:
36,192,17341,1,0,0:0:0:0:
182,192,17508,1,0,0:0:0:0:
475,192,17508,1,0,0:0:0:0:
256,192,17591,1,0,0:0:0:0:
36,192,17675,1,0,0:0:0:0:
402,192,17675,1,0,0:0:0:0:
109,192,17758,1,0,0:0:0:0:
329,192,17841,1,0,0:0:0:0:
475,192,17841,1,0,0:0:0:0:
109,192,17925,1,0,0:0:0:0:
36,192,18008,1,0,0:0:0:0:
256,192,18008,1,0,0:0:0:0:
358,192,18091,1,0,0:0:0:0:
182,192,18175,1,0,0:0:0:0:
475,192,18175,1,0,0:0:0:0:
256,192,18258,1,0,0:0:0:0:
36,192,18341,1,0,0:0:0:0:
329,192,18341,1,0,0:0:0:0:
109,192,18425,1,0,0:0:0:0:
256,192,18508,1,0,0:0:0:0:
475,192,18508,1,0,0:0:0:0:
109,192,18591,1,0,0:0:0:0:
36,192,18675,1,0,0:0:0:0:
182,192,18841,1,0,0:0:0:0:
475,192,18841,1,0,0:0:0:0:
256,192,18925,1,0,0:0:0:0:
36,192,19008,1,0,0:0:0:0:
402,192,19008,1,0,0:0:0:0:
109,192,19091,1,0,0:0:0:0:
329,192,19175,1,0,0:0:0:0:
475,192,19175,1,0,0:0:0:0:
109,192,19258,1,0,0:0:0:0:
36,192,19341,1,0,0:0:0:0:
256,192,19341,1,0,0:0:0:0:
109,192,19425,1,0,0:0:0:0:
358,192,19508,1,0,0:0:0:0:
475,192,19508,1,0,0:0:0:0:
109,192,19591,1,0,0:0:0:0:
36,192,19675,1,0,0:0:0:0:
329,192,19675,1,0,0:0:0:0:
109,192,19758,1,0,0:0:0:0:
256,192,19841,1,0,0:0:0:0:
475,192,19841,1,0,0:0:0:0:
109,192,19925,1,0,0:0:0:0:
36,192,20008,1,0,0:0:0:0:
182,192,20175,1,0,0:0:0:0:
475,192,20175,1,0,0:0:0:0:
358,192,20258,1,0,0:0:0:0:
36,192,20341,1,0,0:0:0:0:
256,192,20341,1,0,0:0:0:0:
109,192,20425,1,0,0:0:0:0:
329,192,20508,1,0,0:0:0:0:
475,192,20508,1,0,0:0:0:0:
109,192,20591,1,0,0:0:0:0:
36,192,20675,1,0,0:0:0:0:
256,192,20675,1,0,0:0:0:0:
358,192,20758,1,0,0:0:0:0:
182,192,20841,1,0,0:0:0:0:
358,192,20925,1,0,0:0:0:0:
36,192,21008,1,0,0:0:0:0:
256,192,21008,1,0,0:0:0:0:
109,192,21091,1,0,0:0:0:0:
36,192,21175,1,0,0:0:0:0:
329,192,21175,1,0,0:0:0:0:
475,192,21175,1,0,0:0:0:0:
109,192,21258,1,0,0:0:0:0:
36,192,21341,1,0,0:0:0:0:
182,192,21508,1,0,0:0:0:0:
475,192,21508,1,0,0:0:0:0:
256,192,21591,1,0,0:0:0:0:
36,192,21675,1,0,0:0:0:0:
402,192,21675,1,0,0:0:0:0:
109,192,21758,1,0,0:0:0:0:
329,192,21841,1,0,0:0:0:0:
475,192,21841,1,0,0:0:0:0:
109,192,21925,1,0,0:0:0:0:
36,192,22008,1,0,0:0:0:0:
256,192,22008,1,0,0:0:0:0:
358,192,22091,1,0,0:0:0:0:
182,192,22175,1,0,0:0:0:0:
475,192,22175,1,0,0:0:0:0:
256,192,22258,1,0,0:0:0:0:
36,192,22341,1,0,0:0:0:0:
329,192,22341,1,0,0:0:0:0:
109,192,22425,1,0,0:0:0:0:
256,192,22508,1,0,0:0:0:0:
475,192,22508,1,0,0:0:0:0:
109,192,22591,1,0,0:0:0:0:
36,192,22675,1,0,0:0:0:0:
329,192,22841,1,0,0:0:0:0:
475,192,22841,1,0,0:0:0:0:
109,192,22925,1,0,0:0:0:0:
36,192,23008,1,0,0:0:0:0:
402,192,23008,1,0,0:0:0:0:
109,192,23091,1,0,0:0:0:0:
36,192,23175,1,0,0:0:0:0:
329,192,23175,1,0,0:0:0:0:
475,192,23175,1,0,0:0:0:0:
109,192,23258,1,0,0:0:0:0:
36,192,23341,1,0,0:0:0:0:
256,192,23341,1,0,0:0:0:0:
36,192,23425,1,0,0:0:0:0:
109,192,23425,1,0,0:0:0:0:
182,192,23508,1,0,0:0:0:0:
475,192,23508,1,0,0:0:0:0:
36,192,23591,1,0,0:0:0:0:
109,192,23591,1,0,0:0:0:0:
402,192,23591,1,0,0:0:0:0:
36,192,23675,1,0,0:0:0:0:
256,192,23675,1,0,0:0:0:0:
109,192,23758,1,0,0:0:0:0:
402,192,23758,1,0,0:0:0:0:
36,192,23841,1,0,0:0:0:0:
182,192,23841,1,0,0:0:0:0:
475,192,23841,1,0,0:0:0:0:
36,192,23925,1,0,0:0:0:0:
109,192,23925,1,0,0:0:0:0:
402,192,23925,1,0,0:0:0:0:
36,192,24008,1,0,0:0:0:0:
329,192,24008,1,0,0:0:0:0:
475,192,24008,1,0,0:0:0:0:
109,192,24091,1,0,0:0:0:0:
36,192,24175,1,0,0:0:0:0:
182,192,24175,1,0,0:0:0:0:
402,192,24175,1,0,0:0:0:0:
475,192,24175,1,0,0:0:0:0:
256,192,24258,1,0,0:0:0:0:
36,192,24341,1,0,0:0:0:0:
182,192,24341,1,0,0:0:0:0:
329,192,24341,1,0,0:0:0:0:
475,192,24341,1,0,0:0:0:0:
402,192,24425,1,0,0:0:0:0:
109,192,24508,1,0,0:0:0:0:
51,192,24508,1,0,0:0:0:0:
358,192,24508,1,0,0:0:0:0:
460,192,24508,1,0,0:0:0:0:
256,192,24591,1,0,0:0:0:0:
36,192,24675,1,0,0:0:0:0:
182,192,24675,1,0,0:0:0:0:
402,192,24675,1,0,0:0:0:0:
475,192,24675,1,0,0:0:0:0:
109,192,24758,1,0,0:0:0:0:
51,192,24841,1,0,0:0:0:0:
460,192,24841,1,0,0:0:0:0:
402,192,24841,1,0,0:0:0:0:
256,192,24925,1,0,0:0:0:0:
36,192,25008,1,0,0:0:0:0:
182,192,25008,1,0,0:0:0:0:
329,192,25008,1,0,0:0:0:0:
475,192,25008,1,0,0:0:0:0:
109,192,25091,1,0,0:0:0:0:
51,192,25175,1,0,0:0:0:0:
153,192,25175,1,0,0:0:0:0:
402,192,25175,1,0,0:0:0:0:
475,192,25175,1,0,0:0:0:0:
256,192,25258,1,0,0:0:0:0:
36,192,25341,1,0,0:0:0:0:
182,192,25341,1,0,0:0:0:0:
109,192,25425,1,0,0:0:0:0:
36,192,25508,1,0,0:0:0:0:
256,192,25508,1,0,0:0:0:0:
402,192,25508,1,0,0:0:0:0:
475,192,25508,1,0,0:0:0:0:
329,192,25591,1,0,0:0:0:0:
36,192,25675,1,0,0:0:0:0:
182,192,25675,1,0,0:0:0:0:
256,192,25675,1,0,0:0:0:0:
402,192,25675,1,0,0:0:0:0:
475,192,25758,1,0,0:0:0:0:
36,192,25841,1,0,0:0:0:0:
256,192,25841,1,0,0:0:0:0:
182,192,25841,1,0,0:0:0:0:
402,192,25841,1,0,0:0:0:0:
329,192,25925,1,0,0:0:0:0:
36,192,26008,1,0,0:0:0:0:
256,192,26008,1,0,0:0:0:0:
402,192,26008,1,0,0:0:0:0:
475,192,26008,1,0,0:0:0:0:
182,192,26091,1,0,0:0:0:0:
153,192,26175,1,0,0:0:0:0:
256,192,26175,1,0,0:0:0:0:
402,192,26175,1,0,0:0:0:0:
475,192,26175,1,0,0:0:0:0:
36,192,26258,1,0,0:0:0:0:
109,192,26341,1,0,0:0:0:0:
256,192,26341,1,0,0:0:0:0:
329,192,26341,1,0,0:0:0:0:
475,192,26341,1,0,0:0:0:0:
182,192,26425,1,0,0:0:0:0:
36,192,26508,1,0,0:0:0:0:
153,192,26508,1,0,0:0:0:0:
256,192,26508,1,0,0:0:0:0:
402,192,26508,1,0,0:0:0:0:
182,192,26591,1,0,0:0:0:0:
109,192,26675,1,0,0:0:0:0:
475,192,26675,1,0,0:0:0:0:
36,192,26758,1,0,0:0:0:0:
182,192,26841,1,0,0:0:0:0:
256,192,26841,1,0,0:0:0:0:
329,192,26841,1,0,0:0:0:0:
475,192,26841,1,0,0:0:0:0:
402,192,26925,1,0,0:0:0:0:
36,192,27008,1,0,0:0:0:0:
109,192,27008,1,0,0:0:0:0:
256,192,27008,1,0,0:0:0:0:
475,192,27008,1,0,0:0:0:0:
402,192,27091,1,0,0:0:0:0:
36,192,27175,1,0,0:0:0:0:
182,192,27175,1,0,0:0:0:0:
358,192,27175,1,0,0:0:0:0:
256,192,27175,1,0,0:0:0:0:
402,192,27258,1,0,0:0:0:0:
36,192,27341,1,0,0:0:0:0:
182,192,27341,1,0,0:0:0:0:
329,192,27341,1,0,0:0:0:0:
475,192,27341,1,0,0:0:0:0:
256,192,27425,1,0,0:0:0:0:
109,192,27508,1,0,0:0:0:0:
51,192,27508,1,0,0:0:0:0:
358,192,27508,1,0,0:0:0:0:
475,192,27508,1,0,0:0:0:0:
256,192,27591,1,0,0:0:0:0:
36,192,27675,1,0,0:0:0:0:
109,192,27675,1,0,0:0:0:0:
460,192,27675,1,0,0:0:0:0:
402,192,27675,1,0,0:0:0:0:
256,192,27758,1,0,0:0:0:0:
36,192,27841,1,0,0:0:0:0:
182,192,27841,1,0,0:0:0:0:
329,192,27841,1,0,0:0:0:0:
475,192,27841,1,0,0:0:0:0:
109,192,27925,1,0,0:0:0:0:
36,192,28008,1,0,0:0:0:0:
182,192,28008,1,0,0:0:0:0:
256,192,28008,1,0,0:0:0:0:
109,192,28091,1,0,0:0:0:0:
182,192,28175,1,0,0:0:0:0:
51,192,28175,1,0,0:0:0:0:
402,192,28175,1,0,0:0:0:0:
475,192,28175,1,0,0:0:0:0:
256,192,28258,1,0,0:0:0:0:
36,192,28341,1,0,0:0:0:0:
182,192,28341,1,0,0:0:0:0:
329,192,28341,1,0,0:0:0:0:
460,192,28341,1,0,0:0:0:0:
475,192,28425,1,0,0:0:0:0:
36,192,28508,1,0,0:0:0:0:
109,192,28508,1,0,0:0:0:0:
256,192,28508,1,0,0:0:0:0:
402,192,28508,1,0,0:0:0:0:
329,192,28591,1,0,0:0:0:0:
36,192,28675,1,0,0:0:0:0:
109,192,28675,1,0,0:0:0:0:
256,192,28675,1,0,0:0:0:0:
402,192,28675,1,0,0:0:0:0:
475,192,28675,1,0,0:0:0:0:
182,192,28758,1,0,0:0:0:0:
109,192,28841,1,0,0:0:0:0:
329,192,28841,1,0,0:0:0:0:
475,192,28841,1,0,0:0:0:0:
36,192,28925,1,0,0:0:0:0:
182,192,29008,1,0,0:0:0:0:
256,192,29008,1,0,0:0:0:0:
402,192,29008,1,0,0:0:0:0:
475,192,29008,1,0,0:0:0:0:
329,192,29091,1,0,0:0:0:0:
36,192,29175,1,0,0:0:0:0:
182,192,29175,1,0,0:0:0:0:
256,192,29175,1,0,0:0:0:0:
402,192,29175,1,0,0:0:0:0:
475,192,29175,1,0,0:0:0:0:
109,192,29258,1,0,0:0:0:0:
36,192,29341,1,0,0:0:0:0:
182,192,29341,1,0,0:0:0:0:
256,192,29425,1,0,0:0:0:0:
51,192,29508,1,0,0:0:0:0:
182,192,29508,1,0,0:0:0:0:
358,192,29508,1,0,0:0:0:0:
475,192,29508,1,0,0:0:0:0:
256,192,29508,1,0,0:0:0:0:
402,192,29591,1,0,0:0:0:0:
36,192,29675,1,0,0:0:0:0:
182,192,29675,1,0,0:0:0:0:
329,192,29675,1,0,0:0:0:0:
475,192,29675,1,0,0:0:0:0:
256,192,29675,1,0,0:0:0:0:
256,192,29758,1,0,0:0:0:0:
36,192,29841,1,0,0:0:0:0:
182,192,29841,1,0,0:0:0:0:
329,192,29841,1,0,0:0:0:0:
475,192,29841,1,0,0:0:0:0:
256,192,29841,1,0,0:0:0:0:
402,192,29925,1,0,0:0:0:0:
36,192,30008,1,0,0:0:0:0:
109,192,30008,1,0,0:0:0:0:
256,192,30008,1,0,0:0:0:0:
475,192,30008,1,0,0:0:0:0:
402,192,30091,1,0,0:0:0:0:
36,192,30175,1,0,0:0:0:0:
256,192,30175,1,0,0:0:0:0:
182,192,30175,1,0,0:0:0:0:
358,192,30175,1,0,0:0:0:0:
475,192,30175,1,0,0:0:0:0:
256,192,30258,1,0,0:0:0:0:
51,192,30341,1,0,0:0:0:0:
153,192,30341,1,0,0:0:0:0:
358,192,30341,1,0,0:0:0:0:
460,192,30341,1,0,0:0:0:0:
329,192,30425,1,0,0:0:0:0:
36,192,30508,1,0,0:0:0:0:
109,192,30508,1,0,0:0:0:0:
256,192,30508,1,0,0:0:0:0:
402,192,30508,1,0,0:0:0:0:
475,192,30508,1,0,0:0:0:0:
182,192,30591,1,0,0:0:0:0:
36,192,30675,1,0,0:0:0:0:
475,192,30675,1,0,0:0:0:0:
402,192,30758,1,0,0:0:0:0:
36,192,30841,1,0,0:0:0:0:
109,192,30841,1,0,0:0:0:0:
256,192,30841,1,0,0:0:0:0:
329,192,30841,1,0,0:0:0:0:
475,192,30841,1,0,0:0:0:0:
182,192,30925,1,0,0:0:0:0:
36,192,31008,1,0,0:0:0:0:
109,192,31008,1,0,0:0:0:0:
256,192,31008,1,0,0:0:0:0:
402,192,31008,1,0,0:0:0:0:
329,192,31091,1,0,0:0:0:0:
36,192,31175,1,0,0:0:0:0:
109,192,31175,1,0,0:0:0:0:
256,192,31175,1,0,0:0:0:0:
402,192,31175,1,0,0:0:0:0:
475,192,31175,1,0,0:0:0:0:
182,192,31258,1,0,0:0:0:0:
51,192,31341,1,0,0:0:0:0:
256,192,31341,1,0,0:0:0:0:
329,192,31341,1,0,0:0:0:0:
460,192,31341,1,0,0:0:0:0:
109,192,31425,1,0,0:0:0:0:
36,192,31508,1,0,0:0:0:0:
153,192,31508,1,0,0:0:0:0:
329,192,31508,1,0,0:0:0:0:
256,192,31508,1,0,0:0:0:0:
475,192,31508,1,0,0:0:0:0:
256,192,31591,1,0,0:0:0:0:
36,192,31675,1,0,0:0:0:0:
109,192,31675,1,0,0:0:0:0:
329,192,31675,1,0,0:0:0:0:
475,192,31675,1,0,0:0:0:0:
402,192,31758,1,0,0:0:0:0:
36,192,31841,1,0,0:0:0:0:
182,192,31841,1,0,0:0:0:0:
256,192,31841,1,0,0:0:0:0:
329,192,31841,1,0,0:0:0:0:
475,192,31841,1,0,0:0:0:0:
109,192,31925,1,0,0:0:0:0:
36,192,32008,1,0,0:0:0:0:
182,192,32008,1,0,0:0:0:0:
256,192,32008,1,0,0:0:0:0:
475,192,32008,1,0,0:0:0:0:
402,192,32064,1,0,0:0:0:0:
109,192,32091,1,0,0:0:0:0:
256,192,32091,1,0,0:0:0:0:
329,192,32119,1,0,0:0:0:0:
36,192,32175,1,0,0:0:0:0:
182,192,32175,1,0,0:0:0:0:
256,192,32175,1,0,0:0:0:0:
475,192,32175,1,0,0:0:0:0:
402,192,32230,1,0,0:0:0:0:
109,192,32258,1,0,0:0:0:0:
256,192,32258,1,0,0:0:0:0:
329,192,32286,1,0,0:0:0:0:
36,192,32341,1,0,0:0:0:0:
182,192,32341,1,0,0:0:0:0:
256,192,32341,1,0,0:0:0:0:
475,192,32341,1,0,0:0:0:0:
402,192,32397,1,0,0:0:0:0:
109,192,32425,1,0,0:0:0:0:
256,192,32425,1,0,0:0:0:0:
329,192,32453,1,0,0:0:0:0:
36,192,32508,1,0,0:0:0:0:
182,192,32508,1,0,0:0:0:0:
256,192,32508,1,0,0:0:0:0:
475,192,32508,1,0,0:0:0:0:
402,192,32564,1,0,0:0:0:0:
109,192,32591,1,0,0:0:0:0:
256,192,32591,1,0,0:0:0:0:
329,192,32619,1,0,0:0:0:0:
36,192,32675,1,0,0:0:0:0:
182,192,32675,1,0,0:0:0:0:
256,192,32675,1,0,0:0:0:0:
475,192,32675,1,0,0:0:0:0:
402,192,32730,1,0,0:0:0:0:
109,192,32758,1,0,0:0:0:0:
256,192,32758,1,0,0:0:0:0:
329,192,32786,1,0,0:0:0:0:
36,192,32841,1,0,0:0:0:0:
182,192,32841,1,0,0:0:0:0:
256,192,32841,1,0,0:0:0:0:
475,192,32841,1,0,0:0:0:0:
402,192,32897,1,0,0:0:0:0:
109,192,32925,1,0,0:0:0:0:
256,192,32925,1,0,0:0:0:0:
329,192,32953,1,0,0:0:0:0:
36,192,33008,1,0,0:0:0:0:
182,192,33008,1,0,0:0:0:0:
256,192,33008,1,0,0:0:0:0:
475,192,33008,1,0,0:0:0:0:
402,192,33064,1,0,0:0:0:0:
109,192,33091,1,0,0:0:0:0:
256,192,33091,1,0,0:0:0:0:
329,192,33119,1,0,0:0:0:0:
36,192,33175,1,0,0:0:0:0:
182,192,33175,1,0,0:0:0:0:
256,192,33175,1,0,0:0:0:0:
475,192,33175,1,0,0:0:0:0:
402,192,33230,1,0,0:0:0:0:
109,192,33258,1,0,0:0:0:0:
256,192,33258,1,0,0:0:0:0:
329,192,33286,1,0,0:0:0:0:
36,192,33341,1,0,0:0:0:0:
182,192,33341,1,0,0:0:0:0:
475,192,33341,1,0,0:0:0:0:
402,192,33397,1,0,0:0:0:0:
109,192,33425,1,0,0:0:0:0:
256,192,33425,1,0,0:0:0:0:
329,192,33453,1,0,0:0:0:0:
36,192,33508,1,0,0:0:0:0:
182,192,33508,1,0,0:0:0:0:
475,192,33508,1,0,0:0:0:0:
402,192,33564,1,0,0:0:0:0:
109,192,33591,1,0,0:0:0:0:
256,192,33591,1,0,0:0:0:0:
329,192,33619,1,0,0:0:0:0:
36,192,33675,1,0,0:0:0:0:
182,192,33675,1,0,0:0:0:0:
475,192,33675,1,0,0:0:0:0:
402,192,33730,1,0,0:0:0:0:
109,192,33758,1,0,0:0:0:0:
256,192,33758,1,0,0:0:0:0:
329,192,33786,1,0,0:0:0:0:
36,192,33841,1,0,0:0:0:0:
182,192,33841,1,0,0:0:0:0:
475,192,33841,1,0,0:0:0:0:
402,192,33897,1,0,0:0:0:0:
109,192,33925,1,0,0:0:0:0:
256,192,33925,1,0,0:0:0:0:
329,192,33953,1,0,0:0:0:0:
36,192,34008,1,0,0:0:0:0:
256,192,34008,1,0,0:0:0:0:
475,192,34008,1,0,0:0:0:0:
109,192,34050,1,0,0:0:0:0:
358,192,34064,1,0,0:0:0:0:
51,192,34091,1,0,0:0:0:0:
256,192,34091,1,0,0:0:0:0:
475,192,34119,1,0,0:0:0:0:
153,192,34119,1,0,0:0:0:0:
256,192,34175,1,0,0:0:0:0:
51,192,34175,1,0,0:0:0:0:
402,192,34175,1,0,0:0:0:0:
182,192,34216,1,0,0:0:0:0:
256,192,34230,1,0,0:0:0:0:
36,192,34258,1,0,0:0:0:0:
329,192,34258,1,0,0:0:0:0:
256,192,34286,1,0,0:0:0:0:
109,192,34300,1,0,0:0:0:0:
358,192,34341,1,0,0:0:0:0:
256,192,34341,1,0,0:0:0:0:
475,192,34341,1,0,0:0:0:0:
36,192,34383,1,0,0:0:0:0:
153,192,34397,1,0,0:0:0:0:
256,192,34425,1,0,0:0:0:0:
460,192,34425,1,0,0:0:0:0:
358,192,34453,1,0,0:0:0:0:
51,192,34466,1,0,0:0:0:0:
153,192,34508,1,0,0:0:0:0:
256,192,34508,1,0,0:0:0:0:
402,192,34508,1,0,0:0:0:0:
51,192,34550,1,0,0:0:0:0:
475,192,34564,1,0,0:0:0:0:
182,192,34591,1,0,0:0:0:0:
329,192,34591,1,0,0:0:0:0:
256,192,34619,1,0,0:0:0:0:
36,192,34633,1,0,0:0:0:0:
475,192,34675,1,0,0:0:0:0:
153,192,34675,1,0,0:0:0:0:
402,192,35675,1,0,0:0:0:0:
475,192,35841,1,0,0:0:0:0:
329,192,36008,1,0,0:0:0:0:
256,192,37008,1,0,0:0:0:0:
329,192,37175,1,0,0:0:0:0:
182,192,37341,1,0,0:0:0:0:
182,192,38341,1,0,0:0:0:0:
256,192,38508,1,0,0:0:0:0:
109,192,38675,1,0,0:0:0:0:
36,192,39341,1,0,0:0:0:0:
256,192,40008,1,0,0:0:0:0:
329,192,41341,1,0,0:0:0:0:
475,192,42008,1,0,0:0:0:0:
402,192,42675,1,0,0:0:0:0:
51,192,44008,1,0,0:0:0:0:
182,192,45341,1,0,0:0:0:0:
475,192,46008,1,0,0:0:0:0:
402,192,46675,1,0,0:0:0:0:
182,192,47341,1,0,0:0:0:0:
329,192,48008,1,0,0:0:0:0:
256,192,49341,1,0,0:0:0:0:
182,192,50008,1,0,0:0:0:0:
51,192,50675,1,0,0:0:0:0:
182,192,51675,1,0,0:0:0:0:
329,192,51841,1,0,0:0:0:0:
475,192,52008,1,0,0:0:0:0:
182,192,52675,1,0,0:0:0:0:
36,192,53341,1,0,0:0:0:0:
460,192,54675,1,0,0:0:0:0:
36,192,55341,1,0,0:0:0:0:
109,192,55425,1,0,0:0:0:0:
256,192,55508,1,0,0:0:0:0:
153,192,55591,1,0,0:0:0:0:
256,192,55675,1,0,0:0:0:0:
358,192,55758,1,0,0:0:0:0:
256,192,55841,1,0,0:0:0:0:
402,192,55925,1,0,0:0:0:0:
36,192,56008,1,0,0:0:0:0:
182,192,56008,1,0,0:0:0:0:
256,192,56008,1,0,0:0:0:0:
329,192,56008,1,0,0:0:0:0:
475,192,56008,1,0,0:0:0:0:
36,192,56175,1,0,0:0:0:0:
329,192,56175,1,0,0:0:0:0:
182,192,56258,1,0,0:0:0:0:
475,192,56258,1,0,0:0:0:0:
36,192,56508,1,0,0:0:0:0:
475,192,56508,1,0,0:0:0:0:
182,192,56675,1,0,0:0:0:0:
329,192,56675,1,0,0:0:0:0:
36,192,56758,1,0,0:0:0:0:
475,192,56758,1,0,0:0:0:0:
36,192,57008,1,0,0:0:0:0:
475,192,57008,1,0,0:0:0:0:
36,192,57175,1,0,0:0:0:0:
475,192,57175,1,0,0:0:0:0:
51,192,57341,1,0,0:0:0:0:
256,192,57341,1,0,0:0:0:0:
460,192,57341,1,0,0:0:0:0:
402,192,57341,1,0,0:0:0:0:
109,192,57508,1,0,0:0:0:0:
256,192,57591,1,0,0:0:0:0:
329,192,57591,1,0,0:0:0:0:
256,192,57841,1,0,0:0:0:0:
329,192,57841,1,0,0:0:0:0:
109,192,58008,1,0,0:0:0:0:
256,192,58091,1,0,0:0:0:0:
329,192,58091,1,0,0:0:0:0:
256,192,58341,1,0,0:0:0:0:
402,192,58341,1,0,0:0:0:0:
109,192,58508,1,0,0:0:0:0:
256,192,58508,1,0,0:0:0:0:
36,192,58675,1,0,0:0:0:0:
109,192,58675,1,0,0:0:0:0:
329,192,58675,1,0,0:0:0:0:
475,192,58675,1,0,0:0:0:0:
36,192,58841,1,0,0:0:0:0:
182,192,58841,1,0,0:0:0:0:
109,192,58925,1,0,0:0:0:0:
329,192,58925,1,0,0:0:0:0:
36,192,59175,1,0,0:0:0:0:
182,192,59175,1,0,0:0:0:0:
182,192,59341,1,0,0:0:0:0:
329,192,59341,1,0,0:0:0:0:
109,192,59425,1,0,0:0:0:0:
256,192,59425,1,0,0:0:0:0:
36,192,59508,1,0,0:0:0:0:
182,192,59508,1,0,0:0:0:0:
109,192,59675,1,0,0:0:0:0:
256,192,59675,1,0,0:0:0:0:
182,192,59841,1,0,0:0:0:0:
329,192,59841,1,0,0:0:0:0:
51,192,60008,1,0,0:0:0:0:
256,192,60008,1,0,0:0:0:0:
460,192,60008,1,0,0:0:0:0:
402,192,60008,1,0,0:0:0:0:
109,192,60175,1,0,0:0:0:0:
256,192,60175,1,0,0:0:0:0:
402,192,60258,1,0,0:0:0:0:
109,192,60425,1,0,0:0:0:0:
256,192,60425,1,0,0:0:0:0:
358,192,60508,1,0,0:0:0:0:
109,192,60675,1,0,0:0:0:0:
256,192,60675,1,0,0:0:0:0:
475,192,60675,1,0,0:0:0:0:
329,192,60758,1,0,0:0:0:0:
51,192,60758,1,0,0:0:0:0:
182,192,60841,1,0,0:0:0:0:
256,192,60841,1,0,0:0:0:0:
36,192,61008,1,0,0:0:0:0:
182,192,61008,1,0,0:0:0:0:
109,192,61175,1,0,0:0:0:0:
36,192,61341,1,0,0:0:0:0:
153,192,61341,1,0,0:0:0:0:
460,192,61341,1,0,0:0:0:0:
402,192,61341,1,0,0:0:0:0:
36,192,61508,1,0,0:0:0:0:
256,192,61508,1,0,0:0:0:0:
182,192,61591,1,0,0:0:0:0:
402,192,61591,1,0,0:0:0:0:
182,192,61841,1,0,0:0:0:0:
402,192,61841,1,0,0:0:0:0:
36,192,62008,1,0,0:0:0:0:
256,192,62008,1,0,0:0:0:0:
182,192,62091,1,0,0:0:0:0:
402,192,62091,1,0,0:0:0:0:
36,192,62341,1,0,0:0:0:0:
182,192,62341,1,0,0:0:0:0:
109,192,62508,1,0,0:0:0:0:
329,192,62508,1,0,0:0:0:0:
36,192,62675,1,0,0:0:0:0:
182,192,62675,1,0,0:0:0:0:
256,192,62675,1,0,0:0:0:0:
402,192,62675,1,0,0:0:0:0:
36,192,62841,1,0,0:0:0:0:
109,192,62841,1,0,0:0:0:0:
182,192,62925,1,0,0:0:0:0:
256,192,62925,1,0,0:0:0:0:
36,192,63175,1,0,0:0:0:0:
109,192,63175,1,0,0:0:0:0:
182,192,63341,1,0,0:0:0:0:
256,192,63341,1,0,0:0:0:0:
36,192,63425,1,0,0:0:0:0:
109,192,63425,1,0,0:0:0:0:
402,192,63675,1,0,0:0:0:0:
475,192,63675,1,0,0:0:0:0:
256,192,63841,1,0,0:0:0:0:
329,192,63841,1,0,0:0:0:0:
36,192,64008,1,0,0:0:0:0:
182,192,64008,1,0,0:0:0:0:
402,192,64008,1,0,0:0:0:0:
475,192,64008,1,0,0:0:0:0:
36,192,64175,1,0,0:0:0:0:
109,192,64175,1,0,0:0:0:0:
182,192,64258,1,0,0:0:0:0:
402,192,64258,1,0,0:0:0:0:
36,192,64425,1,0,0:0:0:0:
109,192,64425,1,0,0:0:0:0:
182,192,64508,1,0,0:0:0:0:
402,192,64508,1,0,0:0:0:0:
36,192,64675,1,0,0:0:0:0:
109,192,64675,1,0,0:0:0:0:
182,192,64758,1,0,0:0:0:0:
402,192,64758,1,0,0:0:0:0:
329,192,64925,1,0,0:0:0:0:
475,192,64925,1,0,0:0:0:0:
256,192,65008,1,0,0:0:0:0:
402,192,65008,1,0,0:0:0:0:
36,192,65091,1,0,0:0:0:0:
182,192,65091,1,0,0:0:0:0:
256,192,65175,1,0,0:0:0:0:
475,192,65175,1,0,0:0:0:0:
36,192,65341,1,0,0:0:0:0:
109,192,65341,1,0,0:0:0:0:
402,192,65341,1,0,0:0:0:0:
475,192,65341,1,0,0:0:0:0:
36,192,65508,1,0,0:0:0:0:
182,192,65508,1,0,0:0:0:0:
402,192,65591,1,0,0:0:0:0:
475,192,65591,1,0,0:0:0:0:
36,192,65758,1,0,0:0:0:0:
182,192,65758,1,0,0:0:0:0:
402,192,65841,1,0,0:0:0:0:
475,192,65841,1,0,0:0:0:0:
36,192,65925,1,0,0:0:0:0:
182,192,65925,1,0,0:0:0:0:
109,192,66008,1,0,0:0:0:0:
329,192,66008,1,0,0:0:0:0:
475,192,66008,1,0,0:0:0:0:
182,192,66175,1,0,0:0:0:0:
256,192,66175,1,0,0:0:0:0:
36,192,66341,1,0,0:0:0:0:
109,192,66341,1,0,0:0:0:0:
475,192,66341,1,0,0:0:0:0:
182,192,66508,1,0,0:0:0:0:
329,192,66508,1,0,0:0:0:0:
36,192,66675,1,0,0:0:0:0:
256,192,66675,1,0,0:0:0:0:
402,192,66675,1,0,0:0:0:0:
36,192,66841,1,0,0:0:0:0:
109,192,66841,1,0,0:0:0:0:
475,192,66841,1,0,0:0:0:0:
256,192,66925,1,0,0:0:0:0:
402,192,66925,1,0,0:0:0:0:
36,192,67175,1,0,0:0:0:0:
109,192,67175,1,0,0:0:0:0:
475,192,67175,1,0,0:0:0:0:
256,192,67341,1,0,0:0:0:0:
329,192,67341,1,0,0:0:0:0:
36,192,67425,1,0,0:0:0:0:
109,192,67425,1,0,0:0:0:0:
475,192,67508,1,0,0:0:0:0:
109,192,67675,1,0,0:0:0:0:
51,192,67675,1,0,0:0:0:0:
256,192,67841,1,0,0:0:0:0:
329,192,67841,1,0,0:0:0:0:
475,192,67841,1,0,0:0:0:0:
51,192,68008,1,0,0:0:0:0:
329,192,68008,1,0,0:0:0:0:
256,192,68008,1,0,0:0:0:0:
109,192,68175,1,0,0:0:0:0:
475,192,68175,1,0,0:0:0:0:
256,192,68258,1,0,0:0:0:0:
329,192,68258,1,0,0:0:0:0:
182,192,68508,1,0,0:0:0:0:
256,192,68508,1,0,0:0:0:0:
475,192,68508,1,0,0:0:0:0:
36,192,68675,1,0,0:0:0:0:
256,192,68675,1,0,0:0:0:0:
329,192,68675,1,0,0:0:0:0:
109,192,68758,1,0,0:0:0:0:
460,192,68758,1,0,0:0:0:0:
256,192,68841,1,0,0:0:0:0:
329,192,68841,1,0,0:0:0:0:
36,192,69008,1,0,0:0:0:0:
256,192,69008,1,0,0:0:0:0:
402,192,69008,1,0,0:0:0:0:
109,192,69175,1,0,0:0:0:0:
329,192,69175,1,0,0:0:0:0:
475,192,69175,1,0,0:0:0:0:
36,192,69341,1,0,0:0:0:0:
256,192,69341,1,0,0:0:0:0:
402,192,69341,1,0,0:0:0:0:
182,192,69508,1,0,0:0:0:0:
329,192,69508,1,0,0:0:0:0:
475,192,69508,1,0,0:0:0:0:
256,192,69591,1,0,0:0:0:0:
402,192,69591,1,0,0:0:0:0:
36,192,69675,1,0,0:0:0:0:
182,192,69675,1,0,0:0:0:0:
329,192,69675,1,0,0:0:0:0:
109,192,69841,1,0,0:0:0:0:
256,192,69841,1,0,0:0:0:0:
475,192,69841,1,0,0:0:0:0:
182,192,69925,1,0,0:0:0:0:
329,192,69925,1,0,0:0:0:0:
109,192,70008,1,0,0:0:0:0:
256,192,70008,1,0,0:0:0:0:
402,192,70008,1,0,0:0:0:0:
36,192,70091,1,0,0:0:0:0:
182,192,70091,1,0,0:0:0:0:
475,192,70175,1,0,0:0:0:0:
109,192,70258,1,0,0:0:0:0:
329,192,70258,1,0,0:0:0:0:
36,192,70341,1,0,0:0:0:0:
256,192,70341,1,0,0:0:0:0:
402,192,70341,1,0,0:0:0:0:
109,192,70425,1,0,0:0:0:0:
329,192,70425,1,0,0:0:0:0:
256,192,70508,1,0,0:0:0:0:
402,192,70508,1,0,0:0:0:0:
36,192,70675,1,0,0:0:0:0:
182,192,70675,1,0,0:0:0:0:
256,192,70675,1,0,0:0:0:0:
36,192,70841,1,0,0:0:0:0:
109,192,70841,1,0,0:0:0:0:
475,192,70841,1,0,0:0:0:0:
182,192,70925,1,0,0:0:0:0:
256,192,70925,1,0,0:0:0:0:
36,192,71008,1,0,0:0:0:0:
329,192,71008,1,0,0:0:0:0:
460,192,71008,1,0,0:0:0:0:
182,192,71175,1,0,0:0:0:0:
256,192,71175,1,0,0:0:0:0:
475,192,71175,1,0,0:0:0:0:
36,192,71341,1,0,0:0:0:0:
256,192,71341,1,0,0:0:0:0:
402,192,71341,1,0,0:0:0:0:
182,192,71425,1,0,0:0:0:0:
329,192,71425,1,0,0:0:0:0:
256,192,71508,1,0,0:0:0:0:
402,192,71508,1,0,0:0:0:0:
475,192,71508,1,0,0:0:0:0:
36,192,71675,1,0,0:0:0:0:
109,192,71675,1,0,0:0:0:0:
329,192,71675,1,0,0:0:0:0:
153,192,71841,1,0,0:0:0:0:
329,192,71841,1,0,0:0:0:0:
256,192,71841,1,0,0:0:0:0:
475,192,71841,1,0,0:0:0:0:
36,192,72008,1,0,0:0:0:0:
109,192,72008,1,0,0:0:0:0:
402,192,72008,1,0,0:0:0:0:
182,192,72175,1,0,0:0:0:0:
329,192,72175,1,0,0:0:0:0:
475,192,72175,1,0,0:0:0:0:
109,192,72258,1,0,0:0:0:0:
402,192,72258,1,0,0:0:0:0:
36,192,72341,1,0,0:0:0:0:
182,192,72508,1,0,0:0:0:0:
329,192,72508,1,0,0:0:0:0:
475,192,72508,1,0,0:0:0:0:
36,192,72675,1,0,0:0:0:0:
109,192,72675,1,0,0:0:0:0:
402,192,72675,1,0,0:0:0:0:
182,192,72758,1,0,0:0:0:0:
329,192,72758,1,0,0:0:0:0:
475,192,72841,1,0,0:0:0:0:
36,192,73008,1,0,0:0:0:0:
109,192,73008,1,0,0:0:0:0:
402,192,73008,1,0,0:0:0:0:
182,192,73175,1,0,0:0:0:0:
329,192,73175,1,0,0:0:0:0:
475,192,73175,1,0,0:0:0:0:
36,192,73341,1,0,0:0:0:0:
109,192,73341,1,0,0:0:0:0:
402,192,73341,1,0,0:0:0:0:
182,192,73508,1,0,0:0:0:0:
256,192,73508,1,0,0:0:0:0:
475,192,73508,1,0,0:0:0:0:
109,192,73591,1,0,0:0:0:0:
402,192,73591,1,0,0:0:0:0:
36,192,73675,1,0,0:0:0:0:
182,192,73841,1,0,0:0:0:0:
256,192,73841,1,0,0:0:0:0:
475,192,73841,1,0,0:0:0:0:
256,192,74008,1,0,0:0:0:0:
329,192,74008,1,0,0:0:0:0:
460,192,74008,1,0,0:0:0:0:
36,192,74091,1,0,0:0:0:0:
182,192,74091,1,0,0:0:0:0:
256,192,74175,1,0,0:0:0:0:
402,192,74175,1,0,0:0:0:0:
36,192,74341,1,0,0:0:0:0:
182,192,74341,1,0,0:0:0:0:
256,192,74341,1,0,0:0:0:0:
329,192,74425,1,0,0:0:0:0:
36,192,74508,1,0,0:0:0:0:
182,192,74508,1,0,0:0:0:0:
475,192,74508,1,0,0:0:0:0:
36,192,74675,1,0,0:0:0:0:
109,192,74675,1,0,0:0:0:0:
402,192,74675,1,0,0:0:0:0:
182,192,74841,1,0,0:0:0:0:
329,192,74841,1,0,0:0:0:0:
475,192,74841,1,0,0:0:0:0:
109,192,74925,1,0,0:0:0:0:
402,192,74925,1,0,0:0:0:0:
36,192,75008,1,0,0:0:0:0:
182,192,75091,1,0,0:0:0:0:
329,192,75091,1,0,0:0:0:0:
109,192,75175,1,0,0:0:0:0:
402,192,75175,1,0,0:0:0:0:
475,192,75175,1,0,0:0:0:0:
36,192,75341,1,0,0:0:0:0:
182,192,75341,1,0,0:0:0:0:
329,192,75341,1,0,0:0:0:0:
109,192,75425,1,0,0:0:0:0:
402,192,75425,1,0,0:0:0:0:
182,192,75508,1,0,0:0:0:0:
329,192,75508,1,0,0:0:0:0:
475,192,75508,1,0,0:0:0:0:
36,192,75675,1,0,0:0:0:0:
109,192,75675,1,0,0:0:0:0:
402,192,75675,1,0,0:0:0:0:
182,192,75758,1,0,0:0:0:0:
329,192,75758,1,0,0:0:0:0:
109,192,75841,1,0,0:0:0:0:
402,192,75841,1,0,0:0:0:0:
475,192,75841,1,0,0:0:0:0:
36,192,76008,1,0,0:0:0:0:
256,192,76008,1,0,0:0:0:0:
329,192,76008,1,0,0:0:0:0:
109,192,76175,1,0,0:0:0:0:
51,192,76175,1,0,0:0:0:0:
475,192,76175,1,0,0:0:0:0:
256,192,76258,1,0,0:0:0:0:
329,192,76258,1,0,0:0:0:0:
36,192,76341,1,0,0:0:0:0:
475,192,76341,1,0,0:0:0:0:
153,192,76425,1,0,0:0:0:0:
256,192,76508,1,0,0:0:0:0:
329,192,76508,1,0,0:0:0:0:
475,192,76508,1,0,0:0:0:0:
36,192,76675,1,0,0:0:0:0:
109,192,76675,1,0,0:0:0:0:
358,192,76675,1,0,0:0:0:0:
475,192,76675,1,0,0:0:0:0:
256,192,76758,1,0,0:0:0:0:
329,192,76758,1,0,0:0:0:0:
51,192,76841,1,0,0:0:0:0:
182,192,76841,1,0,0:0:0:0:
475,192,76841,1,0,0:0:0:0:
256,192,76925,1,0,0:0:0:0:
402,192,76925,1,0,0:0:0:0:
36,192,77008,1,0,0:0:0:0:
109,192,77008,1,0,0:0:0:0:
256,192,77008,1,0,0:0:0:0:
475,192,77008,1,0,0:0:0:0:
402,192,77091,1,0,0:0:0:0:
36,192,77175,1,0,0:0:0:0:
475,192,77175,1,0,0:0:0:0:
402,192,77258,1,0,0:0:0:0:
36,192,77341,1,0,0:0:0:0:
109,192,77369,1,0,0:0:0:0:
256,192,77397,1,0,0:0:0:0:
153,192,77425,1,0,0:0:0:0:
256,192,77453,1,0,0:0:0:0:
402,192,77480,1,0,0:0:0:0:
256,192,77508,1,0,0:0:0:0:
358,192,77536,1,0,0:0:0:0:
460,192,77564,1,0,0:0:0:0:
51,192,77591,1,0,0:0:0:0:
153,192,77619,1,0,0:0:0:0:
256,192,77647,1,0,0:0:0:0:
153,192,77675,1,0,0:0:0:0:
256,192,77703,1,0,0:0:0:0:
358,192,77730,1,0,0:0:0:0:
256,192,77758,1,0,0:0:0:0:
329,192,77786,1,0,0:0:0:0:
460,192,77814,1,0,0:0:0:0:
51,192,77841,1,0,0:0:0:0:
182,192,77869,1,0,0:0:0:0:
256,192,77897,1,0,0:0:0:0:
153,192,77925,1,0,0:0:0:0:
256,192,77953,1,0,0:0:0:0:
358,192,77980,1,0,0:0:0:0:
256,192,78008,1,0,0:0:0:0:
358,192,78036,1,0,0:0:0:0:
460,192,78064,1,0,0:0:0:0:
36,192,78091,1,0,0:0:0:0:
182,192,78119,1,0,0:0:0:0:
329,192,78147,1,0,0:0:0:0:
109,192,78175,1,0,0:0:0:0:
256,192,78203,1,0,0:0:0:0:
402,192,78230,1,0,0:0:0:0:
182,192,78258,1,0,0:0:0:0:
329,192,78286,1,0,0:0:0:0:
475,192,78314,1,0,0:0:0:0:
109,192,78341,1,0,0:0:0:0:
256,192,78369,1,0,0:0:0:0:
402,192,78397,1,0,0:0:0:0:
36,192,78425,1,0,0:0:0:0:
182,192,78453,1,0,0:0:0:0:
329,192,78480,1,0,0:0:0:0:
109,192,78508,1,0,0:0:0:0:
256,192,78536,1,0,0:0:0:0:
402,192,78564,1,0,0:0:0:0:
182,192,78591,1,0,0:0:0:0:
329,192,78619,1,0,0:0:0:0:
475,192,78647,1,0,0:0:0:0:
256,192,78675,1,0,0:0:0:0:
36,192,78703,1,0,0:0:0:0:
329,192,78730,1,0,0:0:0:0:
109,192,78758,1,0,0:0:0:0:
460,192,78786,1,0,0:0:0:0:
256,192,78814,1,0,0:0:0:0:
475,192,78841,1,0,0:0:0:0:
153,192,78869,1,0,0:0:0:0:
402,192,78897,1,0,0:0:0:0:
51,192,78925,1,0,0:0:0:0:
256,192,78953,1,0,0:0:0:0:
51,192,78980,1,0,0:0:0:0:
358,192,79008,1,0,0:0:0:0:
153,192,79036,1,0,0:0:0:0:
460,192,79064,1,0,0:0:0:0:
256,192,79091,1,0,0:0:0:0:
460,192,79119,1,0,0:0:0:0:
153,192,79147,1,0,0:0:0:0:
358,192,79175,1,0,0:0:0:0:
51,192,79203,1,0,0:0:0:0:
256,192,79230,1,0,0:0:0:0:
51,192,79258,1,0,0:0:0:0:
329,192,79286,1,0,0:0:0:0:
109,192,79314,1,0,0:0:0:0:
475,192,79341,1,0,0:0:0:0:
402,192,79369,1,0,0:0:0:0:
256,192,79397,1,0,0:0:0:0:
358,192,79425,1,0,0:0:0:0:
256,192,79453,1,0,0:0:0:0:
109,192,79480,1,0,0:0:0:0:
256,192,79508,1,0,0:0:0:0:
153,192,79536,1,0,0:0:0:0:
51,192,79564,1,0,0:0:0:0:
460,192,79591,1,0,0:0:0:0:
358,192,79619,1,0,0:0:0:0:
256,192,79647,1,0,0:0:0:0:
358,192,79675,1,0,0:0:0:0:
256,192,79703,1,0,0:0:0:0:
153,192,79730,1,0,0:0:0:0:
256,192,79758,1,0,0:0:0:0:
182,192,79786,1,0,0:0:0:0:
51,192,79814,1,0,0:0:0:0:
460,192,79841,1,0,0:0:0:0:
329,192,79869,1,0,0:0:0:0:
256,192,79897,1,0,0:0:0:0:
358,192,79925,1,0,0:0:0:0:
256,192,79953,1,0,0:0:0:0:
153,192,79980,1,0,0:0:0:0:
256,192,80008,1,0,0:0:0:0:
402,192,80036,1,0,0:0:0:0:
182,192,80064,1,0,0:0:0:0:
475,192,80064,1,0,0:0:0:0:
256,192,80091,1,0,0:0:0:0:
36,192,80119,1,0,0:0:0:0:
329,192,80119,1,0,0:0:0:0:
109,192,80147,1,0,0:0:0:0:
256,192,80175,1,0,0:0:0:0:
475,192,80175,1,0,0:0:0:0:
402,192,80203,1,0,0:0:0:0:
256,192,80230,1,0,0:0:0:0:
51,192,80230,1,0,0:0:0:0:
182,192,80258,1,0,0:0:0:0:
256,192,80286,1,0,0:0:0:0:
475,192,80286,1,0,0:0:0:0:
402,192,80314,1,0,0:0:0:0:
36,192,80341,1,0,0:0:0:0:
256,192,80341,1,0,0:0:0:0:
109,192,80369,1,0,0:0:0:0:
256,192,80397,1,0,0:0:0:0:
358,192,80404,1,0,0:0:0:0:
460,192,80446,1,0,0:0:0:0:
402,192,80466,1,0,0:0:0:0:
256,192,80480,1,0,0:0:0:0:
51,192,80508,1,0,0:0:0:0:
182,192,80536,1,0,0:0:0:0:
256,192,80550,1,0,0:0:0:0:
358,192,80571,1,0,0:0:0:0:
51,192,80591,1,0,0:0:0:0:
475,192,80591,1,0,0:0:0:0:
329,192,80619,1,0,0:0:0:0:
256,192,80647,1,0,0:0:0:0:
182,192,80675,1,0,0:0:0:0:
51,192,80703,1,0,0:0:0:0:
153,192,80730,1,0,0:0:0:0:
256,192,80758,1,0,0:0:0:0:
182,192,80786,1,0,0:0:0:0:
51,192,80814,1,0,0:0:0:0:
329,192,80841,1,0,0:0:0:0:
256,192,80869,1,0,0:0:0:0:
182,192,80897,1,0,0:0:0:0:
460,192,80925,1,0,0:0:0:0:
329,192,80953,1,0,0:0:0:0:
256,192,80980,1,0,0:0:0:0:
329,192,81008,1,0,0:0:0:0:
460,192,81036,1,0,0:0:0:0:
358,192,81064,1,0,0:0:0:0:
256,192,81091,1,0,0:0:0:0:
329,192,81119,1,0,0:0:0:0:
460,192,81147,1,0,0:0:0:0:
182,192,81175,1,0,0:0:0:0:
256,192,81203,1,0,0:0:0:0:
329,192,81230,1,0,0:0:0:0:
51,192,81258,1,0,0:0:0:0:
182,192,81286,1,0,0:0:0:0:
256,192,81314,1,0,0:0:0:0:
475,192,81341,1,0,0:0:0:0:
402,192,81369,1,0,0:0:0:0:
51,192,81397,1,0,0:0:0:0:
153,192,81404,1,0,0:0:0:0:
256,192,81425,1,0,0:0:0:0:
36,192,81466,1,0,0:0:0:0:
109,192,81466,1,0,0:0:0:0:
256,192,81480,1,0,0:0:0:0:
460,192,81508,1,0,0:0:0:0:
329,192,81529,1,0,0:0:0:0:
256,192,81550,1,0,0:0:0:0:
182,192,81571,1,0,0:0:0:0:
51,192,81591,1,0,0:0:0:0:
329,192,81612,1,0,0:0:0:0:
256,192,81633,1,0,0:0:0:0:
475,192,81675,1,0,0:0:0:0:
402,192,81703,1,0,0:0:0:0:
256,192,81730,1,0,0:0:0:0:
460,192,81730,1,0,0:0:0:0:
109,192,81758,1,0,0:0:0:0:
36,192,81786,1,0,0:0:0:0:
256,192,81786,1,0,0:0:0:0:
329,192,81814,1,0,0:0:0:0:
256,192,81841,1,0,0:0:0:0:
475,192,81841,1,0,0:0:0:0:
402,192,81869,1,0,0:0:0:0:
51,192,81897,1,0,0:0:0:0:
256,192,81897,1,0,0:0:0:0:
109,192,81925,1,0,0:0:0:0:
36,192,81953,1,0,0:0:0:0:
256,192,81953,1,0,0:0:0:0:
460,192,81980,1,0,0:0:0:0:
109,192,82008,1,0,0:0:0:0:
329,192,82008,1,0,0:0:0:0:
256,192,82036,1,0,0:0:0:0:
182,192,82064,1,0,0:0:0:0:
475,192,82064,1,0,0:0:0:0:
402,192,82091,1,0,0:0:0:0:
36,192,82119,1,0,0:0:0:0:
256,192,82119,1,0,0:0:0:0:
109,192,82147,1,0,0:0:0:0:
256,192,82175,1,0,0:0:0:0:
460,192,82175,1,0,0:0:0:0:
329,192,82203,1,0,0:0:0:0:
256,192,82230,1,0,0:0:0:0:
475,192,82230,1,0,0:0:0:0:
402,192,82258,1,0,0:0:0:0:
51,192,82286,1,0,0:0:0:0:
256,192,82286,1,0,0:0:0:0:
109,192,82314,1,0,0:0:0:0:
36,192,82341,1,0,0:0:0:0:
256,192,82341,1,0,0:0:0:0:
182,192,82369,1,0,0:0:0:0:
256,192,82397,1,0,0:0:0:0:
402,192,82404,1,0,0:0:0:0:
460,192,82425,1,0,0:0:0:0:
256,192,82466,1,0,0:0:0:0:
475,192,82466,1,0,0:0:0:0:
402,192,82487,1,0,0:0:0:0:
256,192,82529,1,0,0:0:0:0:
460,192,82529,1,0,0:0:0:0:
182,192,82550,1,0,0:0:0:0:
475,192,82571,1,0,0:0:0:0:
51,192,82571,1,0,0:0:0:0:
402,192,82591,1,0,0:0:0:0:
256,192,82633,1,0,0:0:0:0:
36,192,82675,1,0,0:0:0:0:
109,192,82703,1,0,0:0:0:0:
256,192,82730,1,0,0:0:0:0:
153,192,82758,1,0,0:0:0:0:
256,192,82786,1,0,0:0:0:0:
358,192,82814,1,0,0:0:0:0:
256,192,82841,1,0,0:0:0:0:
358,192,82869,1,0,0:0:0:0:
460,192,82897,1,0,0:0:0:0:
51,192,82925,1,0,0:0:0:0:
182,192,82953,1,0,0:0:0:0:
256,192,82980,1,0,0:0:0:0:
152,192,83008,1,0,0:0:0:0:
256,192,83036,1,0,0:0:0:0:
358,192,83064,1,0,0:0:0:0:
36,192,83091,1,0,0:0:0:0:
109,192,83119,1,0,0:0:0:0:
256,192,83147,1,0,0:0:0:0:
153,192,83175,1,0,0:0:0:0:
256,192,83203,1,0,0:0:0:0:
358,192,83230,1,0,0:0:0:0:
182,192,83258,1,0,0:0:0:0:
256,192,83286,1,0,0:0:0:0:
329,192,83314,1,0,0:0:0:0:
256,192,83341,1,0,0:0:0:0:
358,192,83369,1,0,0:0:0:0:
460,192,83397,1,0,0:0:0:0:
182,192,83425,1,0,0:0:0:0:
36,192,83453,1,0,0:0:0:0:
109,192,83480,1,0,0:0:0:0:
256,192,83508,1,0,0:0:0:0:
402,192,83536,1,0,0:0:0:0:
475,192,83564,1,0,0:0:0:0:
329,192,83591,1,0,0:0:0:0:
256,192,83619,1,0,0:0:0:0:
109,192,83647,1,0,0:0:0:0:
36,192,83675,1,0,0:0:0:0:
182,192,83703,1,0,0:0:0:0:
256,192,83730,1,0,0:0:0:0:
329,192,83758,1,0,0:0:0:0:
109,192,83786,1,0,0:0:0:0:
256,192,83814,1,0,0:0:0:0:
329,192,83841,1,0,0:0:0:0:
256,192,83869,1,0,0:0:0:0:
182,192,83897,1,0,0:0:0:0:
256,192,83925,1,0,0:0:0:0:
402,192,83953,1,0,0:0:0:0:
475,192,83980,1,0,0:0:0:0:
256,192,84008,1,0,0:0:0:0:
109,192,84036,1,0,0:0:0:0:
36,192,84064,1,0,0:0:0:0:
256,192,84091,1,0,0:0:0:0:
182,192,84119,1,0,0:0:0:0:
51,192,84147,1,0,0:0:0:0:
329,192,84175,1,0,0:0:0:0:
256,192,84203,1,0,0:0:0:0:
182,192,84230,1,0,0:0:0:0:
460,192,84258,1,0,0:0:0:0:
329,192,84286,1,0,0:0:0:0:
256,192,84314,1,0,0:0:0:0:
475,192,84341,1,0,0:0:0:0:
402,192,84369,1,0,0:0:0:0:
256,192,84397,1,0,0:0:0:0:
153,192,84425,1,0,0:0:0:0:
51,192,84453,1,0,0:0:0:0:
109,192,84480,1,0,0:0:0:0:
256,192,84508,1,0,0:0:0:0:
358,192,84536,1,0,0:0:0:0:
460,192,84564,1,0,0:0:0:0:
358,192,84591,1,0,0:0:0:0:
256,192,84619,1,0,0:0:0:0:
153,192,84647,1,0,0:0:0:0:
51,192,84675,1,0,0:0:0:0:
460,192,84716,1,0,0:0:0:0:
36,192,84737,1,0,0:0:0:0:
329,192,84737,1,0,0:0:0:0:
109,192,84758,1,0,0:0:0:0:
460,192,84800,1,0,0:0:0:0:
256,192,84800,1,0,0:0:0:0:
329,192,84821,1,0,0:0:0:0:
256,192,84862,1,0,0:0:0:0:
51,192,84862,1,0,0:0:0:0:
182,192,84883,1,0,0:0:0:0:
256,192,84925,1,0,0:0:0:0:
460,192,84925,1,0,0:0:0:0:
402,192,84966,1,0,0:0:0:0:
256,192,84987,1,0,0:0:0:0:
153,192,85008,1,0,0:0:0:0:
51,192,85050,1,0,0:0:0:0:
153,192,85071,1,0,0:0:0:0:
256,192,85091,1,0,0:0:0:0:
358,192,85112,1,0,0:0:0:0:
51,192,85133,1,0,0:0:0:0:
475,192,85133,1,0,0:0:0:0:
182,192,85175,1,0,0:0:0:0:
256,192,85196,1,0,0:0:0:0:
329,192,85203,1,0,0:0:0:0:
256,192,85230,1,0,0:0:0:0:
182,192,85258,1,0,0:0:0:0:
475,192,85258,1,0,0:0:0:0:
256,192,85286,1,0,0:0:0:0:
329,192,85314,1,0,0:0:0:0:
475,192,85341,1,0,0:0:0:0:
402,192,85369,1,0,0:0:0:0:
256,192,85397,1,0,0:0:0:0:
51,192,85397,1,0,0:0:0:0:
182,192,85425,1,0,0:0:0:0:
256,192,85453,1,0,0:0:0:0:
475,192,85453,1,0,0:0:0:0:
402,192,85480,1,0,0:0:0:0:
51,192,85508,1,0,0:0:0:0:
256,192,85508,1,0,0:0:0:0:
109,192,85536,1,0,0:0:0:0:
256,192,85564,1,0,0:0:0:0:
460,192,85564,1,0,0:0:0:0:
358,192,85591,1,0,0:0:0:0:
51,192,85619,1,0,0:0:0:0:
256,192,85619,1,0,0:0:0:0:
109,192,85647,1,0,0:0:0:0:
256,192,85675,1,0,0:0:0:0:
460,192,85675,1,0,0:0:0:0:
402,192,85703,1,0,0:0:0:0:
51,192,85730,1,0,0:0:0:0:
256,192,85730,1,0,0:0:0:0:
182,192,85758,1,0,0:0:0:0:
256,192,85786,1,0,0:0:0:0:
460,192,85786,1,0,0:0:0:0:
402,192,85814,1,0,0:0:0:0:
51,192,85841,1,0,0:0:0:0:
256,192,85841,1,0,0:0:0:0:
109,192,85869,1,0,0:0:0:0:
460,192,85897,1,0,0:0:0:0:
256,192,85897,1,0,0:0:0:0:
329,192,85925,1,0,0:0:0:0:
51,192,85953,1,0,0:0:0:0:
256,192,85953,1,0,0:0:0:0:
109,192,85980,1,0,0:0:0:0:
256,192,86008,1,0,0:0:0:0:
475,192,86008,1,0,0:0:0:0:
402,192,86050,1,0,0:0:0:0:
256,192,86071,1,0,0:0:0:0:
51,192,86091,1,0,0:0:0:0:
153,192,86112,1,0,0:0:0:0:
256,192,86133,1,0,0:0:0:0:
402,192,86147,1,0,0:0:0:0:
460,192,86175,1,0,0:0:0:0:
358,192,86196,1,0,0:0:0:0:
256,192,86203,1,0,0:0:0:0:
109,192,86216,1,0,0:0:0:0:
36,192,86258,1,0,0:0:0:0:
475,192,86258,1,0,0:0:0:0:
402,192,86279,1,0,0:0:0:0:
256,192,86300,1,0,0:0:0:0:
256,192,86362,1,0,0:0:0:0:
182,192,86383,1,0,0:0:0:0:
51,192,86404,1,0,0:0:0:0:
402,192,86404,1,0,0:0:0:0:
460,192,86446,1,0,0:0:0:0:
153,192,86466,1,0,0:0:0:0:
358,192,86466,1,0,0:0:0:0:
256,192,86487,1,0,0:0:0:0:
358,192,86508,1,0,0:0:0:0:
475,192,86508,1,0,0:0:0:0:
460,192,86550,1,0,0:0:0:0:
329,192,86571,1,0,0:0:0:0:
256,192,86591,1,0,0:0:0:0:
51,192,86619,1,0,0:0:0:0:
109,192,86647,1,0,0:0:0:0:
256,192,86675,1,0,0:0:0:0:
460,192,86716,1,0,0:0:0:0:
109,192,86737,1,0,0:0:0:0:
402,192,86737,1,0,0:0:0:0:
51,192,86779,1,0,0:0:0:0:
256,192,86800,1,0,0:0:0:0:
475,192,86800,1,0,0:0:0:0:
51,192,86821,1,0,0:0:0:0:
109,192,86841,1,0,0:0:0:0:
402,192,86841,1,0,0:0:0:0:
256,192,86883,1,0,0:0:0:0:
36,192,86904,1,0,0:0:0:0:
109,192,86925,1,0,0:0:0:0:
402,192,86953,1,0,0:0:0:0:
256,192,86980,1,0,0:0:0:0:
475,192,87029,1,0,0:0:0:0:
256,192,87050,1,0,0:0:0:0:
402,192,87071,1,0,0:0:0:0:
182,192,87091,1,0,0:0:0:0:
329,192,87133,1,0,0:0:0:0:
109,192,87154,1,0,0:0:0:0:
256,192,87154,1,0,0:0:0:0:
36,192,87175,1,0,0:0:0:0:
329,192,87216,1,0,0:0:0:0:
109,192,87216,1,0,0:0:0:0:
402,192,87258,1,0,0:0:0:0:
182,192,87279,1,0,0:0:0:0:
475,192,87279,1,0,0:0:0:0:
256,192,87300,1,0,0:0:0:0:
402,192,87341,1,0,0:0:0:0:
182,192,87341,1,0,0:0:0:0:
329,192,87383,1,0,0:0:0:0:
460,192,87404,1,0,0:0:0:0:
36,192,87404,1,0,0:0:0:0:
256,192,87425,1,0,0:0:0:0:
182,192,87425,1,0,0:0:0:0:
475,192,87446,1,0,0:0:0:0:
402,192,87453,1,0,0:0:0:0:
51,192,87466,1,0,0:0:0:0:
153,192,87480,1,0,0:0:0:0:
256,192,87487,1,0,0:0:0:0:
358,192,87508,1,0,0:0:0:0:
36,192,87529,1,0,0:0:0:0:
153,192,87536,1,0,0:0:0:0:
256,192,87564,1,0,0:0:0:0:
460,192,87564,1,0,0:0:0:0:
358,192,87591,1,0,0:0:0:0:
51,192,87619,1,0,0:0:0:0:
256,192,87619,1,0,0:0:0:0:
402,192,87647,1,0,0:0:0:0:
182,192,87675,1,0,0:0:0:0:
475,192,87675,1,0,0:0:0:0:
256,192,87703,1,0,0:0:0:0:
36,192,87730,1,0,0:0:0:0:
329,192,87730,1,0,0:0:0:0:
109,192,87758,1,0,0:0:0:0:
256,192,87786,1,0,0:0:0:0:
475,192,87786,1,0,0:0:0:0:
402,192,87814,1,0,0:0:0:0:
51,192,87841,1,0,0:0:0:0:
256,192,87841,1,0,0:0:0:0:
182,192,87869,1,0,0:0:0:0:
256,192,87897,1,0,0:0:0:0:
329,192,87925,1,0,0:0:0:0:
256,192,87953,1,0,0:0:0:0:
153,192,87980,1,0,0:0:0:0:
36,192,88008,1,0,0:0:0:0:
182,192,88036,1,0,0:0:0:0:
329,192,88064,1,0,0:0:0:0:
475,192,88091,1,0,0:0:0:0:
109,192,88119,1,0,0:0:0:0:
256,192,88147,1,0,0:0:0:0:
402,192,88175,1,0,0:0:0:0:
36,192,88203,1,0,0:0:0:0:
182,192,88230,1,0,0:0:0:0:
329,192,88258,1,0,0:0:0:0:
475,192,88286,1,0,0:0:0:0:
109,192,88314,1,0,0:0:0:0:
256,192,88341,1,0,0:0:0:0:
402,192,88369,1,0,0:0:0:0:
36,192,88397,1,0,0:0:0:0:
182,192,88425,1,0,0:0:0:0:
329,192,88453,1,0,0:0:0:0:
475,192,88480,1,0,0:0:0:0:
109,192,88508,1,0,0:0:0:0:
256,192,88536,1,0,0:0:0:0:
402,192,88564,1,0,0:0:0:0:
36,192,88591,1,0,0:0:0:0:
182,192,88619,1,0,0:0:0:0:
460,192,88647,1,0,0:0:0:0:
358,192,88675,1,0,0:0:0:0:
256,192,88703,1,0,0:0:0:0:
36,192,88730,1,0,0:0:0:0:
182,192,88758,1,0,0:0:0:0:
329,192,88786,1,0,0:0:0:0:
475,192,88814,1,0,0:0:0:0:
109,192,88841,1,0,0:0:0:0:
256,192,88869,1,0,0:0:0:0:
402,192,88897,1,0,0:0:0:0:
182,192,88925,1,0,0:0:0:0:
329,192,88953,1,0,0:0:0:0:
475,192,88980,1,0,0:0:0:0:
36,192,89008,1,0,0:0:0:0:
182,192,89036,1,0,0:0:0:0:
460,192,89064,1,0,0:0:0:0:
402,192,89091,1,0,0:0:0:0:
256,192,89119,1,0,0:0:0:0:
51,192,89147,1,0,0:0:0:0:
182,192,89175,1,0,0:0:0:0:
329,192,89203,1,0,0:0:0:0:
475,192,89230,1,0,0:0:0:0:
36,192,89258,1,0,0:0:0:0:
182,192,89286,1,0,0:0:0:0:
329,192,89314,1,0,0:0:0:0:
256,192,89341,1,0,0:0:0:0:
36,192,89369,1,0,0:0:0:0:
358,192,89397,1,0,0:0:0:0:
182,192,89425,1,0,0:0:0:0:
460,192,89453,1,0,0:0:0:0:
256,192,89480,1,0,0:0:0:0:
51,192,89508,1,0,0:0:0:0:
358,192,89536,1,0,0:0:0:0:
153,192,89564,1,0,0:0:0:0:
460,192,89591,1,0,0:0:0:0:
256,192,89619,1,0,0:0:0:0:
51,192,89647,1,0,0:0:0:0:
109,192,89675,1,0,0:0:0:0:
36,192,89703,1,0,0:0:0:0:
256,192,89730,1,0,0:0:0:0:
182,192,89758,1,0,0:0:0:0:
402,192,89786,1,0,0:0:0:0:
256,192,89814,1,0,0:0:0:0:
460,192,89841,1,0,0:0:0:0:
358,192,89869,1,0,0:0:0:0:
460,192,89897,1,0,0:0:0:0:
358,192,89925,1,0,0:0:0:0:
256,192,89953,1,0,0:0:0:0:
402,192,89980,1,0,0:0:0:0:
256,192,90008,1,0,0:0:0:0:
109,192,90036,1,0,0:0:0:0:
256,192,90064,1,0,0:0:0:0:
153,192,90091,1,0,0:0:0:0:
51,192,90119,1,0,0:0:0:0:
153,192,90147,1,0,0:0:0:0:
256,192,90175,1,0,0:0:0:0:
182,192,90203,1,0,0:0:0:0:
256,192,90230,1,0,0:0:0:0:
402,192,90258,1,0,0:0:0:0:
475,192,90286,1,0,0:0:0:0:
36,192,90314,1,0,0:0:0:0:
182,192,90341,1,0,0:0:0:0:
256,192,90369,1,0,0:0:0:0:
329,192,90397,1,0,0:0:0:0:
475,192,90425,1,0,0:0:0:0:
36,192,90453,1,0,0:0:0:0:
109,192,90480,1,0,0:0:0:0:
256,192,90508,1,0,0:0:0:0:
329,192,90536,1,0,0:0:0:0:
460,192,90564,1,0,0:0:0:0:
36,192,90591,1,0,0:0:0:0:
109,192,90619,1,0,0:0:0:0:
256,192,90647,1,0,0:0:0:0:
329,192,90675,1,0,0:0:0:0:
256,192,90703,1,0,0:0:0:0:
182,192,90730,1,0,0:0:0:0:
475,192,90758,1,0,0:0:0:0:
402,192,90786,1,0,0:0:0:0:
256,192,90814,1,0,0:0:0:0:
358,192,90841,1,0,0:0:0:0:
256,192,90869,1,0,0:0:0:0:
153,192,90897,1,0,0:0:0:0:
256,192,90925,1,0,0:0:0:0:
153,192,90953,1,0,0:0:0:0:
51,192,90980,1,0,0:0:0:0:
109,192,91008,1,0,0:0:0:0:
256,192,91036,1,0,0:0:0:0:
153,192,91064,1,0,0:0:0:0:
256,192,91091,1,0,0:0:0:0:
402,192,91119,1,0,0:0:0:0:
256,192,91147,1,0,0:0:0:0:
358,192,91175,1,0,0:0:0:0:
460,192,91203,1,0,0:0:0:0:
358,192,91230,1,0,0:0:0:0:
256,192,91258,1,0,0:0:0:0:
402,192,91286,1,0,0:0:0:0:
256,192,91314,1,0,0:0:0:0:
153,192,91341,1,0,0:0:0:0:
256,192,91369,1,0,0:0:0:0:
109,192,91397,1,0,0:0:0:0:
51,192,91425,1,0,0:0:0:0:
182,192,91453,1,0,0:0:0:0:
402,192,91480,1,0,0:0:0:0:
256,192,91508,1,0,0:0:0:0:
475,192,91536,1,0,0:0:0:0:
329,192,91564,1,0,0:0:0:0:
36,192,91591,1,0,0:0:0:0:
153,192,91619,1,0,0:0:0:0:
358,192,91647,1,0,0:0:0:0:
475,192,91675,1,0,0:0:0:0:
182,192,91703,1,0,0:0:0:0:
36,192,91730,1,0,0:0:0:0:
256,192,91758,1,0,0:0:0:0:
109,192,91786,1,0,0:0:0:0:
329,192,91814,1,0,0:0:0:0:
256,192,91841,1,0,0:0:0:0:
460,192,91869,1,0,0:0:0:0:
358,192,91897,1,0,0:0:0:0:
153,192,91925,1,0,0:0:0:0:
256,192,91953,1,0,0:0:0:0:
402,192,91980,1,0,0:0:0:0:
475,192,92008,1,0,0:0:0:0:
256,192,92036,1,0,0:0:0:0:
109,192,92064,1,0,0:0:0:0:
460,192,92091,1,0,0:0:0:0:
358,192,92091,1,0,0:0:0:0:
36,192,92147,1,0,0:0:0:0:
329,192,92175,1,0,0:0:0:0:
109,192,92203,1,0,0:0:0:0:
475,192,92230,1,0,0:0:0:0:
256,192,92258,1,0,0:0:0:0:
36,192,92286,1,0,0:0:0:0:
402,192,92314,1,0,0:0:0:0:
182,192,92341,1,0,0:0:0:0:
475,192,92369,1,0,0:0:0:0:
329,192,92397,1,0,0:0:0:0:
109,192,92425,1,0,0:0:0:0:
402,192,92453,1,0,0:0:0:0:
256,192,92480,1,0,0:0:0:0:
182,192,92508,1,0,0:0:0:0:
329,192,92536,1,0,0:0:0:0:
475,192,92564,1,0,0:0:0:0:
109,192,92591,1,0,0:0:0:0:
256,192,92619,1,0,0:0:0:0:
402,192,92647,1,0,0:0:0:0:
36,192,92675,1,0,0:0:0:0:
182,192,92703,1,0,0:0:0:0:
329,192,92730,1,0,0:0:0:0:
256,192,92758,1,0,0:0:0:0:
402,192,92786,1,0,0:0:0:0:
109,192,92814,1,0,0:0:0:0:
475,192,92841,1,0,0:0:0:0:
329,192,92869,1,0,0:0:0:0:
182,192,92897,1,0,0:0:0:0:
402,192,92925,1,0,0:0:0:0:
256,192,92953,1,0,0:0:0:0:
109,192,92980,1,0,0:0:0:0:
256,192,93008,1,0,0:0:0:0:
460,192,93029,1,0,0:0:0:0:
329,192,93050,1,0,0:0:0:0:
256,192,93064,1,0,0:0:0:0:
182,192,93071,1,0,0:0:0:0:
51,192,93091,1,0,0:0:0:0:
153,192,93112,1,0,0:0:0:0:
460,192,93119,1,0,0:0:0:0:
256,192,93133,1,0,0:0:0:0:
329,192,93147,1,0,0:0:0:0:
460,192,93154,1,0,0:0:0:0:
256,192,93175,1,0,0:0:0:0:
109,192,93196,1,0,0:0:0:0:
36,192,93203,1,0,0:0:0:0:
256,192,93230,1,0,0:0:0:0:
475,192,93230,1,0,0:0:0:0:
329,192,93258,1,0,0:0:0:0:
51,192,93286,1,0,0:0:0:0:
256,192,93286,1,0,0:0:0:0:
109,192,93314,1,0,0:0:0:0:
256,192,93341,1,0,0:0:0:0:
475,192,93341,1,0,0:0:0:0:
402,192,93369,1,0,0:0:0:0:
256,192,93397,1,0,0:0:0:0:
51,192,93425,1,0,0:0:0:0:
182,192,93453,1,0,0:0:0:0:
256,192,93480,1,0,0:0:0:0:
36,192,93508,1,0,0:0:0:0:
109,192,93536,1,0,0:0:0:0:
256,192,93564,1,0,0:0:0:0:
460,192,93591,1,0,0:0:0:0:
402,192,93619,1,0,0:0:0:0:
256,192,93647,1,0,0:0:0:0:
51,192,93675,1,0,0:0:0:0:
182,192,93703,1,0,0:0:0:0:
256,192,93730,1,0,0:0:0:0:
460,192,93758,1,0,0:0:0:0:
402,192,93786,1,0,0:0:0:0:
256,192,93814,1,0,0:0:0:0:
36,192,93841,1,0,0:0:0:0:
109,192,93869,1,0,0:0:0:0:
256,192,93897,1,0,0:0:0:0:
460,192,93925,1,0,0:0:0:0:
329,192,93953,1,0,0:0:0:0:
256,192,93980,1,0,0:0:0:0:
51,192,94008,1,0,0:0:0:0:
182,192,94036,1,0,0:0:0:0:
256,192,94064,1,0,0:0:0:0:
460,192,94091,1,0,0:0:0:0:
402,192,94119,1,0,0:0:0:0:
256,192,94147,1,0,0:0:0:0:
36,192,94175,1,0,0:0:0:0:
329,192,94203,1,0,0:0:0:0:
109,192,94230,1,0,0:0:0:0:
402,192,94258,1,0,0:0:0:0:
182,192,94286,1,0,0:0:0:0:
475,192,94314,1,0,0:0:0:0:
256,192,94341,1,0,0:0:0:0:
36,192,94369,1,0,0:0:0:0:
329,192,94397,1,0,0:0:0:0:
109,192,94425,1,0,0:0:0:0:
402,192,94453,1,0,0:0:0:0:
182,192,94480,1,0,0:0:0:0:
475,192,94508,1,0,0:0:0:0:
256,192,94536,1,0,0:0:0:0:
36,192,94564,1,0,0:0:0:0:
329,192,94591,1,0,0:0:0:0:
109,192,94619,1,0,0:0:0:0:
402,192,94647,1,0,0:0:0:0:
256,192,94675,1,0,0:0:0:0:
475,192,94703,1,0,0:0:0:0:
329,192,94730,1,0,0:0:0:0:
36,192,94758,1,0,0:0:0:0:
402,192,94786,1,0,0:0:0:0:
109,192,94814,1,0,0:0:0:0:
475,192,94841,1,0,0:0:0:0:
182,192,94869,1,0,0:0:0:0:
36,192,94897,1,0,0:0:0:0:
256,192,94925,1,0,0:0:0:0:
109,192,94953,1,0,0:0:0:0:
329,192,94980,1,0,0:0:0:0:
182,192,95008,1,0,0:0:0:0:
402,192,95036,1,0,0:0:0:0:
256,192,95064,1,0,0:0:0:0:
475,192,95091,1,0,0:0:0:0:
329,192,95119,1,0,0:0:0:0:
36,192,95147,1,0,0:0:0:0:
402,192,95175,1,0,0:0:0:0:
109,192,95203,1,0,0:0:0:0:
475,192,95230,1,0,0:0:0:0:
182,192,95258,1,0,0:0:0:0:
36,192,95286,1,0,0:0:0:0:
256,192,95314,1,0,0:0:0:0:
475,192,95341,1,0,0:0:0:0:
402,192,95369,1,0,0:0:0:0:
256,192,95397,1,0,0:0:0:0:
153,192,95425,1,0,0:0:0:0:
51,192,95453,1,0,0:0:0:0:
109,192,95480,1,0,0:0:0:0:
256,192,95508,1,0,0:0:0:0:
358,192,95536,1,0,0:0:0:0:
460,192,95564,1,0,0:0:0:0:
358,192,95591,1,0,0:0:0:0:
256,192,95619,1,0,0:0:0:0:
153,192,95647,1,0,0:0:0:0:
51,192,95675,1,0,0:0:0:0:
153,192,95703,1,0,0:0:0:0:
256,192,95730,1,0,0:0:0:0:
358,192,95758,1,0,0:0:0:0:
460,192,95786,1,0,0:0:0:0:
358,192,95814,1,0,0:0:0:0:
256,192,95841,1,0,0:0:0:0:
109,192,95869,1,0,0:0:0:0:
51,192,95897,1,0,0:0:0:0:
153,192,95925,1,0,0:0:0:0:
256,192,95953,1,0,0:0:0:0:
402,192,95980,1,0,0:0:0:0:
460,192,96008,1,0,0:0:0:0:
51,192,96091,1,0,0:0:0:0:
182,192,96175,1,0,0:0:0:0:
256,192,96258,1,0,0:0:0:0:
358,192,96341,1,0,0:0:0:0:
256,192,96425,1,0,0:0:0:0:
329,192,96508,1,0,0:0:0:0:
402,192,96591,1,0,0:0:0:0:
36,192,96675,1,0,0:0:0:0:
182,192,96758,1,0,0:0:0:0:
329,192,96841,1,0,0:0:0:0:
475,192,96925,1,0,0:0:0:0:
109,192,97008,1,0,0:0:0:0:
256,192,97091,1,0,0:0:0:0:
329,192,97175,1,0,0:0:0:0:
256,192,97258,1,0,0:0:0:0:
153,192,97341,1,0,0:0:0:0:
475,192,97341,1,0,0:0:0:0:
36,192,97425,1,0,0:0:0:0:
256,192,97425,1,0,0:0:0:0:
109,192,97508,1,0,0:0:0:0:
329,192,97508,1,0,0:0:0:0:
256,192,97591,1,0,0:0:0:0:
460,192,97591,1,0,0:0:0:0:
256,192,97675,1,0,0:0:0:0:
475,192,97675,1,0,0:0:0:0:
36,192,97758,1,0,0:0:0:0:
182,192,97758,1,0,0:0:0:0:
109,192,97841,1,0,0:0:0:0:
256,192,97841,1,0,0:0:0:0:
182,192,97925,1,0,0:0:0:0:
329,192,97925,1,0,0:0:0:0:
256,192,98008,1,0,0:0:0:0:
402,192,98008,1,0,0:0:0:0:
109,192,98091,1,0,0:0:0:0:
329,192,98091,1,0,0:0:0:0:
182,192,98175,1,0,0:0:0:0:
402,192,98175,1,0,0:0:0:0:
256,192,98258,1,0,0:0:0:0:
475,192,98258,1,0,0:0:0:0:
36,192,98341,1,0,0:0:0:0:
182,192,98341,1,0,0:0:0:0:
109,192,98425,1,0,0:0:0:0:
256,192,98425,1,0,0:0:0:0:
182,192,98508,1,0,0:0:0:0:
329,192,98508,1,0,0:0:0:0:
256,192,98591,1,0,0:0:0:0:
402,192,98591,1,0,0:0:0:0:
256,192,98675,1,0,0:0:0:0:
402,192,98703,1,0,0:0:0:0:
475,192,98730,1,0,0:0:0:0:
36,192,98758,1,0,0:0:0:0:
109,192,98786,1,0,0:0:0:0:
256,192,98814,1,0,0:0:0:0:
460,192,98841,1,0,0:0:0:0:
358,192,98869,1,0,0:0:0:0:
256,192,98897,1,0,0:0:0:0:
51,192,98925,1,0,0:0:0:0:
182,192,98953,1,0,0:0:0:0:
256,192,98980,1,0,0:0:0:0:
460,192,99008,1,0,0:0:0:0:
358,192,99036,1,0,0:0:0:0:
256,192,99064,1,0,0:0:0:0:
51,192,99091,1,0,0:0:0:0:
153,192,99119,1,0,0:0:0:0:
256,192,99147,1,0,0:0:0:0:
460,192,99175,1,0,0:0:0:0:
329,192,99203,1,0,0:0:0:0:
256,192,99230,1,0,0:0:0:0:
51,192,99258,1,0,0:0:0:0:
109,192,99286,1,0,0:0:0:0:
256,192,99314,1,0,0:0:0:0:
460,192,99341,1,0,0:0:0:0:
329,192,99369,1,0,0:0:0:0:
256,192,99397,1,0,0:0:0:0:
182,192,99425,1,0,0:0:0:0:
50,192,99453,1,0,0:0:0:0:
475,192,99480,1,0,0:0:0:0:
402,192,99508,1,0,0:0:0:0:
256,192,99536,1,0,0:0:0:0:
153,192,99564,1,0,0:0:0:0:
51,192,99591,1,0,0:0:0:0:
109,192,99619,1,0,0:0:0:0:
256,192,99647,1,0,0:0:0:0:
329,192,99675,1,0,0:0:0:0:
460,192,99703,1,0,0:0:0:0:
358,192,99730,1,0,0:0:0:0:
256,192,99758,1,0,0:0:0:0:
109,192,99786,1,0,0:0:0:0:
36,192,99814,1,0,0:0:0:0:
460,192,99841,1,0,0:0:0:0:
329,192,99869,1,0,0:0:0:0:
256,192,99897,1,0,0:0:0:0:
109,192,99925,1,0,0:0:0:0:
51,192,99953,1,0,0:0:0:0:
153,192,99980,1,0,0:0:0:0:
256,192,100008,1,0,0:0:0:0:
402,192,100036,1,0,0:0:0:0:
475,192,100064,1,0,0:0:0:0:
358,192,100091,1,0,0:0:0:0:
256,192,100119,1,0,0:0:0:0:
109,192,100147,1,0,0:0:0:0:
36,192,100175,1,0,0:0:0:0:
109,192,100203,1,0,0:0:0:0:
256,192,100230,1,0,0:0:0:0:
358,192,100258,1,0,0:0:0:0:
460,192,100286,1,0,0:0:0:0:
51,192,100314,1,0,0:0:0:0:
153,192,100341,1,0,0:0:0:0:
256,192,100369,1,0,0:0:0:0:
358,192,100397,1,0,0:0:0:0:
460,192,100425,1,0,0:0:0:0:
402,192,100453,1,0,0:0:0:0:
256,192,100480,1,0,0:0:0:0:
109,192,100508,1,0,0:0:0:0:
51,192,100536,1,0,0:0:0:0:
153,192,100564,1,0,0:0:0:0:
256,192,100591,1,0,0:0:0:0:
402,192,100619,1,0,0:0:0:0:
475,192,100647,1,0,0:0:0:0:
109,192,100675,1,0,0:0:0:0:
256,192,100703,1,0,0:0:0:0:
402,192,100730,1,0,0:0:0:0:
36,192,100758,1,0,0:0:0:0:
182,192,100786,1,0,0:0:0:0:
329,192,100814,1,0,0:0:0:0:
109,192,100841,1,0,0:0:0:0:
256,192,100869,1,0,0:0:0:0:
402,192,100897,1,0,0:0:0:0:
182,192,100925,1,0,0:0:0:0:
329,192,100953,1,0,0:0:0:0:
475,192,100980,1,0,0:0:0:0:
402,192,101008,1,0,0:0:0:0:
256,192,101036,1,0,0:0:0:0:
109,192,101064,1,0,0:0:0:0:
329,192,101091,1,0,0:0:0:0:
182,192,101119,1,0,0:0:0:0:
36,192,101147,1,0,0:0:0:0:
402,192,101175,1,0,0:0:0:0:
256,192,101203,1,0,0:0:0:0:
109,192,101230,1,0,0:0:0:0:
475,192,101258,1,0,0:0:0:0:
329,192,101286,1,0,0:0:0:0:
51,192,101314,1,0,0:0:0:0:
153,192,101341,1,0,0:0:0:0:
256,192,101369,1,0,0:0:0:0:
402,192,101397,1,0,0:0:0:0:
475,192,101404,1,0,0:0:0:0:
256,192,101425,1,0,0:0:0:0:
109,192,101453,1,0,0:0:0:0:
51,192,101480,1,0,0:0:0:0:
329,192,101487,1,0,0:0:0:0:
256,192,101508,1,0,0:0:0:0:
475,192,101536,1,0,0:0:0:0:
36,192,101564,1,0,0:0:0:0:
109,192,101571,1,0,0:0:0:0:
358,192,101591,1,0,0:0:0:0:
256,192,101619,1,0,0:0:0:0:
460,192,101647,1,0,0:0:0:0:
358,192,101654,1,0,0:0:0:0:
256,192,101675,1,0,0:0:0:0:
51,192,101703,1,0,0:0:0:0:
182,192,101730,1,0,0:0:0:0:
256,192,101737,1,0,0:0:0:0:
329,192,101758,1,0,0:0:0:0:
460,192,101786,1,0,0:0:0:0:
36,192,101814,1,0,0:0:0:0:
109,192,101821,1,0,0:0:0:0:
256,192,101841,1,0,0:0:0:0:
460,192,101869,1,0,0:0:0:0:
329,192,101897,1,0,0:0:0:0:
256,192,101904,1,0,0:0:0:0:
153,192,101925,1,0,0:0:0:0:
36,192,101953,1,0,0:0:0:0:
109,192,101980,1,0,0:0:0:0:
256,192,101987,1,0,0:0:0:0:
358,192,102008,1,0,0:0:0:0:
460,192,102036,1,0,0:0:0:0:
402,192,102064,1,0,0:0:0:0:
460,192,102091,1,0,0:0:0:0:
256,192,102119,1,0,0:0:0:0:
182,192,102147,1,0,0:0:0:0:
51,192,102175,1,0,0:0:0:0:
256,192,102203,1,0,0:0:0:0:
475,192,102230,1,0,0:0:0:0:
402,192,102258,1,0,0:0:0:0:
256,192,102286,1,0,0:0:0:0:
51,192,102314,1,0,0:0:0:0:
109,192,102341,1,0,0:0:0:0:
256,192,102369,1,0,0:0:0:0:
358,192,102397,1,0,0:0:0:0:
36,192,102425,1,0,0:0:0:0:
109,192,102453,1,0,0:0:0:0:
256,192,102480,1,0,0:0:0:0:
153,192,102508,1,0,0:0:0:0:
256,192,102536,1,0,0:0:0:0:
402,192,102564,1,0,0:0:0:0:
475,192,102591,1,0,0:0:0:0:
36,192,102619,1,0,0:0:0:0:
182,192,102647,1,0,0:0:0:0:
256,192,102675,1,0,0:0:0:0:
329,192,102703,1,0,0:0:0:0:
256,192,102730,1,0,0:0:0:0:
182,192,102737,1,0,0:0:0:0:
51,192,102758,1,0,0:0:0:0:
475,192,102786,1,0,0:0:0:0:
402,192,102800,1,0,0:0:0:0:
256,192,102814,1,0,0:0:0:0:
51,192,102841,1,0,0:0:0:0:
182,192,102862,1,0,0:0:0:0:
256,192,102869,1,0,0:0:0:0:
358,192,102897,1,0,0:0:0:0:
475,192,102904,1,0,0:0:0:0:
256,192,102925,1,0,0:0:0:0:
329,192,102953,1,0,0:0:0:0:
182,192,102980,1,0,0:0:0:0:
36,192,103008,1,0,0:0:0:0:
109,192,103036,1,0,0:0:0:0:
256,192,103064,1,0,0:0:0:0:
358,192,103071,1,0,0:0:0:0:
475,192,103091,1,0,0:0:0:0:
256,192,103119,1,0,0:0:0:0:
329,192,103133,1,0,0:0:0:0:
460,192,103147,1,0,0:0:0:0:
256,192,103175,1,0,0:0:0:0:
109,192,103196,1,0,0:0:0:0:
36,192,103203,1,0,0:0:0:0:
402,192,103216,1,0,0:0:0:0:
460,192,103230,1,0,0:0:0:0:
256,192,103258,1,0,0:0:0:0:
51,192,103286,1,0,0:0:0:0:
109,192,103300,1,0,0:0:0:0:
475,192,103314,1,0,0:0:0:0:
256,192,103341,1,0,0:0:0:0:
460,192,103362,1,0,0:0:0:0:
358,192,103369,1,0,0:0:0:0:
256,192,103397,1,0,0:0:0:0:
109,192,103404,1,0,0:0:0:0:
36,192,103425,1,0,0:0:0:0:
475,192,103453,1,0,0:0:0:0:
402,192,103466,1,0,0:0:0:0:
256,192,103480,1,0,0:0:0:0:
51,192,103508,1,0,0:0:0:0:
153,192,103529,1,0,0:0:0:0:
256,192,103536,1,0,0:0:0:0:
475,192,103564,1,0,0:0:0:0:
402,192,103571,1,0,0:0:0:0:
256,192,103591,1,0,0:0:0:0:
51,192,103619,1,0,0:0:0:0:
153,192,103633,1,0,0:0:0:0:
256,192,103647,1,0,0:0:0:0:
460,192,103675,1,0,0:0:0:0:
402,192,103696,1,0,0:0:0:0:
256,192,103703,1,0,0:0:0:0:
51,192,103730,1,0,0:0:0:0:
153,192,103737,1,0,0:0:0:0:
256,192,103758,1,0,0:0:0:0:
475,192,103786,1,0,0:0:0:0:
402,192,103800,1,0,0:0:0:0:
256,192,103814,1,0,0:0:0:0:
50,192,103841,1,0,0:0:0:0:
152,192,103862,1,0,0:0:0:0:
255,192,103869,1,0,0:0:0:0:
460,192,103897,1,0,0:0:0:0:
357,192,103904,1,0,0:0:0:0:
255,192,103925,1,0,0:0:0:0:
51,192,103953,1,0,0:0:0:0:
182,192,103980,1,0,0:0:0:0:
256,192,104008,1,0,0:0:0:0:
51,192,104036,1,0,0:0:0:0:
182,192,104064,1,0,0:0:0:0:
256,192,104091,1,0,0:0:0:0:
329,192,104119,1,0,0:0:0:0:
460,192,104147,1,0,0:0:0:0:
36,192,104175,1,0,0:0:0:0:
109,192,104203,1,0,0:0:0:0:
256,192,104230,1,0,0:0:0:0:
329,192,104258,1,0,0:0:0:0:
460,192,104286,1,0,0:0:0:0:
51,192,104314,1,0,0:0:0:0:
109,192,104341,1,0,0:0:0:0:
256,192,104369,1,0,0:0:0:0:
402,192,104397,1,0,0:0:0:0:
460,192,104425,1,0,0:0:0:0:
51,192,104453,1,0,0:0:0:0:
358,192,104480,1,0,0:0:0:0:
109,192,104508,1,0,0:0:0:0:
256,192,104536,1,0,0:0:0:0:
402,192,104564,1,0,0:0:0:0:
182,192,104591,1,0,0:0:0:0:
329,192,104619,1,0,0:0:0:0:
475,192,104647,1,0,0:0:0:0:
36,192,104675,1,0,0:0:0:0:
182,192,104703,1,0,0:0:0:0:
329,192,104730,1,0,0:0:0:0:
109,192,104758,1,0,0:0:0:0:
256,192,104786,1,0,0:0:0:0:
402,192,104814,1,0,0:0:0:0:
182,192,104841,1,0,0:0:0:0:
329,192,104869,1,0,0:0:0:0:
475,192,104897,1,0,0:0:0:0:
36,192,104925,1,0,0:0:0:0:
182,192,104953,1,0,0:0:0:0:
329,192,104980,1,0,0:0:0:0:
109,192,105008,1,0,0:0:0:0:
256,192,105036,1,0,0:0:0:0:
402,192,105064,1,0,0:0:0:0:
182,192,105091,1,0,0:0:0:0:
329,192,105119,1,0,0:0:0:0:
475,192,105147,1,0,0:0:0:0:
402,192,105175,1,0,0:0:0:0:
256,192,105203,1,0,0:0:0:0:
109,192,105230,1,0,0:0:0:0:
475,192,105258,1,0,0:0:0:0:
329,192,105286,1,0,0:0:0:0:
182,192,105314,1,0,0:0:0:0:
36,192,105341,1,0,0:0:0:0:
402,192,105369,1,0,0:0:0:0:
256,192,105397,1,0,0:0:0:0:
109,192,105425,1,0,0:0:0:0:
475,192,105453,1,0,0:0:0:0:
329,192,105480,1,0,0:0:0:0:
182,192,105508,1,0,0:0:0:0:
36,192,105536,1,0,0:0:0:0:
402,192,105564,1,0,0:0:0:0:
256,192,105591,1,0,0:0:0:0:
109,192,105619,1,0,0:0:0:0:
329,192,105647,1,0,0:0:0:0:
51,192,105675,1,0,0:0:0:0:
475,192,105703,1,0,0:0:0:0:
256,192,105730,1,0,0:0:0:0:
36,192,105758,1,0,0:0:0:0:
109,192,105786,1,0,0:0:0:0:
256,192,105814,1,0,0:0:0:0:
475,192,105841,1,0,0:0:0:0:
256,192,105869,1,0,0:0:0:0:
402,192,105897,1,0,0:0:0:0:
182,192,105925,1,0,0:0:0:0:
329,192,105953,1,0,0:0:0:0:
109,192,105980,1,0,0:0:0:0:
256,192,106008,1,0,0:0:0:0:
36,192,106036,1,0,0:0:0:0:
182,192,106064,1,0,0:0:0:0:
475,192,106071,1,0,0:0:0:0:
256,192,106091,1,0,0:0:0:0:
51,192,106119,1,0,0:0:0:0:
256,192,106147,1,0,0:0:0:0:
329,192,106154,1,0,0:0:0:0:
475,192,106175,1,0,0:0:0:0:
256,192,106203,1,0,0:0:0:0:
51,192,106230,1,0,0:0:0:0:
182,192,106237,1,0,0:0:0:0:
256,192,106258,1,0,0:0:0:0:
358,192,106286,1,0,0:0:0:0:
460,192,106314,1,0,0:0:0:0:
357,192,106321,1,0,0:0:0:0:
255,192,106341,1,0,0:0:0:0:
51,192,106369,1,0,0:0:0:0:
109,192,106397,1,0,0:0:0:0:
256,192,106404,1,0,0:0:0:0:
358,192,106425,1,0,0:0:0:0:
460,192,106453,1,0,0:0:0:0:
153,192,106480,1,0,0:0:0:0:
256,192,106487,1,0,0:0:0:0:
329,192,106508,1,0,0:0:0:0:
153,192,106536,1,0,0:0:0:0:
256,192,106564,1,0,0:0:0:0:
36,192,106571,1,0,0:0:0:0:
109,192,106591,1,0,0:0:0:0:
256,192,106619,1,0,0:0:0:0:
460,192,106647,1,0,0:0:0:0:
329,192,106654,1,0,0:0:0:0:
51,192,106675,1,0,0:0:0:0:
153,192,106696,1,0,0:0:0:0:
256,192,106703,1,0,0:0:0:0:
460,192,106730,1,0,0:0:0:0:
358,192,106737,1,0,0:0:0:0:
256,192,106758,1,0,0:0:0:0:
51,192,106786,1,0,0:0:0:0:
153,192,106800,1,0,0:0:0:0:
256,192,106814,1,0,0:0:0:0:
475,192,106841,1,0,0:0:0:0:
402,192,106862,1,0,0:0:0:0:
256,192,106869,1,0,0:0:0:0:
51,192,106897,1,0,0:0:0:0:
153,192,106904,1,0,0:0:0:0:
256,192,106925,1,0,0:0:0:0:
460,192,106953,1,0,0:0:0:0:
358,192,106966,1,0,0:0:0:0:
256,192,106980,1,0,0:0:0:0:
51,192,107008,1,0,0:0:0:0:
153,192,107029,1,0,0:0:0:0:
256,192,107036,1,0,0:0:0:0:
460,192,107064,1,0,0:0:0:0:
358,192,107071,1,0,0:0:0:0:
256,192,107091,1,0,0:0:0:0:
51,192,107119,1,0,0:0:0:0:
109,192,107133,1,0,0:0:0:0:
256,192,107147,1,0,0:0:0:0:
475,192,107175,1,0,0:0:0:0:
402,192,107196,1,0,0:0:0:0:
256,192,107203,1,0,0:0:0:0:
51,192,107230,1,0,0:0:0:0:
153,192,107237,1,0,0:0:0:0:
256,192,107258,1,0,0:0:0:0:
460,192,107286,1,0,0:0:0:0:
358,192,107300,1,0,0:0:0:0:
256,192,107314,1,0,0:0:0:0:
475,192,107341,1,0,0:0:0:0:
51,192,107369,1,0,0:0:0:0:
329,192,107397,1,0,0:0:0:0:
256,192,107404,1,0,0:0:0:0:
182,192,107425,1,0,0:0:0:0:
460,192,107453,1,0,0:0:0:0:
36,192,107480,1,0,0:0:0:0:
358,192,107487,1,0,0:0:0:0:
256,192,107508,1,0,0:0:0:0:
182,192,107536,1,0,0:0:0:0:
36,192,107564,1,0,0:0:0:0:
475,192,107571,1,0,0:0:0:0:
256,192,107591,1,0,0:0:0:0:
329,192,107619,1,0,0:0:0:0:
256,192,107647,1,0,0:0:0:0:
182,192,107654,1,0,0:0:0:0:
460,192,107675,1,0,0:0:0:0:
36,192,107703,1,0,0:0:0:0:
475,192,107730,1,0,0:0:0:0:
329,192,107737,1,0,0:0:0:0:
182,192,107758,1,0,0:0:0:0:
36,192,107786,1,0,0:0:0:0:
475,192,107814,1,0,0:0:0:0:
402,192,107821,1,0,0:0:0:0:
256,192,107841,1,0,0:0:0:0:
51,192,107869,1,0,0:0:0:0:
153,192,107897,1,0,0:0:0:0:
256,192,107904,1,0,0:0:0:0:
358,192,107925,1,0,0:0:0:0:
475,192,107953,1,0,0:0:0:0:
329,192,107980,1,0,0:0:0:0:
182,192,107987,1,0,0:0:0:0:
36,192,108008,1,0,0:0:0:0:
475,192,108029,1,0,0:0:0:0:
153,192,108036,1,0,0:0:0:0:
329,192,108050,1,0,0:0:0:0:
256,192,108064,1,0,0:0:0:0:
358,192,108091,1,0,0:0:0:0:
109,192,108112,1,0,0:0:0:0:
36,192,108119,1,0,0:0:0:0:
256,192,108133,1,0,0:0:0:0:
475,192,108147,1,0,0:0:0:0:
36,192,108175,1,0,0:0:0:0:
402,192,108196,1,0,0:0:0:0:
109,192,108203,1,0,0:0:0:0:
460,192,108216,1,0,0:0:0:0:
256,192,108230,1,0,0:0:0:0:
51,192,108258,1,0,0:0:0:0:
475,192,108279,1,0,0:0:0:0:
182,192,108286,1,0,0:0:0:0:
402,192,108300,1,0,0:0:0:0:
256,192,108314,1,0,0:0:0:0:
329,192,108341,1,0,0:0:0:0:
36,192,108362,1,0,0:0:0:0:
256,192,108369,1,0,0:0:0:0:
475,192,108383,1,0,0:0:0:0:
182,192,108397,1,0,0:0:0:0:
256,192,108425,1,0,0:0:0:0:
109,192,108446,1,0,0:0:0:0:
329,192,108453,1,0,0:0:0:0:
36,192,108466,1,0,0:0:0:0:
256,192,108480,1,0,0:0:0:0:
475,192,108508,1,0,0:0:0:0:
182,192,108529,1,0,0:0:0:0:
51,192,108536,1,0,0:0:0:0:
256,192,108550,1,0,0:0:0:0:
329,192,108564,1,0,0:0:0:0:
36,192,108591,1,0,0:0:0:0:
256,192,108612,1,0,0:0:0:0:
475,192,108619,1,0,0:0:0:0:
182,192,108633,1,0,0:0:0:0:
402,192,108647,1,0,0:0:0:0:
256,192,108675,1,0,0:0:0:0:
153,192,108696,1,0,0:0:0:0:
36,192,108703,1,0,0:0:0:0:
460,192,108716,1,0,0:0:0:0:
402,192,108730,1,0,0:0:0:0:
256,192,108737,1,0,0:0:0:0:
153,192,108758,1,0,0:0:0:0:
256,192,108779,1,0,0:0:0:0:
402,192,108786,1,0,0:0:0:0:
36,192,108800,1,0,0:0:0:0:
153,192,108814,1,0,0:0:0:0:
256,192,108821,1,0,0:0:0:0:
358,192,108841,1,0,0:0:0:0:
153,192,108862,1,0,0:0:0:0:
51,192,108869,1,0,0:0:0:0:
460,192,108883,1,0,0:0:0:0:
256,192,108897,1,0,0:0:0:0:
358,192,108904,1,0,0:0:0:0:
36,192,108925,1,0,0:0:0:0:
182,192,108946,1,0,0:0:0:0:
475,192,108953,1,0,0:0:0:0:
256,192,108966,1,0,0:0:0:0:
402,192,108980,1,0,0:0:0:0:
36,192,108987,1,0,0:0:0:0:
153,192,109008,1,0,0:0:0:0:
256,192,109029,1,0,0:0:0:0:
358,192,109036,1,0,0:0:0:0:
36,192,109050,1,0,0:0:0:0:
460,192,109064,1,0,0:0:0:0:
182,192,109071,1,0,0:0:0:0:
256,192,109091,1,0,0:0:0:0:
329,192,109112,1,0,0:0:0:0:
460,192,109119,1,0,0:0:0:0:
50,192,109133,1,0,0:0:0:0:
182,192,109147,1,0,0:0:0:0:
256,192,109154,1,0,0:0:0:0:
329,192,109175,1,0,0:0:0:0:
256,192,109196,1,0,0:0:0:0:
153,192,109203,1,0,0:0:0:0:
36,192,109216,1,0,0:0:0:0:
109,192,109230,1,0,0:0:0:0:
257,192,109237,1,0,0:0:0:0:
359,192,109258,1,0,0:0:0:0:
460,192,109279,1,0,0:0:0:0:
51,192,109286,1,0,0:0:0:0:
109,192,109300,1,0,0:0:0:0:
256,192,109314,1,0,0:0:0:0:
358,192,109321,1,0,0:0:0:0:
109,192,109508,1,0,0:0:0:0:
402,192,109508,1,0,0:0:0:0:
51,192,109675,1,0,0:0:0:0:
475,192,109675,1,0,0:0:0:0:
329,192,109703,1,0,0:0:0:0:
256,192,109716,1,0,0:0:0:0:
182,192,109730,1,0,0:0:0:0:
36,192,109758,1,0,0:0:0:0:
256,192,109758,1,0,0:0:0:0:
475,192,109786,1,0,0:0:0:0:
402,192,109800,1,0,0:0:0:0:
256,192,109814,1,0,0:0:0:0:
358,192,109841,1,0,0:0:0:0:
182,192,109841,1,0,0:0:0:0:
36,192,109869,1,0,0:0:0:0:
475,192,109883,1,0,0:0:0:0:
153,192,109897,1,0,0:0:0:0:
256,192,109925,1,0,0:0:0:0:
329,192,109925,1,0,0:0:0:0:
460,192,109953,1,0,0:0:0:0:
109,192,109966,1,0,0:0:0:0:
36,192,109980,1,0,0:0:0:0:
256,192,110008,1,0,0:0:0:0:
475,192,110008,1,0,0:0:0:0:
182,192,110175,1,0,0:0:0:0:
402,192,110175,1,0,0:0:0:0:
109,192,110341,1,0,0:0:0:0:
329,192,110341,1,0,0:0:0:0:
36,192,110508,1,0,0:0:0:0:
256,192,110508,1,0,0:0:0:0:
109,192,110841,1,0,0:0:0:0:
402,192,110841,1,0,0:0:0:0:
51,192,111008,1,0,0:0:0:0:
475,192,111008,1,0,0:0:0:0:
109,192,111036,1,0,0:0:0:0:
256,192,111050,1,0,0:0:0:0:
36,192,111064,1,0,0:0:0:0:
329,192,111091,1,0,0:0:0:0:
475,192,111091,1,0,0:0:0:0:
256,192,111119,1,0,0:0:0:0:
153,192,111133,1,0,0:0:0:0:
51,192,111147,1,0,0:0:0:0:
109,192,111175,1,0,0:0:0:0:
329,192,111175,1,0,0:0:0:0:
256,192,111203,1,0,0:0:0:0:
36,192,111216,1,0,0:0:0:0:
182,192,111230,1,0,0:0:0:0:
256,192,111258,1,0,0:0:0:0:
475,192,111258,1,0,0:0:0:0:
402,192,111286,1,0,0:0:0:0:
36,192,111300,1,0,0:0:0:0:
153,192,111314,1,0,0:0:0:0:
256,192,111341,1,0,0:0:0:0:
475,192,111341,1,0,0:0:0:0:
182,192,111508,1,0,0:0:0:0:
402,192,111508,1,0,0:0:0:0:
109,192,111675,1,0,0:0:0:0:
329,192,111675,1,0,0:0:0:0:
36,192,111841,1,0,0:0:0:0:
256,192,111841,1,0,0:0:0:0:
109,192,112175,1,0,0:0:0:0:
402,192,112175,1,0,0:0:0:0:
358,192,112341,1,0,0:0:0:0:
475,192,112341,1,0,0:0:0:0:
256,192,112369,1,0,0:0:0:0:
109,192,112383,1,0,0:0:0:0:
461,192,112397,1,0,0:0:0:0:
36,192,112425,1,0,0:0:0:0:
359,192,112425,1,0,0:0:0:0:
257,192,112453,1,0,0:0:0:0:
475,192,112466,1,0,0:0:0:0:
109,192,112480,1,0,0:0:0:0:
36,192,112508,1,0,0:0:0:0:
256,192,112508,1,0,0:0:0:0:
329,192,112536,1,0,0:0:0:0:
475,192,112550,1,0,0:0:0:0:
256,192,112564,1,0,0:0:0:0:
182,192,112591,1,0,0:0:0:0:
51,192,112591,1,0,0:0:0:0:
256,192,112619,1,0,0:0:0:0:
329,192,112633,1,0,0:0:0:0:
153,192,112647,1,0,0:0:0:0:
256,192,112675,1,0,0:0:0:0:
475,192,112675,1,0,0:0:0:0:
182,192,112841,1,0,0:0:0:0:
402,192,112841,1,0,0:0:0:0:
109,192,113008,1,0,0:0:0:0:
329,192,113008,1,0,0:0:0:0:
36,192,113175,1,0,0:0:0:0:
256,192,113175,1,0,0:0:0:0:
109,192,113508,1,0,0:0:0:0:
402,192,113508,1,0,0:0:0:0:
51,192,113675,1,0,0:0:0:0:
475,192,113675,1,0,0:0:0:0:
329,192,113703,1,0,0:0:0:0:
256,192,113716,1,0,0:0:0:0:
182,192,113730,1,0,0:0:0:0:
358,192,113758,1,0,0:0:0:0:
36,192,113758,1,0,0:0:0:0:
460,192,113786,1,0,0:0:0:0:
329,192,113800,1,0,0:0:0:0:
256,192,113814,1,0,0:0:0:0:
36,192,113841,1,0,0:0:0:0:
109,192,113841,1,0,0:0:0:0:
475,192,113869,1,0,0:0:0:0:
402,192,113883,1,0,0:0:0:0:
255,192,113897,1,0,0:0:0:0:
460,192,113925,1,0,0:0:0:0:
182,192,113925,1,0,0:0:0:0:
36,192,113953,1,0,0:0:0:0:
329,192,113966,1,0,0:0:0:0:
256,192,113980,1,0,0:0:0:0:
153,192,114008,1,0,0:0:0:0:
475,192,114008,1,0,0:0:0:0:
182,192,114175,1,0,0:0:0:0:
402,192,114175,1,0,0:0:0:0:
109,192,114341,1,0,0:0:0:0:
329,192,114341,1,0,0:0:0:0:
36,192,114508,1,0,0:0:0:0:
256,192,114508,1,0,0:0:0:0:
109,192,114841,1,0,0:0:0:0:
402,192,114841,1,0,0:0:0:0:
256,192,115008,1,0,0:0:0:0:
475,192,115008,1,0,0:0:0:0:
182,192,115036,1,0,0:0:0:0:
402,192,115050,1,0,0:0:0:0:
256,192,115064,1,0,0:0:0:0:
36,192,115091,1,0,0:0:0:0:
153,192,115091,1,0,0:0:0:0:
358,192,115119,1,0,0:0:0:0:
475,192,115133,1,0,0:0:0:0:
182,192,115147,1,0,0:0:0:0:
51,192,115175,1,0,0:0:0:0:
256,192,115175,1,0,0:0:0:0:
329,192,115203,1,0,0:0:0:0:
153,192,115216,1,0,0:0:0:0:
256,192,115230,1,0,0:0:0:0:
358,192,115258,1,0,0:0:0:0:
475,192,115258,1,0,0:0:0:0:
109,192,115286,1,0,0:0:0:0:
256,192,115300,1,0,0:0:0:0:
36,192,115314,1,0,0:0:0:0:
358,192,115341,1,0,0:0:0:0:
475,192,115341,1,0,0:0:0:0:
182,192,115508,1,0,0:0:0:0:
402,192,115508,1,0,0:0:0:0:
109,192,115675,1,0,0:0:0:0:
329,192,115703,1,0,0:0:0:0:
36,192,115841,1,0,0:0:0:0:
256,192,115841,1,0,0:0:0:0:
36,192,116008,1,0,0:0:0:0:
36,192,116175,1,0,0:0:0:0:
109,192,116175,1,0,0:0:0:0:
402,192,116175,1,0,0:0:0:0:
36,192,116341,1,0,0:0:0:0:
153,192,116341,1,0,0:0:0:0:
475,192,116341,1,0,0:0:0:0:
329,192,116369,1,0,0:0:0:0:
256,192,116383,1,0,0:0:0:0:
182,192,116397,1,0,0:0:0:0:
51,192,116425,1,0,0:0:0:0:
475,192,116425,1,0,0:0:0:0:
402,192,116453,1,0,0:0:0:0:
256,192,116466,1,0,0:0:0:0:
36,192,116508,1,0,0:0:0:0:
460,192,116508,1,0,0:0:0:0:
358,192,116508,1,0,0:0:0:0:
109,192,116536,1,0,0:0:0:0:
475,192,116550,1,0,0:0:0:0:
402,192,116564,1,0,0:0:0:0:
256,192,116591,1,0,0:0:0:0:
51,192,116591,1,0,0:0:0:0:
182,192,116619,1,0,0:0:0:0:
257,192,116633,1,0,0:0:0:0:
36,192,116675,1,0,0:0:0:0:
329,192,116675,1,0,0:0:0:0:
475,192,116675,1,0,0:0:0:0:
36,192,116841,1,0,0:0:0:0:
256,192,116841,1,0,0:0:0:0:
402,192,116841,1,0,0:0:0:0:
36,192,117008,1,0,0:0:0:0:
109,192,117008,1,0,0:0:0:0:
256,192,117008,1,0,0:0:0:0:
36,192,117175,1,0,0:0:0:0:
182,192,117175,1,0,0:0:0:0:
329,192,117175,1,0,0:0:0:0:
36,192,117341,1,0,0:0:0:0:
475,192,117341,1,0,0:0:0:0:
153,192,117369,1,0,0:0:0:0:
329,192,117397,1,0,0:0:0:0:
51,192,117425,1,0,0:0:0:0:
256,192,117425,1,0,0:0:0:0:
182,192,117453,1,0,0:0:0:0:
475,192,117480,1,0,0:0:0:0:
36,192,117508,1,0,0:0:0:0:
256,192,117508,1,0,0:0:0:0:
329,192,117536,1,0,0:0:0:0:
256,192,117564,1,0,0:0:0:0:
182,192,117591,1,0,0:0:0:0:
475,192,117619,1,0,0:0:0:0:
402,192,117647,1,0,0:0:0:0:
36,192,117675,1,0,0:0:0:0:
153,192,117675,1,0,0:0:0:0:
256,192,117703,1,0,0:0:0:0:
358,192,117730,1,0,0:0:0:0:
109,192,117758,1,0,0:0:0:0:
475,192,117758,1,0,0:0:0:0:
256,192,117786,1,0,0:0:0:0:
329,192,117814,1,0,0:0:0:0:
36,192,117841,1,0,0:0:0:0:
256,192,117841,1,0,0:0:0:0:
182,192,117869,1,0,0:0:0:0:
475,192,117897,1,0,0:0:0:0:
256,192,117925,1,0,0:0:0:0:
329,192,117953,1,0,0:0:0:0:
256,192,117980,1,0,0:0:0:0:
36,192,118008,1,0,0:0:0:0:
182,192,118008,1,0,0:0:0:0:
475,192,118036,1,0,0:0:0:0:
256,192,118064,1,0,0:0:0:0:
109,192,118091,1,0,0:0:0:0:
329,192,118091,1,0,0:0:0:0:
256,192,118119,1,0,0:0:0:0:
182,192,118147,1,0,0:0:0:0:
36,192,118175,1,0,0:0:0:0:
475,192,118175,1,0,0:0:0:0:
256,192,118203,1,0,0:0:0:0:
329,192,118230,1,0,0:0:0:0:
51,192,118258,1,0,0:0:0:0:
256,192,118258,1,0,0:0:0:0:
182,192,118286,1,0,0:0:0:0:
475,192,118314,1,0,0:0:0:0:
36,192,118341,1,0,0:0:0:0:
256,192,118341,1,0,0:0:0:0:
329,192,118369,1,0,0:0:0:0:
256,192,118397,1,0,0:0:0:0:
51,192,118425,1,0,0:0:0:0:
182,192,118425,1,0,0:0:0:0:
475,192,118453,1,0,0:0:0:0:
402,192,118480,1,0,0:0:0:0:
36,192,118508,1,0,0:0:0:0:
153,192,118508,1,0,0:0:0:0:
256,192,118536,1,0,0:0:0:0:
358,192,118564,1,0,0:0:0:0:
109,192,118591,1,0,0:0:0:0:
256,192,118591,1,0,0:0:0:0:
460,192,118619,1,0,0:0:0:0:
402,192,118647,1,0,0:0:0:0:
36,192,118675,1,0,0:0:0:0:
256,192,118675,1,0,0:0:0:0:
402,192,118730,1,0,0:0:0:0:
51,192,118758,1,0,0:0:0:0:
182,192,118758,1,0,0:0:0:0:
329,192,118786,1,0,0:0:0:0:
36,192,118841,1,0,0:0:0:0:
256,192,118841,1,0,0:0:0:0:
475,192,118841,1,0,0:0:0:0:
402,192,118897,1,0,0:0:0:0:
51,192,118925,1,0,0:0:0:0:
182,192,118925,1,0,0:0:0:0:
329,192,118953,1,0,0:0:0:0:
36,192,119008,1,0,0:0:0:0:
256,192,119008,1,0,0:0:0:0:
475,192,119008,1,0,0:0:0:0:
402,192,119064,1,0,0:0:0:0:
256,192,119091,1,0,0:0:0:0:
182,192,119091,1,0,0:0:0:0:
329,192,119119,1,0,0:0:0:0:
36,192,119175,1,0,0:0:0:0:
256,192,119175,1,0,0:0:0:0:
475,192,119175,1,0,0:0:0:0:
402,192,119230,1,0,0:0:0:0:
256,192,119258,1,0,0:0:0:0:
182,192,119258,1,0,0:0:0:0:
329,192,119286,1,0,0:0:0:0:
36,192,119341,1,0,0:0:0:0:
256,192,119341,1,0,0:0:0:0:
475,192,119341,1,0,0:0:0:0:
109,192,119383,1,0,0:0:0:0:
256,192,119397,1,0,0:0:0:0:
51,192,119425,1,0,0:0:0:0:
329,192,119425,1,0,0:0:0:0:
475,192,119453,1,0,0:0:0:0:
358,192,119466,1,0,0:0:0:0:
109,192,119508,1,0,0:0:0:0:
256,192,119508,1,0,0:0:0:0:
51,192,119508,1,0,0:0:0:0:
358,192,119550,1,0,0:0:0:0:
475,192,119564,1,0,0:0:0:0:
36,192,119591,1,0,0:0:0:0:
329,192,119591,1,0,0:0:0:0:
256,192,119619,1,0,0:0:0:0:
109,192,119633,1,0,0:0:0:0:
51,192,119675,1,0,0:0:0:0:
256,192,119675,1,0,0:0:0:0:
475,192,119675,1,0,0:0:0:0:
154,192,119716,1,0,0:0:0:0:
256,192,119730,1,0,0:0:0:0:
51,192,119758,1,0,0:0:0:0:
329,192,119758,1,0,0:0:0:0:
475,192,119786,1,0,0:0:0:0:
182,192,119800,1,0,0:0:0:0:
36,192,119841,1,0,0:0:0:0:
256,192,119841,1,0,0:0:0:0:
402,192,119841,1,0,0:0:0:0:
109,192,119883,1,0,0:0:0:0:
475,192,119897,1,0,0:0:0:0:
51,192,119925,1,0,0:0:0:0:
329,192,119925,1,0,0:0:0:0:
256,192,119953,1,0,0:0:0:0:
153,192,119966,1,0,0:0:0:0:
51,192,120008,1,0,0:0:0:0:
475,192,121008,1,0,0:0:0:0:
475,192,121341,1,0,0:0:0:0:
402,192,121675,1,0,0:0:0:0:
182,192,122008,1,0,0:0:0:0:
109,192,122341,1,0,0:0:0:0:
329,192,122675,1,0,0:0:0:0:
329,192,123675,1,0,0:0:0:0:
329,192,124001,1,0,0:0:0:0:
182,192,124282,1,0,0:0:0:0:
109,192,124563,1,0,0:0:0:0:
36,192,124751,1,0,0:0:0:0:
256,192,125151,1,0,0:0:0:0:
182,192,125551,1,0,0:0:0:0:
256,192,127024,1,0,0:0:0:0:
109,192,127881,1,0,0:0:0:0:
51,192,128756,1,0,0:0:0:0:
