osu file format v5

[General]
AudioFilename: lentos clasicos de los 70's and 80's - lentos96(2)(2)(2).mp3
AudioLeadIn: 0
PreviewTime: -1
Countdown: 1
SampleSet: None
StackLeniency: 0.7
Mode: 0
LetterboxInBreaks: 1
EditorDistanceSpacing: 0.800000011920929

[Metadata]
Title:lentos clasicos de los 80 y 90
Artist:Varios
Creator:chugoman
Version:Normal
Source:
Tags:

[Difficulty]
HPDrainRate:5
CircleSize:5
OverallDifficulty:5
SliderMultiplier:1.4
SliderTickRate:2

[Events]
//Background and Video events
//Break Periods
2,134893,139263
//Storyboard Layer 0 (Background)
//Storyboard Layer 1 (Failing)
//Storyboard Layer 2 (Passing)
//Storyboard Layer 3 (Foreground)
//Storyboard Sound Samples
//Background Colour Transformations
3,100,163,162,255

[TimingPoints]
0,629.410788805369,4,0,0,100,1,0

[Colours]
Combo1 : 255,249,0
Combo2 : 15,208,230
Combo3 : 44,201,48
Combo4 : 244,0,24

[HitObjects]
216,72,8811,1,0
216,176,9126,1,0
288,176,9677,1,0
296,344,10306,1,0
296,248,10621,1,0
224,248,11014,1,0
160,248,11408,1,0
88,248,11722,1,2
48,200,13296,5,0
48,200,13689,1,0
120,152,14555,1,0
120,152,14869,1,0
464,224,16286,1,0
464,224,16679,1,0
408,160,17387,1,0
408,160,17702,1,0
144,296,18488,1,0
208,296,18882,1,0
272,296,19275,6,14,B|248:176|144:160,1,192.5
184,104,20691,1,0
248,104,21163,1,0
312,104,21557,1,0
256,192,22186,1,0
256,192,22580,1,0
264,280,22973,1,0
264,280,23288,1,0
200,272,23760,1,12
200,272,24074,1,6
416,256,25176,5,0
360,224,25648,1,0
312,184,27064,1,10
88,272,28166,1,0
136,240,28559,1,0
256,192,29346,1,0
64,312,30447,1,0
64,312,30762,2,14,B|440:312,1,367.5
431,312,32808,1,0
400,264,33044,1,0
272,272,33673,1,0
272,272,34066,1,0
320,128,35247,1,4
208,120,35955,1,6
256,200,36269,5,0
256,200,36505,1,0
336,208,37056,1,0
416,200,37685,1,0
464,264,38551,1,0
416,296,38866,2,14,B|312:344|256:328,2,157.5
416,240,41147,1,0
88,256,41541,5,0
88,256,42170,1,0
184,312,43035,1,0
184,312,43586,1,0
160,328,44609,1,0
120,280,44924,2,10,B|256:144,2,175
160,160,47205,1,0
120,96,47520,2,10,B|248:40|368:96,2,245
240,152,50431,1,0
240,152,50824,1,0
424,248,51533,6,0,B|320:312|216:312|152:304|80:264|56:232,1,385
184,216,54050,1,0
184,216,54286,1,0
264,216,54758,1,0
264,216,54916,1,0
344,216,55388,1,0
272,136,55938,1,0
72,208,58535,2,0,B|160:80,1,140
232,168,59636,5,0
320,168,60816,1,0
320,168,60974,1,0
400,176,61367,1,0
352,240,62311,1,0
400,264,63727,1,0
400,264,63885,1,0
352,264,64121,1,10
240,288,64986,1,0
344,304,65852,2,0,B|192:336|176:336,2,157.5
344,224,67740,2,10,B|184:168,2,157.5
88,272,69628,2,0,B|88:80,1,175
168,136,71438,1,0
56,256,72382,1,0
72,328,72539,2,0,B|216:216,1,175
256,272,73798,1,0
312,232,74427,1,0
440,160,75529,5,0
392,112,76001,1,0
344,56,76630,1,0
272,56,77102,1,0
400,232,77732,2,0,B|408:120|312:88,1,175
296,184,78755,1,0
216,216,79148,1,0
216,216,79305,1,0
216,216,79463,1,0
216,216,79699,1,0
144,248,80013,1,0
144,248,80171,1,0
64,336,81508,2,10,B|224:192|408:344,1,367.5
432,240,83790,5,0
432,240,83947,2,0,B|360:160,1,105
360,168,84970,2,2,B|216:80|136:176,1,245
104,288,86386,1,0
136,288,86701,2,10,B|376:288,2,227.5
184,184,88982,5,0
280,184,89533,1,0
240,128,89927,1,0
240,128,90084,1,0
384,192,90477,1,0
296,184,91028,1,0
336,240,91343,1,0
336,240,91579,1,0
432,288,92366,1,0
336,328,92602,1,0
256,328,92995,1,0
176,328,93388,1,0
64,272,93782,1,0
176,216,94175,1,0
264,216,94568,1,0
336,216,94962,1,0
448,216,96221,6,0,B|320:112,1,157.5
456,48,98266,2,12,B,1,157.5
384,40,99525,2,10,B|304:192,1,157.5
448,232,101177,2,0,B|368:328|296:280,2,175
360,224,103223,2,0,B|264:168|152:240,2,210
312,288,105583,6,10,B|320:120|192:112,1,227.5
192,216,107078,1,0
192,216,107943,1,0
144,136,108573,2,10,B|96:232|224:320,1,210
296,320,110776,1,0
384,272,111563,5,0
392,192,114552,1,0
312,192,115260,1,0
224,192,115968,1,0
136,192,116362,1,0
88,184,116755,1,0
88,224,117149,1,0
80,168,118958,1,0
128,128,119692,1,0
184,88,120217,6,0,B|320:48|384:112,2,210
208,152,123364,1,0
248,216,123784,1,0
288,288,124203,1,0
344,344,124518,1,0
408,336,124938,1,0
408,264,125672,1,0
400,64,126301,1,0
328,120,126616,1,0
256,176,127036,1,0
200,224,127455,1,0
128,288,127770,1,0
64,224,128504,1,0
56,288,129239,6,0,B|144:96|248:160,1,256.666666666667
208,232,130707,1,0
208,232,131022,1,0
208,232,131441,1,0
272,264,132176,2,0,B|384:160|320:88,1,186.666666666667
256,112,133644,1,0
256,112,133959,1,0
256,112,134379,1,0
256,112,134693,1,0
256,192,140463,12,0,143610
72,248,144869,5,0
80,192,145288,1,0
128,224,145918,1,0
192,224,146338,1,0
256,224,146757,1,0
440,80,147911,1,0
440,152,148226,1,0
376,112,148960,1,0
312,112,149380,1,0
248,112,149694,1,0
240,40,150009,6,0,B|128:56|128:104,1,116.666666666667
184,128,150743,2,0,B|304:160,1,116.666666666667
232,200,151792,2,0,B|120:272|120:280,2,116.666666666667
240,184,154100,1,0
240,184,154520,1,0
240,184,154835,1,0
128,248,156618,5,0
72,200,157037,1,0
120,144,157562,1,0
120,144,157772,1,0
168,192,158296,1,0
224,184,158611,1,0
432,240,159555,1,0
480,192,159975,1,0
432,136,160604,1,0
368,184,161024,1,0
368,184,161443,1,0
320,256,161758,6,0,B|208:208|312:64,1,210
320,168,163646,2,0,B|344:80|176:40|112:168|336:312|88:248,2,396.666666666667
352,248,168367,1,0
280,248,168996,1,0
320,176,169836,1,0
312,96,170150,1,0
224,96,170570,1,0
224,96,170885,1,0
224,96,171304,1,0
152,104,171724,1,0
144,176,172038,1,0
224,208,172458,1,0
224,208,172773,1,0
96,248,173507,2,0,B|128:304,1,46.6666666666667
152,256,174136,2,0,B|352:272,1,186.666666666667
160,192,176130,1,0
224,168,176549,1,0
280,144,176864,1,0
280,144,177179,1,0
336,192,177598,5,0
280,224,177913,1,0
224,256,178333,1,0
224,256,178647,1,0
304,280,179172,2,0,B|208:312|136:248|168:208,1,186.666666666667
240,216,180640,2,0,B|264:144|224:96,1,210
48,48,182109,5,0
96,96,182319,1,0
152,160,182529,1,0
208,224,182738,1,0
256,296,183053,1,0
336,320,183263,1,0
344,192,183997,1,0
256,192,185466,12,0,189872
32,176,192075,6,0,B|368:176,1,326.666666666667
472,224,194278,2,0,B|192:224,1,256.666666666667
64,280,196166,2,0,B|368:104,1,326.666666666667
128,264,199837,5,0
120,200,200152,1,0
120,136,200572,1,0
256,192,201516,12,0,203824
