osu file format v13

[General]
AudioFilename: Varien - The Scarlet Dawn.mp3
AudioLeadIn: 0
PreviewTime: 85883
Countdown: 0
SampleSet: Soft
StackLeniency: 0.7
Mode: 2
LetterboxInBreaks: 0
WidescreenStoryboard: 0

[Editor]
DistanceSpacing: 1
BeatDivisor: 2
GridSize: 16
TimelineZoom: 1.9

[Metadata]
Title:The Scarlet Dawn
TitleUnicode:The Scarlet Dawn
Artist:Varien
ArtistUnicode:Varien
Creator:ExGon
Version:Salad
Source:
Tags:Dubstep Electronic Dance
BeatmapID:417525
BeatmapSetID:171202

[Difficulty]
HPDrainRate:3
CircleSize:3
OverallDifficulty:6
ApproachRate:6
SliderMultiplier:1.28
SliderTickRate:2

[Events]
//Background and Video events
0,0,"bg.jpg",0,0
//Break Periods
2,3800,16264
2,113514,115692
//Storyboard Layer 0 (Background)
//Storyboard Layer 1 (Fail)
//Storyboard Layer 2 (Pass)
//Storyboard Layer 3 (Foreground)
//Storyboard Sound Samples

[TimingPoints]
3600,428.571428571429,4,2,1,100,1,0
3707,-100,4,2,0,25,0,0
17314,-100,4,1,0,35,0,0
17421,-100,4,2,0,35,0,0
17957,-100,4,1,0,35,0,0
18064,-100,4,2,0,35,0,0
18600,-100,4,3,0,20,0,0
18814,-100,4,1,0,35,0,0
19135,-100,4,2,0,35,0,0
19671,-100,4,1,0,35,0,0
19778,-100,4,2,0,35,0,0
20314,-100,4,3,0,20,0,0
20528,-100,4,1,0,35,0,0
20850,-100,4,2,0,35,0,0
21385,-100,4,1,0,35,0,0
21492,-100,4,2,0,35,0,0
22028,-100,4,3,0,20,0,0
22242,-100,4,1,0,35,0,0
22564,-100,4,2,0,35,0,0
23100,-100,4,1,0,35,0,0
23207,-100,4,2,0,35,0,0
23742,-100,4,3,0,20,0,0
23957,-100,4,1,0,35,0,0
24278,-100,4,2,0,35,0,0
24814,-100,4,1,0,35,0,0
25028,-100,4,2,0,35,0,0
25457,-100,4,3,0,20,0,0
25671,-100,4,1,0,35,0,0
25992,-100,4,2,0,35,0,0
26528,-100,4,1,0,35,0,0
26742,-100,4,2,0,35,0,0
27171,-100,4,3,0,20,0,0
27385,-100,4,1,0,35,0,0
28457,-100,4,2,0,35,0,0
28671,-100,4,2,0,36,0,0
28885,-100,4,2,0,37,0,0
29100,-100,4,2,0,38,0,0
29314,-100,4,2,0,39,0,0
29528,-100,4,2,0,40,0,0
29742,-100,4,2,0,41,0,0
29957,-100,4,2,0,42,0,0
30171,-100,4,2,0,43,0,0
30385,-100,4,2,0,44,0,0
30600,-100,4,2,1,100,0,0
31028,-100,4,2,0,45,0,0
55028,-100,4,1,0,12,0,0
55135,-100,4,1,0,14,0,0
55242,-100,4,1,0,16,0,0
55350,-100,4,1,0,18,0,0
55457,-100,4,1,0,20,0,0
55564,-100,4,1,0,22,0,0
55671,-100,4,1,0,24,0,0
55778,-100,4,1,0,26,0,0
55885,-100,4,1,0,28,0,0
55992,-100,4,1,0,30,0,0
56100,-100,4,1,0,32,0,0
56207,-100,4,1,0,34,0,0
56314,-100,4,1,0,36,0,0
56421,-100,4,1,0,38,0,0
56528,-100,4,1,0,40,0,0
56635,-100,4,1,0,42,0,0
56742,-100,4,1,0,44,0,0
56850,-100,4,1,0,46,0,0
56957,-100,4,1,0,48,0,0
57064,-100,4,1,0,50,0,0
57171,-100,4,1,0,52,0,0
57278,-100,4,1,0,54,0,0
57385,-100,4,1,0,56,0,0
57492,-100,4,1,0,58,0,0
57600,-100,4,1,0,60,0,0
58457,-100,4,1,0,100,0,1
58510,-100,4,1,0,60,0,1
63600,-100,4,1,0,70,0,1
65314,-100,4,1,0,100,0,1
65367,-100,4,1,0,60,0,1
68957,-100,4,2,0,70,0,1
69600,-100,4,1,0,60,0,1
70457,-100,4,1,0,70,0,1
72171,-100,4,3,0,5,0,0
73028,-100,4,1,0,60,0,1
77742,-100,4,1,0,70,0,1
79028,-100,4,1,0,100,0,1
79082,-100,4,1,0,60,0,1
82671,-100,4,2,0,70,0,1
83314,-100,4,1,0,60,0,1
84198,-100,4,1,0,60,0,0
85671,-100,4,3,0,70,0,0
85939,-100,4,2,0,70,0,0
86742,-100,4,1,0,70,0,0
86796,-100,4,2,0,70,0,0
88457,-100,4,1,0,70,0,0
88510,-100,4,2,0,70,0,0
89314,-100,4,3,0,70,0,0
89367,-100,4,2,0,70,0,0
90171,-100,4,1,0,70,0,0
90225,-100,4,2,0,70,0,0
91457,-100,4,3,0,70,0,0
91510,-100,4,2,0,70,0,0
91885,-100,4,1,0,70,0,0
91939,-100,4,2,0,70,0,0
92528,-100,4,3,0,70,0,0
92796,-100,4,2,0,70,0,0
93600,-100,4,1,0,70,0,0
93653,-100,4,2,0,70,0,0
95314,-100,4,1,0,70,0,0
95367,-100,4,2,0,70,0,0
96171,-100,4,3,0,70,0,0
96225,-100,4,2,0,70,0,0
97028,-100,4,1,0,70,0,0
97082,-100,4,2,0,70,0,0
98314,-100,4,3,0,70,0,0
98742,-100,4,1,0,80,0,0
99600,-100,4,3,0,70,0,0
99653,-100,4,2,0,70,0,0
100457,-100,4,1,0,70,0,0
100510,-100,4,2,0,70,0,0
101742,-100,4,3,0,70,0,0
101796,-100,4,2,0,70,0,0
102171,-100,4,1,0,70,0,0
102225,-100,4,2,0,70,0,0
102814,-100,4,3,0,70,0,0
103082,-100,4,2,0,70,0,0
103885,-100,4,1,0,70,0,0
103939,-100,4,2,0,70,0,0
105171,-100,4,3,0,70,0,0
105225,-100,4,2,0,70,0,0
105600,-100,4,1,0,70,0,0
105653,-100,4,2,0,70,0,0
106242,-100,4,3,0,70,0,0
106510,-100,4,2,0,70,0,0
107314,-100,4,1,0,70,0,0
107367,-100,4,2,0,70,0,0
108600,-100,4,3,0,70,0,0
108653,-100,4,2,0,70,0,0
109028,-100,4,1,0,70,0,0
109082,-100,4,2,0,70,0,0
109671,-100,4,3,0,70,0,0
109939,-100,4,2,0,70,0,0
110742,-100,4,1,0,70,0,0
110796,-100,4,2,0,70,0,0
112028,-100,4,3,0,70,0,0
112457,-100,4,1,0,80,0,0
113314,-100,4,2,0,5,0,0
116742,-100,4,1,0,70,0,0
130457,-100,4,2,0,38,0,0
130671,-100,4,2,0,40,0,0
130885,-100,4,2,0,42,0,0
131100,-100,4,2,0,44,0,0
131314,-100,4,2,0,46,0,0
131528,-100,4,2,0,48,0,0
131742,-100,4,2,0,50,0,0
131957,-100,4,2,0,5,0,0
132171,-100,4,1,0,60,0,1
132385,-100,4,3,0,60,0,1
132600,-100,4,1,0,60,0,1
133242,-100,4,1,0,70,0,1
133885,-100,4,1,0,60,0,1
134100,-100,4,3,0,60,0,1
134314,-100,4,1,0,60,0,1
134957,-100,4,1,0,70,0,1
135600,-100,4,1,0,60,0,1
135814,-100,4,3,0,60,0,1
136028,-100,4,1,0,60,0,1
136671,-100,4,1,0,70,0,1
137314,-100,4,1,0,60,0,1
138600,-100,4,1,0,70,0,1
139028,-100,4,1,0,60,0,1
139242,-100,4,3,0,60,0,1
139457,-100,4,1,0,60,0,1
140100,-100,4,1,0,70,0,1
140742,-100,4,1,0,60,0,1
140957,-100,4,3,0,60,0,1
141171,-100,4,1,0,60,0,1
141814,-100,4,1,0,70,0,1
142457,-100,4,1,0,60,0,1
142671,-100,4,3,0,60,0,1
142885,-100,4,1,0,60,0,1
143528,-100,4,1,0,70,0,1
144171,-100,4,1,0,60,0,1
145028,-100,4,1,0,60,0,1
145242,-100,4,1,0,70,0,1
145858,-100,4,1,0,70,0,0
145885,-100,4,1,0,60,0,1
146957,-100,4,1,0,70,0,1
147600,-100,4,1,0,60,0,1
148671,-100,4,1,0,70,0,1
149314,-100,4,1,0,60,0,1
150385,-100,4,1,0,70,0,1
151028,-100,4,1,0,60,0,1
152100,-100,4,2,0,70,0,1
152742,-100,4,1,0,60,0,1
153814,-100,4,1,0,70,0,1
154457,-100,4,1,0,60,0,1
155528,-100,4,1,0,70,0,1
156171,-100,4,1,0,60,0,1
157242,-100,4,1,0,70,0,1
157885,-100,4,1,0,60,0,1
158742,-100,4,1,0,60,0,1
158957,-100,4,1,0,70,0,1
159171,-100,4,1,0,80,0,1
159600,-100,4,2,0,5,0,0
161314,-100,4,1,0,100,0,0
161367,-100,4,2,0,70,0,0
161957,-100,4,1,0,70,0,0
162010,-100,4,2,0,70,0,0
162600,-100,4,1,0,70,0,0
162653,-100,4,2,0,70,0,0
163028,-100,4,1,0,70,0,0
163082,-100,4,2,0,70,0,0
164742,-100,4,1,0,70,0,0
164796,-100,4,2,0,70,0,0
165385,-100,4,1,0,70,0,0
165439,-100,4,2,0,70,0,0
166028,-100,4,1,0,70,0,0
166082,-100,4,2,0,70,0,0
168171,-100,4,1,0,100,0,0
168225,-100,4,2,0,70,0,0
168814,-100,4,1,0,70,0,0
168867,-100,4,2,0,70,0,0
169457,-100,4,1,0,70,0,0
169510,-100,4,2,0,70,0,0
169885,-100,4,1,0,70,0,0
169939,-100,4,2,0,70,0,0
171600,-100,4,1,0,70,0,0
171653,-100,4,2,0,70,0,0
172242,-100,4,1,0,70,0,0
172296,-100,4,2,0,70,0,0
172885,-100,4,1,0,70,0,0
172939,-100,4,2,0,70,0,0
174171,-100,4,1,0,80,0,0
175028,-100,4,1,0,60,0,1
175457,-100,4,3,0,60,0,1
175671,-100,4,1,0,60,0,1
177171,-100,4,3,0,60,0,1
177385,-100,4,1,0,60,0,1
178778,-100,4,3,0,60,0,1
178885,-100,4,1,0,60,0,1
185635,-100,4,3,0,60,0,1
185742,-100,4,1,0,60,0,1
188528,-100,4,1,0,60,0,0
188742,-100,4,1,0,60,0,1
192492,-100,4,3,0,60,0,1
192546,-100,4,1,0,60,0,1
193028,-133.333333333333,4,1,0,60,0,1
193457,-100,4,1,0,60,0,1
199171,-100,4,1,0,62,0,1
199314,-100,4,1,0,64,0,1
199457,-100,4,1,0,66,0,1
199600,-100,4,1,0,68,0,1
199742,-100,4,1,0,70,0,1
199885,-100,4,1,0,72,0,1
200028,-100,4,1,0,74,0,1
200171,-100,4,1,0,76,0,1
200314,-100,4,1,0,78,0,1
200457,-100,4,1,0,80,0,1
200600,-100,4,1,0,82,0,1
200742,-100,4,1,0,84,0,1
201680,-100,4,1,0,84,0,0
201707,-100,4,1,0,100,0,1
201733,-100,4,2,0,5,0,0

[Colours]
Combo1 : 255,255,255
Combo2 : 45,142,19
Combo3 : 110,202,245
Combo4 : 0,128,192

[HitObjects]
416,192,3600,5,4,0:0:0:0:
112,128,17314,6,0,L|304:128,2,192,0|0|8,0:0|0:0|0:0,0:0:0:0:
224,256,19028,6,0,L|32:256,2,192,0|0|8,0:0|0:0|0:0,0:0:0:0:
400,128,20742,6,0,L|208:128,2,192,0|0|8,0:0|0:0|0:0,0:0:0:0:
288,256,22456,6,0,L|480:256,2,192,0|0|8,0:0|0:0|0:0,0:0:0:0:
48,64,24171,6,0,L|240:64,1,192,0|0,0:0|0:0,0:0:0:0:
336,64,24921,2,0,L|208:192,1,160,0|8,0:0|0:0,0:0:0:0:
464,320,25885,6,0,L|272:320,1,192,0|0,0:0|0:0,0:0:0:0:
176,320,26635,2,0,L|304:192,1,160,0|8,0:0|0:0,0:0:0:0:
96,192,27600,5,0,0:0:0:0:
256,192,28457,12,4,30600,0:0:0:0:
224,128,31028,6,0,L|96:128,1,128,2|0,0:0|0:0,0:0:0:0:
240,192,31671,2,0,L|368:192,1,128,2|0,0:0|0:0,0:0:0:0:
224,256,32314,2,0,L|96:256,1,128,2|2,0:0|0:0,0:0:0:0:
320,192,33171,5,0,0:0:0:0:
384,192,33385,1,2,0:0:0:0:
128,192,33814,1,0,0:0:0:0:
192,192,34028,1,2,0:0:0:0:
416,128,34457,6,0,L|288:128,1,128,2|0,0:0|0:0,0:0:0:0:
144,192,35100,2,0,L|272:192,1,128,2|0,0:0|0:0,0:0:0:0:
416,256,35743,2,0,L|288:256,2,128,2|2|2,0:0|0:0|0:0,0:0:0:0:
96,256,37028,2,0,L|224:256,1,128,2|2,0:0|0:0,0:0:0:0:
432,64,37885,6,0,L|464:192,1,128,2|0,0:0|0:0,0:0:0:0:
304,256,38528,1,2,0:0:0:0:
208,256,38957,1,0,0:0:0:0:
48,188,39171,2,0,L|80:64,1,128,2|2,0:0|0:0,0:0:0:0:
336,192,40028,5,0,0:0:0:0:
192,192,40242,2,0,L|320:192,1,128,2|0,0:0|0:0,0:0:0:0:
176,192,40885,1,2,0:0:0:0:
320,80,41314,6,0,L|432:144,1,128,2|0,0:0|0:0,0:0:0:0:
320,80,41957,1,2,0:0:0:0:
80,240,42385,1,0,0:0:0:0:
192,304,42600,2,0,L|80:240,2,128,2|2|2,0:0|0:0|0:0,0:0:0:0:
416,304,43885,2,0,L|384:176,1,128,2|2,0:0|0:0,0:0:0:0:
48,80,44742,6,0,L|80:208,1,128,4|0,0:1|0:0,0:0:0:0:
240,80,45385,2,0,L|272:208,1,128,2|0,0:0|0:0,0:0:0:0:
432,80,46028,2,0,L|464:208,1,128,2|2,0:0|0:0,0:0:0:0:
192,192,46885,5,0,0:0:0:0:
128,192,47099,1,2,0:0:0:0:
384,192,47528,1,0,0:0:0:0:
320,192,47742,1,2,0:0:0:0:
60,204,48171,6,0,B|92:260|92:260|160:276,1,128,2|0,0:0|0:0,0:0:0:0:
320,324,48814,2,0,L|192:324,1,128,2|0,0:0|0:0,0:0:0:0:
358,274,49457,2,0,B|420:260|420:260|452:204,2,128,2|2|2,0:0|0:0|0:0,0:0:0:0:
56,100,50742,2,0,L|184:100,1,128,2|2,0:0|0:0,0:0:0:0:
456,100,51600,6,0,L|328:100,1,128,2|0,0:0|0:0,0:0:0:0:
192,192,52242,2,0,L|320:192,1,128,2|0,0:0|0:0,0:0:0:0:
184,284,52885,2,0,L|56:284,1,128,2|2,0:0|0:0,0:0:0:0:
344,192,53742,5,0,0:0:0:0:
308,140,53956,1,2,0:0:0:0:
256,104,54171,1,0,0:0:0:0:
204,140,54385,1,0,0:0:0:0:
168,192,54599,1,2,0:0:0:0:
256,192,55028,12,2,57600,1:0:0:0:
96,96,58457,6,0,B|96:288|96:288|160:288,1,256,4|8,0:0|0:3,0:0:0:0:
336,288,59528,1,0,0:0:0:0:
368,288,59742,1,0,0:0:0:0:
96,288,60171,6,0,B|96:96|96:96|160:96,1,256,0|8,0:0|0:3,0:0:0:0:
336,96,61242,1,0,0:0:0:0:
368,96,61456,1,0,0:0:0:0:
336,96,61671,1,4,0:3:0:0:
368,96,61885,1,4,0:3:0:0:
208,96,62100,6,0,L|144:96,2,64,0|0|0,0:0|0:0|0:0,0:0:0:0:
416,288,62742,2,0,B|416:96|416:96|352:96,1,256,8|4,0:3|0:2,0:0:0:0:
288,96,63814,5,4,0:2:0:0:
64,192,64242,1,4,0:2:0:0:
128,192,64457,1,4,0:2:0:0:
384,192,64885,1,4,0:2:0:0:
448,192,65100,1,4,0:2:0:0:
384,192,65314,6,0,B|256:192|256:192|384:192,1,256,4|8,0:0|0:3,0:0:0:0:
208,192,66385,1,0,0:0:0:0:
176,192,66599,1,0,0:0:0:0:
384,192,67028,6,0,B|256:192|256:192|384:192,1,256,0|8,0:0|0:3,0:0:0:0:
208,192,68099,1,0,0:0:0:0:
176,192,68313,1,0,0:0:0:0:
208,192,68528,1,4,0:3:0:0:
176,192,68742,1,4,0:3:0:0:
336,192,68957,6,0,L|400:192,2,64,2|0|8,2:0|2:0|2:2,0:0:0:0:
128,192,69600,2,0,B|256:192|256:192|128:192,1,256,8|2,0:3|0:2,0:0:0:0:
64,192,70671,5,2,0:2:0:0:
288,192,71100,1,2,0:2:0:0:
224,192,71315,1,2,0:2:0:0:
448,192,71742,1,2,0:2:0:0:
384,192,71957,1,2,0:2:0:0:
256,192,72171,6,0,B|64:192|64:192|128:192,1,256,0|8,0:0|0:3,0:0:0:0:
304,192,73242,1,0,0:0:0:0:
336,192,73457,1,0,0:0:0:0:
128,192,73885,6,0,B|64:192|64:192|256:192,1,256,0|8,0:0|0:3,0:0:0:0:
432,192,74956,1,0,0:0:0:0:
464,192,75171,1,0,0:0:0:0:
432,192,75385,1,4,0:3:0:0:
464,192,75600,1,4,0:3:0:0:
304,192,75814,6,0,L|240:192,2,64,0|0|0,0:0|0:0|0:0,0:0:0:0:
128,192,76457,2,0,B|64:192|64:192|256:192,1,256,8|0,0:3|0:0,0:0:0:0:
416,272,77742,6,0,L|400:192,1,64,4|0,0:2|0:0,0:0:0:0:
264,272,78171,2,0,L|248:192,1,64,4|0,0:2|0:0,0:0:0:0:
112,272,78600,2,0,L|96:192,1,64,4|0,0:2|0:0,0:0:0:0:
288,192,79028,6,0,B|352:192|352:192|288:192|288:192|288:320,1,256,4|8,0:0|0:3,0:0:0:0:
112,192,80100,1,0,0:0:0:0:
80,192,80314,1,0,0:0:0:0:
288,192,80742,6,0,B|352:192|352:192|288:192|288:192|288:64,1,256,0|8,0:0|0:3,0:0:0:0:
112,192,81814,1,0,0:0:0:0:
80,192,82028,1,0,0:0:0:0:
112,192,82242,1,4,0:3:0:0:
80,192,82457,1,4,0:3:0:0:
240,192,82671,6,0,L|304:192,2,64,2|0|8,2:0|2:0|2:2,0:0:0:0:
80,192,83314,2,0,B|16:192|16:192|80:192|80:192|80:64,1,256,8|4,0:3|0:3,0:0:0:0:
256,192,84385,12,4,85885,0:0:0:0:
128,144,86742,5,0,0:0:0:0:
384,240,87171,1,2,0:0:0:0:
320,80,87600,5,2,0:0:0:0:
176,144,87814,2,0,B|112:160|112:160|32:208,1,128,2|2,0:0|0:0,0:0:0:0:
176,144,88457,2,0,B|240:128|240:128|320:80,1,128,0|2,0:0|0:0,0:0:0:0:
192,80,89314,5,4,0:0:0:0:
336,144,89528,2,0,B|400:160|400:160|480:208,1,128,2|2,0:0|0:0,0:0:0:0:
336,144,90171,2,0,B|272:128|272:128|192:80,1,128,0|2,0:0|0:0,0:0:0:0:
64,192,91028,6,0,L|48:256,1,64,2|2,0:0|0:0,0:0:0:0:
192,192,91457,2,0,L|176:256,1,64,4|2,0:0|0:0,0:0:0:0:
320,192,91885,2,0,L|304:256,1,64,0|0,0:0|0:0,0:0:0:0:
448,192,92314,2,0,L|432:256,1,64,0|4,0:0|0:0,0:0:0:0:
304,320,92742,5,4,0:0:0:0:
112,208,93600,1,0,0:0:0:0:
400,176,94028,1,2,0:0:0:0:
192,176,94457,5,2,0:0:0:0:
352,112,94671,2,0,L|480:112,1,128,2|2,0:0|0:0,0:0:0:0:
352,112,95314,2,0,L|224:112,1,128,0|2,0:0|0:0,0:0:0:0:
320,176,96171,5,4,0:0:0:0:
160,112,96385,2,0,L|32:112,1,128,2|2,0:0|0:0,0:0:0:0:
160,112,97028,2,0,L|288:112,1,128,0|2,0:0|0:0,0:0:0:0:
448,192,97885,6,0,L|464:256,1,64,2|2,0:0|0:0,0:0:0:0:
320,192,98314,2,0,L|336:256,1,64,4|4,0:0|0:0,0:0:0:0:
192,192,98742,2,0,L|208:256,1,64,0|0,0:0|0:0,0:0:0:0:
64,192,99171,2,0,L|80:256,1,64,0|0,0:0|0:0,0:0:0:0:
192,128,99600,6,0,L|256:128,2,64,4|0|0,0:3|0:0|0:0,0:0:0:0:
96,256,100457,2,0,L|32:256,2,64,2|0|2,0:2|0:0|0:0,0:0:0:0:
320,128,101314,6,0,L|256:128,2,64,2|0|4,0:0|0:0|0:0,0:0:0:0:
416,256,102171,2,0,L|480:256,2,64,2|0|2,0:2|0:0|0:0,0:0:0:0:
352,256,102814,1,4,0:0:0:0:
288,256,103028,6,0,L|224:256,2,64,4|0|0,0:0|0:0|0:0,0:0:0:0:
96,192,103885,2,0,L|32:192,2,64,2|0|2,0:2|0:0|0:0,0:0:0:0:
288,128,104742,6,0,L|224:128,2,64,2|0|4,0:0|0:0|0:0,0:0:0:0:
480,192,105599,2,0,L|416:192,2,64,2|0|2,0:2|0:0|0:0,0:0:0:0:
416,192,106242,1,4,0:0:0:0:
352,192,106457,6,0,L|288:192,1,64,4|0,0:0|0:0,0:0:0:0:
176,192,106885,1,0,0:0:0:0:
0,64,107314,2,0,L|64:64,1,64,2|0,0:2|0:0,0:0:0:0:
176,64,107742,1,2,0:0:0:0:
352,192,108171,6,0,L|288:192,1,64,2|0,0:0|0:0,0:0:0:0:
176,192,108599,1,4,0:0:0:0:
0,320,109028,2,0,L|64:320,1,64,2|0,0:2|0:0,0:0:0:0:
176,320,109456,1,2,0:0:0:0:
224,320,109671,1,4,0:0:0:0:
272,320,109885,6,0,L|336:320,1,64,4|0,0:0|0:0,0:0:0:0:
480,320,110314,1,0,0:0:0:0:
240,64,110742,2,0,L|176:64,1,64,2|0,0:2|0:0,0:0:0:0:
32,64,111171,1,2,0:0:0:0:
352,192,111600,6,0,L|288:192,1,64,2|0,0:0|0:0,0:0:0:0:
160,192,112028,2,0,L|224:192,1,64,4|4,0:0|0:0,0:0:0:0:
368,256,112457,1,0,0:0:0:0:
360,256,112671,1,0,0:0:0:0:
144,256,112885,1,0,0:0:0:0:
152,256,113100,1,0,0:0:0:0:
256,192,113314,1,0,0:0:0:0:
120,192,116742,5,0,1:0:0:0:
256,192,116957,1,0,1:0:0:0:
392,192,117171,1,0,1:0:0:0:
80,96,118457,5,0,1:0:0:0:
432,128,119100,5,0,1:0:0:0:
80,160,119742,5,0,1:0:0:0:
336,352,120171,5,0,1:0:0:0:
176,352,120385,1,0,1:0:0:0:
256,272,120600,1,0,1:0:0:0:
352,112,121885,5,0,1:0:0:0:
464,144,122100,1,0,1:0:0:0:
336,208,122314,1,4,1:3:0:0:
160,112,122742,5,0,1:0:0:0:
48,144,122957,1,0,1:0:0:0:
176,208,123171,1,4,1:3:0:0:
392,192,123600,5,0,1:0:0:0:
256,192,123815,1,0,1:0:0:0:
120,192,124029,1,0,1:0:0:0:
432,96,125315,5,0,1:0:0:0:
80,128,125958,5,0,1:0:0:0:
432,160,126600,5,0,1:0:0:0:
176,352,127029,5,0,1:0:0:0:
336,352,127243,1,0,1:0:0:0:
256,272,127458,1,0,1:0:0:0:
176,208,128742,5,0,1:0:0:0:
48,144,128957,1,0,1:0:0:0:
160,112,129171,1,4,1:3:0:0:
336,208,129600,5,0,1:0:0:0:
464,144,129815,1,0,1:0:0:0:
352,112,130029,1,4,1:3:0:0:
256,192,130457,12,0,131957,0:0:0:0:
176,96,132171,6,0,L|112:96,2,64,4|4|4,0:3|0:3|0:3,0:0:0:0:
416,192,133242,1,4,0:2:0:0:
336,96,133885,6,0,L|400:96,2,64,4|4|4,0:3|0:3|0:3,0:0:0:0:
96,192,134956,1,4,0:2:0:0:
256,112,135600,6,0,L|256:48,2,64,4|4|4,0:3|0:3|0:3,0:0:0:0:
32,192,136671,1,4,0:2:0:0:
128,112,137314,5,4,0:3:0:0:
352,80,137742,1,4,0:3:0:0:
160,304,138171,1,8,0:3:0:0:
384,272,138599,1,2,2:2:0:0:
176,96,139028,6,0,L|112:96,2,64,4|4|4,0:3|0:3|0:3,0:0:0:0:
448,192,140099,1,4,0:2:0:0:
336,96,140742,6,0,L|400:96,2,64,4|4|4,0:3|0:3|0:3,0:0:0:0:
64,192,141813,1,4,0:2:0:0:
256,112,142457,6,0,L|256:48,2,64,4|4|4,0:3|0:3|0:3,0:0:0:0:
480,192,143528,1,4,0:2:0:0:
384,112,144171,5,4,0:3:0:0:
160,80,144599,1,4,0:3:0:0:
352,304,145028,1,8,0:3:0:0:
240,288,145242,1,4,0:0:0:0:
128,272,145456,1,2,2:2:0:0:
0,112,145885,6,0,L|48:64,1,64,4|4,1:3|0:3,0:0:0:0:
208,112,146314,2,0,B|336:144|336:144|288:64|288:64,1,192,4|4,0:3|0:2,0:0:0:0:
512,272,147600,6,0,L|464:320,1,64,4|4,1:3|0:3,0:0:0:0:
304,272,148028,2,0,B|176:240|176:240|224:320|224:320,1,192,4|4,0:3|0:2,0:0:0:0:
96,208,149314,6,0,L|64:144,1,64,4|4,0:3|0:3,0:0:0:0:
240,192,149742,2,0,L|432:192,1,192,4|4,0:3|0:2,0:0:0:0:
144,80,151028,6,0,P|96:160|112:208,1,128,4|4,0:3|0:3,0:0:0:0:
368,80,151885,2,0,P|416:160|400:208,1,128,8|2,0:3|2:2,0:0:0:0:
512,272,152742,6,0,L|463:319,1,64,4|4,0:3|1:3,0:0:0:0:
303,272,153171,2,0,B|175:240|175:240|223:319|223:319,1,192,4|4,0:3|0:2,0:0:0:0:
0,112,154457,6,0,L|47:63,1,64,4|4,0:3|1:3,0:0:0:0:
208,112,154885,2,0,B|336:144|336:144|288:64|288:64,1,192,4|4,0:3|0:2,0:0:0:0:
416,176,156171,6,0,L|447:240,1,64,4|4,0:3|0:3,0:0:0:0:
272,192,156599,2,0,L|79:192,1,192,4|4,0:3|0:2,0:0:0:0:
368,304,157885,6,0,P|415:223|400:175,1,128,4|4,0:3|0:3,0:0:0:0:
144,303,158742,2,0,P|95:223|111:175,1,128,8|0,0:3|0:0,0:0:0:0:
256,192,159600,1,0,0:0:0:0:
0,80,161314,6,0,L|352:368,1,448,4|0,0:0|0:0,0:0:0:0:
512,304,163028,6,0,L|160:16,1,448,2|0,0:2|0:0,0:0:0:0:
16,112,164742,6,0,B|16:288|128:352|352:352,1,448,2|0,0:2|0:0,0:0:0:0:
496,272,166457,6,0,B|496:96|384:32|160:32,1,448,2|0,0:0|0:0,0:0:0:0:
336,32,168171,6,0,B|432:80|416:208|416:208|320:176|256:256|368:368,1,448,4|0,0:0|0:0,0:0:0:0:
176,32,169885,6,0,B|80:80|96:208|96:208|192:176|256:256|144:368,1,448,2|0,0:2|0:0,0:0:0:0:
64,192,171600,6,0,L|448:192,1,384,2|2,0:2|0:2,0:0:0:0:
224,320,173314,6,0,L|128:320,2,96,2|2|2,0:0|0:0|0:0,0:0:0:0:
400,320,174171,1,0,0:0:0:0:
224,112,175028,6,0,B|176:160|176:160|240:192,2,128,4|4|8,0:3|0:3|0:3,0:0:0:0:
16,192,176314,1,0,0:0:0:0:
288,112,176742,6,0,B|336:160|336:160|272:192,2,128,0|4|8,0:0|0:3|0:3,0:0:0:0:
496,192,178028,1,0,0:0:0:0:
352,288,178457,6,0,L|288:192,2,96,4|4|4,0:3|0:3|0:3,0:0:0:0:
213,208,179314,2,0,L|80:208,1,128,8|0,0:3|0:0,0:0:0:0:
299,208,180171,6,0,L|432:208,1,128,4|4,0:3|0:3,0:0:0:0:
299,208,180814,1,4,0:3:0:0:
160,208,181028,2,0,L|75:80,1,128,8|8,0:3|0:3,0:0:0:0:
224,96,181885,6,0,L|96:80,1,128,4|4,0:3|0:3,0:0:0:0:
416,304,182742,2,0,L|288:288,1,128,8|0,0:3|0:0,0:0:0:0:
224,288,183600,6,0,L|96:304,1,128,0|4,0:0|0:3,0:0:0:0:
416,80,184457,2,0,L|288:96,1,128,8|0,0:3|0:0,0:0:0:0:
160,288,185314,6,0,L|224:192,2,96,4|4|4,0:3|0:3|0:3,0:0:0:0:
299,208,186171,2,0,L|432:208,1,128,8|0,0:3|0:0,0:0:0:0:
213,208,187028,6,0,L|80:208,1,128,4|4,0:3|0:3,0:0:0:0:
213,208,187671,1,4,0:3:0:0:
352,208,187885,2,0,L|437:80,1,128,8|8,0:3|0:3,0:0:0:0:
144,64,188742,5,4,0:3:0:0:
416,112,189171,1,4,0:3:0:0:
96,272,189600,1,8,0:3:0:0:
368,320,190029,1,0,0:0:0:0:
128,128,190457,6,0,L|80:272,1,128,0|4,0:0|0:3,0:0:0:0:
384,256,191314,2,0,L|432:112,1,128,8|0,0:3|0:0,0:0:0:0:
160,192,192171,6,0,L|64:192,2,96,4|4|4,0:3|0:3|0:3,0:0:0:0:
352,192,193028,2,0,L|448:192,1,96,8|0,0:3|0:0,0:0:0:0:
464,320,193885,5,4,0:3:0:0:
192,320,194314,1,4,0:3:0:0:
256,320,194528,1,4,0:3:0:0:
320,320,194742,1,8,0:3:0:0:
48,320,195171,1,8,0:3:0:0:
384,288,195600,6,0,L|320:160,1,128,4|4,0:3|0:3,0:0:0:0:
256,112,196242,1,4,0:3:0:0:
185,173,196457,2,0,L|128:288,1,128,8|0,0:3|0:0,0:0:0:0:
16,96,197314,6,0,L|144:96,1,128,0|4,0:0|0:3,0:0:0:0:
256,144,197957,1,4,0:3:0:0:
368,96,198171,2,0,L|496:96,1,128,8|0,0:3|0:0,0:0:0:0:
256,192,199028,12,4,201707,0:0:0:0:
