osu file format v13

[General]
AudioFilename: Varien - The Scarlet Dawn.mp3
AudioLeadIn: 0
PreviewTime: 85883
Countdown: 0
SampleSet: Soft
StackLeniency: 0.7
Mode: 2
LetterboxInBreaks: 0
WidescreenStoryboard: 0

[Editor]
DistanceSpacing: 2
BeatDivisor: 4
GridSize: 8
TimelineZoom: 1.9

[Metadata]
Title:The Scarlet Dawn
TitleUnicode:The Scarlet Dawn
Artist:Varien
ArtistUnicode:Varien
Creator:ExGon
Version:Platter
Source:
Tags:Dubstep Electronic Dance
BeatmapID:419264
BeatmapSetID:171202

[Difficulty]
HPDrainRate:5
CircleSize:4
OverallDifficulty:8
ApproachRate:8
SliderMultiplier:1.92
SliderTickRate:2

[Events]
//Background and Video events
0,0,"bg.jpg",0,0
//Break Periods
2,113514,115992
2,159800,160564
//Storyboard Layer 0 (Background)
//Storyboard Layer 1 (Fail)
//Storyboard Layer 2 (Pass)
//Storyboard Layer 3 (Foreground)
//Storyboard Sound Samples

[TimingPoints]
3600,428.571428571429,4,2,1,100,1,0
3707,-100,4,2,0,25,0,0
13778,-100,4,2,0,28,0,0
15492,-100,4,2,0,31,0,0
17314,-100,4,1,0,35,0,0
17421,-100,4,2,0,35,0,0
17957,-100,4,1,0,35,0,0
18064,-100,4,2,0,35,0,0
18600,-100,4,3,0,20,0,0
18814,-100,4,1,0,35,0,0
19135,-100,4,2,0,35,0,0
19671,-100,4,1,0,35,0,0
19778,-100,4,2,0,35,0,0
20314,-100,4,3,0,20,0,0
20528,-100,4,1,0,35,0,0
20850,-100,4,2,0,35,0,0
21385,-100,4,1,0,35,0,0
21492,-100,4,2,0,35,0,0
22028,-100,4,3,0,20,0,0
22242,-100,4,1,0,35,0,0
22564,-100,4,2,0,35,0,0
23100,-100,4,1,0,35,0,0
23207,-100,4,2,0,35,0,0
23742,-100,4,3,0,20,0,0
23957,-100,4,1,0,35,0,0
24278,-100,4,2,0,35,0,0
24814,-100,4,1,0,35,0,0
25028,-100,4,2,0,35,0,0
25457,-100,4,3,0,20,0,0
25671,-100,4,1,0,35,0,0
25992,-100,4,2,0,35,0,0
26528,-100,4,1,0,35,0,0
26742,-100,4,2,0,35,0,0
27171,-100,4,3,0,20,0,0
27385,-100,4,1,0,35,0,0
28457,-100,4,2,0,35,0,0
28671,-100,4,2,0,36,0,0
28885,-100,4,2,0,37,0,0
29100,-100,4,2,0,38,0,0
29314,-100,4,2,0,39,0,0
29528,-100,4,2,0,40,0,0
29742,-100,4,2,0,41,0,0
29957,-100,4,2,0,42,0,0
30171,-100,4,2,0,43,0,0
30385,-100,4,2,0,44,0,0
30600,-100,4,2,1,100,0,0
31028,-100,4,2,0,45,0,0
55028,-100,4,1,0,12,0,0
55135,-100,4,1,0,14,0,0
55242,-100,4,1,0,16,0,0
55350,-100,4,1,0,18,0,0
55457,-100,4,1,0,20,0,0
55564,-100,4,1,0,22,0,0
55671,-100,4,1,0,24,0,0
55778,-100,4,1,0,26,0,0
55885,-100,4,1,0,28,0,0
55992,-100,4,1,0,30,0,0
56100,-100,4,1,0,32,0,0
56207,-100,4,1,0,34,0,0
56314,-100,4,1,0,36,0,0
56421,-100,4,1,0,38,0,0
56528,-100,4,1,0,40,0,0
56635,-100,4,1,0,42,0,0
56742,-100,4,1,0,44,0,0
56850,-100,4,1,0,46,0,0
56957,-100,4,1,0,48,0,0
57064,-100,4,1,0,50,0,0
57171,-100,4,1,0,52,0,0
57278,-100,4,1,0,54,0,0
57385,-100,4,1,0,56,0,0
57492,-100,4,1,0,58,0,0
57600,-100,4,1,0,60,0,0
58457,-100,4,1,0,100,0,1
58510,-100,4,1,0,60,0,1
60600,-100,4,3,0,60,0,1
60653,-100,4,1,0,60,0,1
63600,-100,4,1,0,70,0,1
65314,-100,4,1,0,100,0,1
65367,-100,4,1,0,60,0,1
67457,-100,4,3,0,60,0,1
67510,-100,4,1,0,60,0,1
68957,-100,4,2,0,70,0,1
69600,-100,4,1,0,60,0,1
70457,-100,4,1,0,70,0,1
72171,-100,4,3,0,5,0,0
73028,-100,4,1,0,60,0,1
74314,-100,4,3,0,60,0,1
74367,-100,4,1,0,60,0,1
77742,-100,4,1,0,70,0,1
79028,-100,4,1,0,100,0,1
79082,-100,4,1,0,60,0,1
81171,-100,4,3,0,60,0,1
81225,-100,4,1,0,60,0,1
82671,-100,4,2,0,70,0,1
83314,-100,4,1,0,60,0,1
84198,-100,4,1,0,60,0,0
85671,-100,4,3,0,70,0,0
85939,-100,4,2,0,70,0,0
86742,-100,4,1,0,70,0,0
86796,-100,4,2,0,70,0,0
88028,-100,4,3,0,70,0,0
88082,-100,4,2,0,70,0,0
88457,-100,4,1,0,70,0,0
88510,-100,4,2,0,70,0,0
89314,-100,4,3,0,70,0,0
89367,-100,4,2,0,70,0,0
90171,-100,4,1,0,70,0,0
90225,-100,4,2,0,70,0,0
91457,-100,4,3,0,70,0,0
91510,-100,4,2,0,70,0,0
91885,-100,4,1,0,70,0,0
91939,-100,4,2,0,70,0,0
92528,-100,4,3,0,70,0,0
92796,-100,4,2,0,70,0,0
93600,-100,4,1,0,70,0,0
93653,-100,4,2,0,70,0,0
94885,-100,4,3,0,70,0,0
94939,-100,4,2,0,70,0,0
95314,-100,4,1,0,70,0,0
95367,-100,4,2,0,70,0,0
96171,-100,4,3,0,70,0,0
96225,-100,4,2,0,70,0,0
97028,-100,4,1,0,70,0,0
97082,-100,4,2,0,70,0,0
98314,-100,4,3,0,70,0,0
98742,-100,4,1,0,80,0,0
99600,-100,4,3,0,70,0,0
99653,-100,4,2,0,70,0,0
100457,-100,4,1,0,70,0,0
100510,-100,4,2,0,70,0,0
101742,-100,4,3,0,70,0,0
101796,-100,4,2,0,70,0,0
102171,-100,4,1,0,70,0,0
102225,-100,4,2,0,70,0,0
102814,-100,4,3,0,70,0,0
103082,-100,4,2,0,70,0,0
103885,-100,4,1,0,70,0,0
103939,-100,4,2,0,70,0,0
105171,-100,4,3,0,70,0,0
105225,-100,4,2,0,70,0,0
105600,-100,4,1,0,70,0,0
105653,-100,4,2,0,70,0,0
106242,-100,4,3,0,70,0,0
106510,-100,4,2,0,70,0,0
107314,-100,4,1,0,70,0,0
107367,-100,4,2,0,70,0,0
108600,-100,4,3,0,70,0,0
108653,-100,4,2,0,70,0,0
109028,-100,4,1,0,70,0,0
109082,-100,4,2,0,70,0,0
109671,-100,4,3,0,70,0,0
109939,-100,4,2,0,70,0,0
110742,-100,4,1,0,70,0,0
110796,-100,4,2,0,70,0,0
112028,-100,4,3,0,70,0,0
112457,-100,4,1,0,80,0,0
113314,-100,4,2,0,5,0,0
116742,-100,4,1,0,70,0,0
118671,-100,4,1,0,5,0,0
119100,-100,4,1,0,70,0,0
119314,-100,4,1,0,5,0,0
119742,-100,4,1,0,70,0,0
119957,-100,4,1,0,5,0,0
120171,-100,4,1,0,70,0,0
125528,-100,4,1,0,5,0,0
125957,-100,4,1,0,70,0,0
126171,-100,4,1,0,5,0,0
126600,-100,4,1,0,70,0,0
126814,-100,4,1,0,5,0,0
127028,-100,4,1,0,70,0,0
130457,-100,4,2,0,38,0,0
130671,-100,4,2,0,40,0,0
130885,-100,4,2,0,42,0,0
131100,-100,4,2,0,44,0,0
131314,-100,4,2,0,46,0,0
131528,-100,4,2,0,48,0,0
131742,-100,4,2,0,50,0,0
131957,-100,4,2,0,5,0,0
132171,-100,4,1,0,60,0,1
133242,-100,4,1,0,70,0,1
133885,-100,4,1,0,60,0,1
134957,-100,4,1,0,70,0,1
135600,-100,4,1,0,60,0,1
136671,-100,4,1,0,70,0,1
137314,-100,4,1,0,60,0,1
137742,-100,4,3,0,60,0,1
137796,-100,4,1,0,60,0,1
138600,-100,4,1,0,70,0,1
139028,-100,4,1,0,60,0,1
140100,-100,4,1,0,70,0,1
140742,-100,4,1,0,60,0,1
141814,-100,4,1,0,70,0,1
142457,-100,4,1,0,60,0,1
143528,-100,4,1,0,70,0,1
144171,-50,4,1,0,60,0,1
144814,-100,4,2,0,5,0,1
145028,-100,4,1,0,60,0,1
145242,-100,4,1,0,70,0,1
145858,-100,4,1,0,70,0,0
145885,-100,4,1,0,60,0,1
146957,-100,4,1,0,70,0,1
147600,-100,4,1,0,60,0,1
148671,-100,4,1,0,70,0,1
149314,-100,4,1,0,60,0,1
150385,-100,4,1,0,70,0,1
151028,-100,4,1,0,60,0,1
151457,-200,4,1,0,60,0,1
152100,-100,4,1,0,70,0,1
152742,-100,4,1,0,60,0,1
153814,-100,4,1,0,70,0,1
154457,-100,4,1,0,60,0,1
155528,-100,4,1,0,70,0,1
156171,-100,4,1,0,60,0,1
157242,-100,4,1,0,70,0,1
157885,-100,4,1,0,60,0,1
158528,-100,4,2,0,5,0,1
158742,-100,4,1,0,60,0,1
158957,-100,4,1,0,70,0,1
159171,-100,4,1,0,80,0,1
159600,-100,4,2,0,5,0,0
161314,-100,4,1,0,100,0,0
161367,-100,4,2,0,70,0,0
161957,-100,4,1,0,70,0,0
162010,-100,4,2,0,70,0,0
162600,-100,4,1,0,70,0,0
162653,-100,4,2,0,70,0,0
163028,-100,4,1,0,70,0,0
163082,-100,4,2,0,70,0,0
164742,-100,4,1,0,70,0,0
164796,-100,4,2,0,70,0,0
165385,-100,4,1,0,70,0,0
165439,-100,4,2,0,70,0,0
166028,-100,4,1,0,70,0,0
166082,-100,4,2,0,70,0,0
168171,-100,4,1,0,100,0,0
168225,-100,4,2,0,70,0,0
168814,-100,4,1,0,70,0,0
168867,-100,4,2,0,70,0,0
169457,-100,4,1,0,70,0,0
169510,-100,4,2,0,70,0,0
169885,-100,4,1,0,70,0,0
169939,-100,4,2,0,70,0,0
171600,-100,4,1,0,70,0,0
171653,-100,4,2,0,70,0,0
172242,-100,4,1,0,70,0,0
172296,-100,4,2,0,70,0,0
172885,-100,4,1,0,70,0,0
172939,-100,4,2,0,70,0,0
174171,-100,4,1,0,80,0,0
175028,-100,4,1,0,60,0,1
178778,-100,4,3,0,60,0,1
178832,-100,4,1,0,60,0,1
179314,-133.333333333333,4,1,0,60,0,1
180171,-100,4,1,0,60,0,1
188528,-100,4,1,0,60,0,0
188742,-100,4,1,0,60,0,1
192492,-100,4,3,0,60,0,1
192546,-100,4,1,0,60,0,1
193885,-133.333333333333,4,1,0,60,0,1
194742,-100,4,1,0,60,0,1
199171,-100,4,1,0,62,0,1
199314,-100,4,1,0,64,0,1
199457,-100,4,1,0,66,0,1
199600,-100,4,1,0,68,0,1
199742,-100,4,1,0,70,0,1
199885,-100,4,1,0,72,0,1
200028,-100,4,1,0,74,0,1
200171,-100,4,1,0,76,0,1
200314,-100,4,1,0,78,0,1
200457,-100,4,1,0,80,0,1
200600,-100,4,1,0,82,0,1
200742,-100,4,1,0,84,0,1
201680,-100,4,1,0,84,0,0
201707,-100,4,1,0,100,0,1
201733,-100,4,2,0,5,0,0

[Colours]
Combo1 : 255,255,255
Combo2 : 45,142,19
Combo3 : 110,202,245
Combo4 : 0,128,192

[HitObjects]
128,64,3600,6,0,L|64:96,1,48,4|0,0:0|0:0,0:0:0:0:
220,288,4028,1,0,0:0:0:0:
44,160,4242,1,0,0:0:0:0:
220,96,4457,1,0,0:0:0:0:
44,224,4671,1,0,0:0:0:0:
256,192,4885,1,0,0:0:0:0:
384,64,5207,6,0,L|448:96,2,48
292,288,5742,1,0,0:0:0:0:
468,160,5957,1,0,0:0:0:0:
292,96,6171,1,0,0:0:0:0:
468,224,6385,1,0,0:0:0:0:
256,192,6600,1,0,0:0:0:0:
128,128,6921,6,0,L|64:128,2,48
331,63,7457,1,0,0:0:0:0:
407,255,7671,1,0,0:0:0:0:
180,320,7885,1,0,0:0:0:0:
104,128,8100,1,0,0:0:0:0:
256,192,8314,1,0,0:0:0:0:
384,128,8635,6,0,L|448:128,2,48
181,63,9171,1,0,0:0:0:0:
105,255,9385,1,0,0:0:0:0:
332,320,9600,1,0,0:0:0:0:
408,128,9814,1,0,0:0:0:0:
256,192,10028,1,0,0:0:0:0:
64,96,10350,6,0,L|32:160,2,48
224,96,10885,1,0,0:0:0:0:
96,160,11100,1,0,0:0:0:0:
281,268,11314,1,0,0:0:0:0:
384,217,11528,1,0,0:0:0:0:
256,192,11742,1,0,0:0:0:0:
448,96,12064,6,0,L|480:160,2,48
288,96,12600,1,0,0:0:0:0:
416,160,12814,1,0,0:0:0:0:
231,268,13028,1,0,0:0:0:0:
128,217,13242,1,0,0:0:0:0:
256,192,13457,1,0,0:0:0:0:
96,288,13778,6,0,L|64:224,1,48,0|0,0:0|0:0,0:0:0:0:
256,128,13992,1,0,0:0:0:0:
441,192,14314,1,0,0:0:0:0:
330,80,14528,1,0,0:0:0:0:
181,80,14742,1,0,0:0:0:0:
70,192,14957,1,0,0:0:0:0:
256,229,15171,1,0,0:0:0:0:
416,288,15492,6,0,L|448:224,1,48,0|0,0:0|0:0,0:0:0:0:
256,128,15707,1,0,0:0:0:0:
71,192,16028,1,0,0:0:0:0:
182,80,16242,1,0,0:0:0:0:
331,80,16457,1,0,0:0:0:0:
442,192,16671,1,0,0:0:0:0:
256,229,16885,1,0,0:0:0:0:
112,352,17314,6,0,B|215:300|215:300|263:217|196:142,2,288,0|0|8,0:0|0:0|0:0,0:0:0:0:
304,352,18814,2,0,L|368:352,1,48,0|0,0:0|0:0,0:0:0:0:
400,352,19028,6,0,B|296:300|296:300|248:217|315:142,2,288,0|0|8,0:0|0:0|0:0,0:0:0:0:
208,32,20528,2,0,L|144:32,1,48,0|0,0:0|0:0,0:0:0:0:
112,32,20742,6,0,B|64:128|64:128|128:224|224:224,2,288,0|0|8,0:0|0:0|0:0,0:0:0:0:
304,32,22242,2,0,L|368:32,1,48,0|0,0:0|0:0,0:0:0:0:
400,32,22457,6,0,B|448:128|448:128|384:224|288:224,2,288,0|0|8,0:0|0:0|0:0,0:0:0:0:
208,352,23957,2,0,L|144:352,1,48,0|0,0:0|0:0,0:0:0:0:
112,352,24171,6,0,B|32:288|32:288|128:128,1,288,0|0,0:0|0:0,0:0:0:0:
64,32,24921,2,0,B|144:96|144:96|64:240,1,240,0|8,0:0|0:0,0:0:0:0:
272,352,25671,1,0,0:0:0:0:
336,352,25778,1,0,0:0:0:0:
400,352,25885,6,0,B|480:288|480:288|384:128,1,288,0|0,0:0|0:0,0:0:0:0:
448,32,26635,2,0,B|368:96|368:96|448:240,1,240,0|8,0:0|0:0,0:0:0:0:
240,32,27385,1,0,0:0:0:0:
176,32,27492,1,0,0:0:0:0:
256,192,27600,5,0,0:0:0:0:
256,192,28457,12,4,30600,0:0:0:0:
179,64,31028,6,0,L|137:22,2,48,2|0|0,0:0|0:0|0:0,0:0:0:0:
332,63,31671,2,0,L|373:22,2,48,2|0|0,0:0|0:0|0:0,0:0:0:0:
148,319,32314,2,0,L|90:261,2,48,2|0|0,0:0|0:0|0:0,0:0:0:0:
363,319,32742,2,0,L|420:261,2,48,2|0|0,0:0|0:0|0:0,0:0:0:0:
172,144,33171,5,0,0:0:0:0:
339,240,33385,2,0,L|172:144,1,192,2|0,0:0|0:0,0:0:0:0:
339,240,34028,1,2,0:0:0:0:
192,128,34457,6,0,L|146:82,2,48,2|0|0,0:0|0:0|0:0,0:0:0:0:
320,127,35100,2,0,L|365:82,2,48,2|0|0,0:0|0:0|0:0,0:0:0:0:
128,256,35742,2,0,L|82:301,2,48,2|0|0,0:0|0:0|0:0,0:0:0:0:
384,256,36171,2,0,L|429:301,2,48,2|0|0,0:0|0:0|0:0,0:0:0:0:
64,128,36600,2,0,L|0:128,2,48,2|0|0,0:0|0:0|0:0,0:0:0:0:
448,128,37028,2,0,L|512:128,2,48,2|0|0,0:0|0:0|0:0,0:0:0:0:
256,192,37457,1,2,0:0:0:0:
333,320,37885,6,0,L|391:320,2,48,2|0|0,0:0|0:0|0:0,0:0:0:0:
180,320,38528,2,0,L|122:320,2,48,2|0|0,0:0|0:0|0:0,0:0:0:0:
364,65,39171,2,0,L|445:65,2,48,2|0|0,0:0|0:0|0:0,0:0:0:0:
149,65,39600,2,0,L|68:65,2,48,2|0|0,0:0|0:0|0:0,0:0:0:0:
352,192,40028,5,0,0:0:0:0:
160,192,40242,2,0,L|352:192,1,192,2|0,0:0|0:0,0:0:0:0:
160,192,40885,1,2,0:0:0:0:
320,256,41314,6,0,L|384:256,2,48,2|0|0,0:0|0:0|0:0,0:0:0:0:
192,256,41957,2,0,L|128:256,2,48,2|0|0,0:0|0:0|0:0,0:0:0:0:
384,128,42600,2,0,L|448:128,2,48,2|0|0,0:0|0:0|0:0,0:0:0:0:
128,128,43028,2,0,L|64:128,2,48,2|0|0,0:0|0:0|0:0,0:0:0:0:
448,256,43457,2,0,L|469:316,2,48,2|0|0,0:0|0:0|0:0,0:0:0:0:
64,256,43885,2,0,L|42:316,2,48,2|0|0,0:0|0:0|0:0,0:0:0:0:
256,192,44314,1,2,0:0:0:0:
96,128,44742,6,0,L|32:64,2,48,4|0|0,0:1|0:0|0:0,0:0:0:0:
256,256,45385,2,0,L|256:320,2,48,2|0|0,0:0|0:0|0:0,0:0:0:0:
416,128,46028,2,0,L|480:64,2,48,2|0|0,0:0|0:0|0:0,0:0:0:0:
64,192,46457,2,0,L|0:192,2,48,2|0|0,0:0|0:0|0:0,0:0:0:0:
256,192,46885,5,0,0:0:0:0:
436,126,47100,2,0,B|469:216|469:216|436:126,1,192,2|0,0:0|0:0,0:0:0:0:
320,128,47742,1,2,0:0:0:0:
96,256,48171,6,0,L|32:320,2,48,2|0|0,0:0|0:0|0:0,0:0:0:0:
256,128,48814,2,0,L|256:64,2,48,2|0|0,0:0|0:0|0:0,0:0:0:0:
416,256,49457,2,0,L|480:320,2,48,2|0|0,0:0|0:0|0:0,0:0:0:0:
64,192,49885,2,0,L|0:192,2,48,2|0|0,0:0|0:0|0:0,0:0:0:0:
256,96,50314,2,0,L|256:32,2,48,2|0|0,0:0|0:0|0:0,0:0:0:0:
448,192,50742,2,0,L|512:192,2,48,2|0|0,0:0|0:0|0:0,0:0:0:0:
320,256,51171,1,2,0:0:0:0:
432,96,51600,5,2,0:0:0:0:
352,96,51707,1,0,0:0:0:0:
272,96,51814,1,0,0:0:0:0:
336,192,52242,1,2,0:0:0:0:
256,192,52350,1,0,0:0:0:0:
176,192,52457,1,0,0:0:0:0:
240,288,52885,1,2,0:0:0:0:
160,288,52992,1,0,0:0:0:0:
80,288,53100,1,0,0:0:0:0:
160,128,53314,1,2,0:0:0:0:
256,128,53421,1,0,0:0:0:0:
352,128,53528,1,0,0:0:0:0:
256,192,53742,5,0,0:0:0:0:
76,126,53957,2,0,B|43:216|43:216|76:126,1,192,2|0,0:0|0:0,0:0:0:0:
192,128,54600,1,2,0:0:0:0:
348,260,55028,6,0,L|400:272,1,48,0|0,1:0|1:0,0:0:0:0:
348,260,55242,2,0,L|400:272,1,48,0|0,1:0|1:0,0:0:0:0:
348,260,55457,2,0,L|400:272,1,48,0|0,1:0|1:0,0:0:0:0:
348,260,55671,2,0,L|400:272,1,48,0|0,1:0|1:0,0:0:0:0:
348,260,55885,2,0,L|400:272,1,48,0|0,1:0|1:0,0:0:0:0:
348,260,56100,2,0,L|400:272,1,48,0|0,1:0|1:0,0:0:0:0:
348,260,56314,2,0,L|400:272,1,48,0|0,1:0|1:0,0:0:0:0:
348,260,56528,2,0,L|400:272,1,48,0|0,1:0|1:0,0:0:0:0:
300,216,56742,6,0,L|248:220,1,48,0|0,1:0|1:0,0:0:0:0:
300,216,56957,2,0,L|248:220,1,48,0|0,1:0|1:0,0:0:0:0:
300,216,57171,2,0,L|248:220,1,48,0|0,1:0|1:0,0:0:0:0:
300,216,57385,2,0,L|248:220,1,48,0|0,1:0|1:0,0:0:0:0:
190,112,57600,5,2,1:0:0:0:
357,175,57814,5,0,1:0:0:0:
219,288,58028,5,2,1:0:0:0:
64,160,58457,6,0,P|160:256|64:224,1,384,4|8,0:0|0:3,0:0:0:0:
256,192,59528,1,0,0:0:0:0:
128,192,59742,1,0,0:0:0:0:
320,192,59957,1,0,0:0:0:0:
192,160,60171,6,0,P|120:192|192:224,2,192,0|4|8,0:0|0:3|0:3,0:0:0:0:
384,192,61242,1,0,0:0:0:0:
256,192,61457,1,0,0:0:0:0:
448,192,61671,1,4,0:3:0:0:
480,192,61885,1,4,0:3:0:0:
288,192,62100,6,0,L|192:192,2,96,0|0|0,0:0|0:0|0:0,0:0:0:0:
368,0,62742,2,0,L|496:384,1,384,8|4,0:3|0:2,0:0:0:0:
256,352,63814,5,4,0:2:0:0:
152,130,64242,1,4,0:2:0:0:
359,253,64457,1,4,0:2:0:0:
416,160,64885,1,4,0:2:0:0:
96,224,65100,1,4,0:2:0:0:
192,192,65314,6,0,B|384:192|384:192|192:192,1,384,4|8,0:0|0:3,0:0:0:0:
384,192,66385,1,0,0:0:0:0:
256,192,66600,1,0,0:0:0:0:
448,192,66814,1,0,0:0:0:0:
336,192,67028,6,0,L|144:192,2,192,0|4|8,0:0|0:3|0:3,0:0:0:0:
144,192,68100,1,0,0:0:0:0:
272,192,68314,1,0,0:0:0:0:
80,192,68528,1,4,0:3:0:0:
48,192,68742,1,4,0:3:0:0:
320,192,68957,6,0,L|416:192,2,96,2|0|8,2:0|2:0|2:2,0:0:0:0:
144,0,69600,2,0,L|16:384,1,384,8|2,0:3|0:2,0:0:0:0:
256,352,70671,5,2,0:2:0:0:
360,130,71100,1,2,0:2:0:0:
153,253,71314,1,2,0:2:0:0:
96,160,71742,1,2,0:2:0:0:
416,224,71957,1,2,0:2:0:0:
320,192,72171,6,0,L|288:180,15,24,0|0|0|0|0|0|0|0|0|0|0|0|0|0|0|0,0:0|0:0|0:0|0:0|0:0|0:0|0:0|0:0|0:0|0:0|0:0|0:0|0:0|0:0|0:0|0:0,0:0:0:0:
320,192,73028,1,8,0:3:0:0:
128,192,73242,1,0,0:0:0:0:
256,192,73457,1,0,0:0:0:0:
64,192,73671,1,0,0:0:0:0:
192,192,73885,6,0,L|0:192,2,192,0|4|8,0:0|0:3|0:3,0:0:0:0:
384,192,74957,1,0,0:0:0:0:
256,192,75171,1,0,0:0:0:0:
448,192,75385,1,4,0:3:0:0:
480,192,75600,1,4,0:3:0:0:
288,192,75814,6,0,L|192:192,2,96,0|0|0,0:0|0:0|0:0,0:0:0:0:
352,288,76457,2,0,B|256:120|256:120|160:288|160:288,1,384,8|0,0:3|0:0,0:0:0:0:
172,160,77742,5,4,0:2:0:0:
340,224,77957,1,0,0:0:0:0:
374,146,78171,1,4,0:2:0:0:
137,237,78385,1,0,0:0:0:0:
77,123,78600,1,4,0:2:0:0:
433,259,78814,1,0,0:0:0:0:
320,192,79028,6,0,B|232:192|232:192|328:192|328:192|240:192|240:192|336:192|336:192|248:192,1,384,4|8,0:0|0:3,0:0:0:0:
128,192,80100,1,0,0:0:0:0:
256,192,80314,1,0,0:0:0:0:
64,192,80528,1,0,0:0:0:0:
192,192,80742,6,0,B|288:128|320:160|320:160|256:160,2,192,0|4|8,0:0|0:3|0:3,0:0:0:0:
320,192,81814,1,0,0:0:0:0:
128,192,82028,1,0,0:0:0:0:
256,192,82242,1,4,0:3:0:0:
48,192,82457,1,4,0:3:0:0:
320,192,82671,6,0,L|416:192,2,96,2|0|8,2:0|2:0|2:2,0:0:0:0:
160,288,83314,2,0,B|256:120|256:120|352:288|352:288,1,384,8|4,0:3|0:3,0:0:0:0:
256,192,84385,12,4,85671,0:0:0:0:
256,192,85885,5,4,0:0:0:0:
176,96,86100,2,0,P|128:208|192:272,1,192,2|2,0:0|0:0,0:0:0:0:
336,96,86742,2,0,P|384:208|320:272,1,192,0|2,0:0|0:0,0:0:0:0:
160,256,87600,5,2,0:0:0:0:
32,160,87814,2,0,P|0:224|0:256,2,96,2|4|2,0:0|0:0|0:0,0:0:0:0:
319,87,88457,2,0,P|192:73|128:73,2,192,0|2|4,0:0|0:0|0:0,0:0:0:0:
176,224,89528,6,0,B|80:192|80:192|16:192|16:192|48:192,1,192,2|2,0:0|0:0,0:0:0:0:
176,224,90171,2,0,B|149:224|149:224|213:224|213:224|309:192,1,192,0|2,0:0|0:0,0:0:0:0:
432,128,91028,6,0,B|384:128|352:96|336:80,1,96,2|2,0:0|0:0,0:0:0:0:
165,90,91457,2,0,B|160:96|128:128|80:128,1,96,4|2,0:0|0:0,0:0:0:0:
224,304,91885,2,0,B|218:298|186:266|138:266,1,96,0|0,0:0|0:0,0:0:0:0:
288,304,92314,2,0,B|293:298|325:266|373:266,1,96,0|4,0:0|0:0,0:0:0:0:
256,192,92742,5,4,0:0:0:0:
303,295,92957,2,0,P|378:241|374:150,1,192,2|2,0:0|0:0,0:0:0:0:
137,150,93600,2,0,P|154:271|242:293,1,192,0|2,0:0|0:0,0:0:0:0:
352,256,94457,5,2,0:0:0:0:
480,160,94671,2,0,P|512:224|512:256,2,96,2|4|2,0:0|0:0|0:0,0:0:0:0:
193,87,95314,2,0,P|320:73|384:73,2,192,0|2|4,0:0|0:0|0:0,0:0:0:0:
336,224,96385,6,0,B|432:192|432:192|496:192|496:192|464:192,1,192,2|2,0:0|0:0,0:0:0:0:
336,224,97028,2,0,B|363:224|363:224|299:224|299:224|203:192,1,192,0|2,0:0|0:0,0:0:0:0:
288,96,97885,6,0,B|290:103|307:145|351:164,1,96,2|2,0:0|0:0,0:0:0:0:
224,96,98314,2,0,B|221:103|204:145|160:164,1,96,4|4,0:0|0:0,0:0:0:0:
368,160,98742,1,0,0:0:0:0:
144,224,98957,1,0,0:0:0:0:
352,224,99171,1,0,0:0:0:0:
160,160,99385,1,0,0:0:0:0:
256,64,99600,5,4,0:3:0:0:
64,64,99814,2,0,L|16:160,2,96,0|0|2,0:0|0:0|0:0,0:0:0:0:
256,320,100457,2,0,L|304:224,2,96,2|0|2,0:2|0:0|0:0,0:0:0:0:
64,320,101100,1,0,0:3:0:0:
288,80,101314,6,0,L|384:80,1,96,2|0,0:0|0:0,0:0:0:0:
256,128,101742,2,0,L|352:128,1,96,4|0,0:0|0:0,0:0:0:0:
224,176,102171,2,0,L|320:176,1,96,2|0,0:2|0:0,0:0:0:0:
192,224,102600,2,0,L|288:224,1,96,2|4,0:0|0:0,0:0:0:0:
448,320,103028,5,4,0:0:0:0:
256,320,103242,2,0,L|208:224,2,96,0|0|2,0:0|0:0|0:0,0:0:0:0:
448,64,103885,2,0,L|496:160,2,96,2|0|2,0:2|0:0|0:0,0:0:0:0:
256,64,104528,1,0,0:3:0:0:
96,304,104742,6,0,L|0:304,1,96,2|0,0:0|0:0,0:0:0:0:
128,256,105171,2,0,L|32:256,1,96,4|0,0:0|0:0,0:0:0:0:
160,208,105600,2,0,L|64:208,1,96,2|0,0:2|0:0,0:0:0:0:
192,160,106028,2,0,L|96:160,1,96,2|4,0:0|0:0,0:0:0:0:
288,96,106457,6,0,L|384:96,1,96,4|0,0:0|0:0,0:0:0:0:
464,160,106885,1,0,0:0:0:0:
224,96,107100,2,0,L|128:96,1,96,2|2,0:0|0:2,0:0:0:0:
48,160,107528,1,0,0:0:0:0:
353,299,107742,2,0,B|386:235|386:235|384:177,2,96,2|0|2,0:0|0:0|0:0,0:0:0:0:
158,299,108385,6,0,B|125:235|125:235|127:177,2,96,0|4|0,0:0|0:0|0:0,0:0:0:0:
320,368,109028,1,2,0:2:0:0:
192,16,109242,1,0,0:0:0:0:
288,103,109457,1,2,0:0:0:0:
224,280,109671,1,4,0:0:0:0:
96,256,109885,6,0,B|48:208|48:208|32:160,3,96,4|0|0|2,0:0|0:0|0:0|0:0,0:0:0:0:
256,64,110742,2,0,L|256:160,3,96,2|0|2|0,0:2|0:0|0:0|0:0,0:0:0:0:
416,256,111600,6,0,B|464:208|464:208|480:160,3,96,2|0|4|4,0:0|0:0|0:0|0:0,0:0:0:0:
368,160,112457,1,0,0:0:0:0:
144,224,112671,1,0,0:0:0:0:
352,224,112885,1,0,0:0:0:0:
160,160,113100,1,0,0:0:0:0:
256,192,113314,1,0,0:0:0:0:
48,192,116742,5,0,1:0:0:0:
256,192,116957,1,0,1:0:0:0:
464,192,117171,1,0,1:0:0:0:
86,218,118457,6,0,L|177:176,1,96,0|0,1:0|0:0,0:0:0:0:
317,28,119100,6,0,L|308:129,1,96,0|0,1:0|0:0,0:0:0:0:
366,325,119742,6,0,L|283:265,1,96,0|0,1:0|0:0,0:0:0:0:
112,352,120171,5,0,1:0:0:0:
400,352,120385,1,0,1:0:0:0:
256,48,120600,1,0,1:0:0:0:
336,112,121885,5,0,1:0:0:0:
480,160,122100,1,0,1:0:0:0:
304,288,122314,1,4,1:3:0:0:
176,112,122742,5,0,1:0:0:0:
32,160,122957,1,0,1:0:0:0:
208,288,123171,1,4,1:3:0:0:
464,192,123600,5,0,1:0:0:0:
256,192,123814,1,0,1:0:0:0:
48,192,124028,1,0,1:0:0:0:
199,253,125314,6,0,L|106:278,1,96,0|0,1:0|0:0,0:0:0:0:
338,211,125957,6,0,L|406:279,1,96,0|0,1:0|0:0,0:0:0:0:
232,111,126600,6,0,L|257:18,1,96,0|0,1:0|0:0,0:0:0:0:
400,352,127028,5,0,1:0:0:0:
112,352,127242,1,0,1:0:0:0:
256,48,127457,1,0,1:0:0:0:
208,288,128742,5,0,1:0:0:0:
32,160,128957,1,0,1:0:0:0:
176,112,129171,1,4,1:3:0:0:
304,288,129600,5,0,1:0:0:0:
480,160,129814,1,0,1:0:0:0:
336,112,130028,1,4,1:3:0:0:
256,192,130457,12,0,131957,0:0:0:0:
130,206,132171,5,4,0:3:0:0:
250,162,132385,1,4,0:3:0:0:
130,206,132600,2,0,L|64:26,1,192,4|8,0:3|0:3,0:0:0:0:
447,26,133242,1,4,0:2:0:0:
382,206,133885,5,4,0:3:0:0:
262,162,134100,1,4,0:3:0:0:
382,206,134314,2,0,L|448:26,1,192,4|8,0:3|0:3,0:0:0:0:
65,26,134957,1,4,0:2:0:0:
160,256,135600,5,4,0:3:0:0:
352,256,135814,1,4,0:3:0:0:
256,64,136028,2,0,L|256:256,1,192,4|8,0:3|0:3,0:0:0:0:
32,256,136671,1,4,0:2:0:0:
208,288,137314,6,0,B|144:208|192:176|192:176|128:160,2,192,4|4|8,0:3|0:3|0:3,0:0:0:0:
416,288,138385,1,4,0:3:0:0:
448,288,138600,1,2,2:2:0:0:
130,206,139028,5,4,0:3:0:0:
250,162,139242,1,4,0:3:0:0:
448,26,139457,2,0,L|382:206,1,192,4|8,0:3|0:3,0:0:0:0:
65,26,140100,1,4,0:2:0:0:
382,206,140742,5,4,0:3:0:0:
262,162,140957,1,4,0:3:0:0:
64,26,141171,2,0,L|130:206,1,192,4|8,0:3|0:3,0:0:0:0:
447,26,141814,1,4,0:2:0:0:
352,256,142457,5,4,0:3:0:0:
160,256,142671,1,4,0:3:0:0:
256,64,142885,2,0,L|256:256,1,192,4|8,0:3|0:3,0:0:0:0:
480,256,143528,1,4,0:2:0:0:
304,288,144171,6,0,B|368:208|320:176|320:176|384:160,1,192,4|4,0:3|0:3,0:0:0:0:
304,288,144600,2,0,B|368:208|320:176|320:176|384:160,2,192,4|0|8,0:3|0:3|0:3,0:0:0:0:
96,288,145242,1,4,0:0:0:0:
64,288,145457,1,2,2:2:0:0:
256,288,145671,1,0,2:0:0:0:
240,288,145885,5,4,1:3:0:0:
144,192,146100,1,4,0:3:0:0:
368,192,146314,2,0,B|464:192|464:192|464:288,1,192,4|8,0:3|0:3,0:0:0:0:
256,256,146957,1,4,0:2:0:0:
272,288,147600,5,4,1:3:0:0:
368,192,147814,1,4,0:3:0:0:
144,192,148028,2,0,B|48:192|48:192|48:288,1,192,4|8,0:3|0:3,0:0:0:0:
256,256,148671,1,4,0:2:0:0:
400,192,149314,5,4,0:3:0:0:
432,192,149528,1,4,0:3:0:0:
144,112,149742,2,0,B|48:112|32:128|32:144|80:224,1,192,4|8,0:3|0:3,0:0:0:0:
256,320,150385,1,4,0:2:0:0:
184,240,151028,6,0,L|88:240,1,96,4|4,0:3|0:3,0:0:0:0:
328,240,151457,2,0,L|424:240,1,96,4|8,0:3|0:3,0:0:0:0:
152,192,152100,1,4,0:0:0:0:
120,192,152314,1,2,2:2:0:0:
368,192,152742,5,4,0:3:0:0:
272,288,152957,1,4,1:3:0:0:
48,288,153171,2,0,B|48:192|48:192|144:192,1,192,4|8,0:3|0:3,0:0:0:0:
448,256,153814,1,4,0:2:0:0:
144,192,154457,5,4,0:3:0:0:
240,288,154671,1,4,1:3:0:0:
464,288,154885,2,0,B|464:192|464:192|368:192,1,192,4|8,0:3|0:3,0:0:0:0:
64,256,155528,1,4,0:2:0:0:
112,192,156171,5,4,0:3:0:0:
80,192,156385,1,4,0:3:0:0:
368,112,156600,2,0,B|464:112|480:128|480:144|432:224,1,192,4|8,0:3|0:3,0:0:0:0:
256,320,157242,1,4,0:2:0:0:
328,240,157885,6,0,L|424:240,1,96,4|4,0:3|0:3,0:0:0:0:
184,240,158314,2,0,L|88:240,1,96,4|0,0:3|0:0,0:0:0:0:
360,192,158742,1,8,0:3:0:0:
392,192,158957,1,4,0:0:0:0:
176,240,159171,2,0,L|160:192,1,48,0|0,0:0|0:0,0:0:0:0:
48,144,159385,2,0,L|64:192,1,48
256,192,159600,1,0,0:0:0:0:
88,232,161314,6,0,L|9:286,1,96,4|0,0:0|0:0,0:0:0:0:
256,288,161742,2,0,L|352:224,1,96,2|0,0:0|0:0,0:0:0:0:
239,106,162171,2,0,L|160:160,1,96,2|0,0:0|0:0,0:0:0:0:
408,160,162600,2,0,L|504:96,1,96,2|0,0:2|0:0,0:0:0:0:
472,288,163028,6,0,L|376:288,1,96,2|0,0:2|0:0,0:0:0:0:
232,160,163457,2,0,L|136:160,1,96,2|0,0:0|0:0,0:0:0:0:
376,160,163885,2,0,L|280:160,1,96,2|0,0:0|0:0,0:0:0:0:
136,288,164314,2,0,L|40:288,1,96,2|0,0:0|0:0,0:0:0:0:
192,384,164742,6,0,L|288:384,1,96,2|0,0:2|0:0,0:0:0:0:
448,256,165171,2,0,L|448:160,1,96,2|0,0:0|0:0,0:0:0:0:
320,0,165600,2,0,L|224:0,1,96,2|0,0:0|0:0,0:0:0:0:
64,128,166028,2,0,L|64:224,1,96,2|0,0:2|0:0,0:0:0:0:
346,373,166457,6,0,L|414:305,1,96,2|0,0:0|0:0,0:0:0:0:
437,101,166885,2,0,L|369:33,1,96,2|0,0:0|0:0,0:0:0:0:
165,10,167314,2,0,L|97:78,1,96,2|0,0:0|0:0,0:0:0:0:
74,282,167742,2,0,L|142:350,1,96,2|0,0:0|0:0,0:0:0:0:
320,256,168171,6,0,L|416:192,2,96,4|0|2,0:0|0:0|0:0,0:0:0:0:
96,192,168814,1,0,0:0:0:0:
288,128,169028,2,0,L|384:192,2,96,2|0|2,0:0|0:2|0:2,0:0:0:0:
64,192,169671,1,0,0:0:0:0:
192,256,169885,6,0,L|96:192,2,96,2|0|2,0:2|0:0|0:0,0:0:0:0:
416,192,170528,1,0,0:0:0:0:
224,128,170742,2,0,L|128:192,2,96,2|0|2,0:0|0:0|0:0,0:0:0:0:
448,192,171385,1,0,0:0:0:0:
352,256,171600,6,0,B|288:256|288:256|288:224,1,96,2|0,0:2|0:0,0:0:0:0:
160,256,172028,2,0,B|224:256|224:256|224:224,1,96,2|0,0:0|0:0,0:0:0:0:
384,128,172457,2,0,B|320:128|320:128|320:160,1,96,2|0,0:0|0:0,0:0:0:0:
128,128,172885,2,0,B|192:128|192:128|192:160,1,96,2|0,0:2|0:0,0:0:0:0:
320,192,173314,6,0,L|464:192,1,144,2|2,0:0|0:0,0:0:0:0:
320,192,173850,2,0,L|353:225,1,48,2|2,0:0|0:0,0:0:0:0:
80,192,174171,1,0,0:0:0:0:
40,88,175028,6,0,P|128:40|232:56,1,192,4|4,0:3|0:3,0:0:0:0:
328,200,175671,1,4,0:3:0:0:
144,240,175885,1,8,0:3:0:0:
472,296,176314,2,0,P|384:344|280:328,1,192
184,200,177171,5,4,0:3:0:0:
368,240,177385,1,4,0:3:0:0:
296,48,177600,1,8,0:3:0:0:
120,120,178028,1,0,0:0:0:0:
436,328,178457,6,0,B|388:256|388:256|332:248,2,144,4|4|4,0:3|0:3|0:3,0:0:0:0:
180,248,179314,2,0,B|124:256|124:256|76:328,1,144,8|0,0:3|0:0,0:0:0:0:
392,120,180171,5,4,0:3:0:0:
208,352,180600,2,0,L|304:352,1,96,4|4,0:3|0:3,0:0:0:0:
160,228,181028,2,0,L|352:228,1,192,8|8,0:3|0:3,0:0:0:0:
228,68,181885,5,4,0:3:0:0:
60,160,182314,1,4,0:3:0:0:
60,160,182528,1,4,0:3:0:0:
248,192,182742,2,0,L|52:192,1,192,8|0,0:3|0:0,0:0:0:0:
284,316,183600,5,0,0:0:0:0:
452,224,184028,1,4,0:3:0:0:
452,224,184242,1,4,0:3:0:0:
264,192,184457,2,0,L|460:192,1,192,8|0,0:3|0:0,0:0:0:0:
177,15,185314,5,4,0:3:0:0:
448,212,185635,1,4,0:3:0:0:
142,348,185957,1,4,0:3:0:0:
316,268,186171,2,0,P|372:184|296:136,1,192,8|0,0:3|0:0,0:0:0:0:
196,268,187028,6,0,P|140:184|216:136,1,192,4|4,0:3|0:3,0:0:0:0:
64,212,187671,1,4,0:3:0:0:
370,348,187885,1,8,0:3:0:0:
335,15,188314,1,8,0:3:0:0:
180,364,188742,6,0,L|124:180,1,192,4|4,0:3|0:3,0:0:0:0:
320,192,189385,1,4,0:3:0:0:
124,180,189600,2,0,L|68:364,1,192,8|0,0:3|0:0,0:0:0:0:
312,68,190457,5,0,0:0:0:0:
68,364,190885,2,0,L|156:328,1,96,4|4,0:3|0:3,0:0:0:0:
348,296,191314,2,0,P|324:216|220:216,1,192,8|0,0:3|0:0,0:0:0:0:
20,192,192171,6,0,L|164:192,2,144,4|4|4,0:3|0:3|0:3,0:0:0:0:
300,192,193028,1,8,0:3:0:0:
212,192,193457,1,0,0:0:0:0:
492,192,193885,6,0,L|348:192,1,144,4|4,0:3|0:3,0:0:0:0:
256,120,194528,1,4,0:3:0:0:
408,104,194742,1,8,0:3:0:0:
104,104,195171,1,8,0:3:0:0:
332,364,195600,6,0,L|388:180,1,192,4|4,0:3|0:3,0:0:0:0:
192,192,196242,1,4,0:3:0:0:
388,180,196457,2,0,L|444:364,1,192,8|0,0:3|0:0,0:0:0:0:
200,68,197314,5,0,0:0:0:0:
444,364,197742,2,0,L|356:328,1,96,4|4,0:3|0:3,0:0:0:0:
164,296,198171,2,0,P|188:216|292:216,1,192,8|0,0:3|0:0,0:0:0:0:
368,48,199028,5,4,0:3:0:0:
296,48,199171,1,0,0:0:0:0:
216,48,199314,1,0,0:0:0:0:
144,336,199457,5,4,0:3:0:0:
216,336,199600,1,0,0:0:0:0:
296,336,199742,1,0,0:0:0:0:
368,336,199885,5,4,0:3:0:0:
296,336,200028,1,0,0:0:0:0:
216,336,200171,1,0,0:0:0:0:
144,48,200314,5,4,0:3:0:0:
216,48,200457,1,0,0:0:0:0:
296,48,200600,1,0,0:0:0:0:
184,144,200742,6,0,L|344:144,3,144,0|0|0|4,0:0|0:0|0:0|0:0,0:0:0:0:
