osu file format v7

[General]
AudioFilename: Vangelis - Chariots of Fire.mp3
AudioLeadIn: 0
PreviewTime: 98027
Countdown: 0
SampleSet: Soft
StackLeniency: 0.7
Mode: 0
LetterboxInBreaks: 1

[Editor]
DistanceSpacing: 1
BeatDivisor: 8
GridSize: 8

[Metadata]
Title:Chariots Of Fire
Artist:Vangelis
Creator:osuplayer111
Version:Normal
Source:
Tags:

[Difficulty]
HPDrainRate:5
CircleSize:5
OverallDifficulty:5
SliderMultiplier:1.4
SliderTickRate:2

[Events]
//Background and Video events
0,0,"ch7ib.jpg"
//Break Periods
2,47037,61910
//Storyboard Layer 0 (Background)
//Storyboard Layer 1 (Fail)
//Storyboard Layer 2 (Pass)
//Storyboard Layer 3 (Foreground)
//Storyboard Sound Samples
//Background Colour Transformations
3,100,163,162,255

[TimingPoints]
22210,439.785970827531,4,2,1,70,1,0
22649,-100,4,2,1,50,0,0
29026,-100,4,2,1,70,0,0
29466,-100,4,2,1,50,0,0
34524,-100,4,2,1,70,0,0
46838,-100,4,2,1,50,0,0
62670,-100,4,2,1,70,0,0
69596,-100,4,2,1,50,0,0
69816,-100,4,2,1,70,0,0
75424,-100,4,2,1,50,0,0
76523,-100,4,2,1,70,0,0
83560,-100,4,2,1,50,0,0
83999,-100,4,2,1,70,0,0
89827,-100,4,2,1,50,0,0
90875,439.785970827531,4,2,1,70,1,0
99700,441.175970827531,4,2,1,70,1,0
100361,-100,4,1,1,50,0,0
100802,-100,4,2,1,70,0,0
105035,439.71597082753,4,2,1,70,1,0
106793,441.175970827531,4,2,1,70,1,0
119145,-100,4,2,1,0,0,0

[Colours]
Combo1 : 240,5,5
Combo2 : 255,255,255
Combo3 : 5,5,240

[HitObjects]
256,192,22209,1,4
56,40,22869,6,0,B|128:40,1,70,0|8
56,40,23309,2,0,B|56:128,1,70
456,344,24628,6,0,B|384:344,1,70,0|8
456,344,25068,2,0,B|456:256,1,70
256,192,26387,6,0,B|256:120,1,70,0|8
256,192,26827,2,0,B|256:272,1,70
256,48,28147,5,0
256,48,28367,2,0,B|312:112|248:192,1,140,8|0
256,336,29246,5,2
48,192,29906,5,0
48,192,30126,1,8
48,192,30346,1,0
48,192,30565,1,0
464,192,31665,5,0
464,192,31885,1,8
464,192,32105,1,0
464,192,32325,1,0
256,344,33424,5,0
256,344,33644,1,8
256,344,33864,1,0
256,344,34084,1,0
128,40,34963,5,2
256,88,35403,1,0
256,88,35733,2,0,B|256:160,1,70,2|0
256,264,36283,1,2
472,88,37162,1,2
40,88,38482,6,0,B|104:160|24:240,1,140,2|0
40,320,39251,1,2
40,320,39471,1,0
136,272,39801,1,2
400,192,40681,1,0
256,56,42000,5,2
120,88,42440,1,0
40,160,42769,2,0,B|3:195|56:238,1,70,2|0
120,288,43319,1,2
400,288,44199,1,2
256,56,45518,5,2
256,192,45958,1,0
328,272,46288,2,0,B|408:336,2,87.5,2|0|0
56,192,63110,6,0,B|128:232|200:184,1,140,2|0
256,112,63879,1,0
320,48,64154,2,0,B|424:48,1,87.5,2|0
408,248,65089,2,0,B|328:248,1,70,0|2
144,336,65968,1,0
72,336,66188,1,2
72,128,66848,5,0
176,128,67178,2,0,B|272:128,2,87.5
176,200,67947,1,2
440,344,68827,2,0,B|480:280,2,70,8|0|0
304,352,69706,1,0
256,240,70146,5,2
128,192,70586,2,0,B|128:88,2,87.5,0|2|0
128,296,71466,1,2
256,96,72125,1,0
256,96,72345,1,2
256,304,73005,1,0
256,304,73225,1,2
448,248,73884,5,2
488,192,74104,2,0,B|448:80,1,105
368,64,74709,1,0
368,64,74984,1,2
152,56,75644,2,0,B|80:112,1,70,0|8
152,56,76083,2,0,B|216:104,1,70
344,336,77183,5,2
256,232,77623,2,0,B|136:232,2,105,0|2|0
328,232,78502,1,2
256,32,79162,1,0
256,32,79382,1,2
64,120,80041,1,0
64,120,80261,6,0,B|16:184|72:256,2,140,0|2|0
144,48,81471,1,2
192,120,81746,1,0
192,120,82020,1,2
424,296,82900,2,0,B|504:296,2,70,8|0|0
280,296,83780,1,0
160,280,84219,6,0,B|72:256|80:160,1,140,2|0
152,104,84989,1,0
232,128,85264,1,0
232,128,85539,1,2
400,288,86198,1,0
400,288,86418,1,2
192,336,87078,1,0
192,336,87353,1,2
256,208,87958,12,8,89937
152,288,91314,5,2
256,192,91754,2,0,B|256:80,1,105,0|0
336,48,92359,1,0
440,48,92689,2,0,B|512:112|512:216|448:296,1,262.5,2|0
160,304,94393,5,2
48,224,94833,1,0
160,136,95272,2,0,B|216:96|264:144,2,105,2|0|0
104,96,96152,1,2
256,328,97032,1,2
408,96,97911,1,2
256,192,98351,5,0
120,192,98791,2,0,B|8:192,2,105,2|0|0
184,216,99700,1,2
464,192,100582,1,4
256,208,101905,12,2,104111
256,352,105474,5,2
344,232,105914,2,0,B|344:120,1,105
256,104,106519,1,0
256,104,106794,1,2
64,272,107675,1,2
344,272,108558,1,2
464,192,108999,5,0
360,88,109440,2,0,B|320:48|248:48,1,105
160,48,110102,1,0
160,48,110322,1,2
56,304,111205,1,2
312,192,112087,1,2
176,192,112528,5,0
232,320,112969,2,0,B|352:344,2,105
160,320,113852,1,2
56,64,114734,1,2
472,192,116058,5,0
336,192,116499,1,2
256,208,117381,12,0,119146
