osu file format v7

[General]
AudioFilename: Vangelis - Chariots of Fire.mp3
AudioLeadIn: 0
PreviewTime: 98027
Countdown: 0
SampleSet: Soft
StackLeniency: 0.7
Mode: 0
LetterboxInBreaks: 1

[Editor]
DistanceSpacing: 1
BeatDivisor: 4
GridSize: 8

[Metadata]
Title:Chariots Of Fire
Artist:Vangelis
Creator:osuplayer111
Version:Easy
Source:
Tags:

[Difficulty]
HPDrainRate:2
CircleSize:4
OverallDifficulty:2
SliderMultiplier:0.8
SliderTickRate:1

[Events]
//Background and Video events
0,0,"ch7ib.jpg"
//Break Periods
2,47147,61550
//Storyboard Layer 0 (Background)
//Storyboard Layer 1 (Fail)
//Storyboard Layer 2 (Pass)
//Storyboard Layer 3 (Foreground)
//Storyboard Sound Samples
//Background Colour Transformations
3,100,163,162,255

[TimingPoints]
22210,439.785970827531,4,2,1,70,1,0
22649,-100,4,2,1,50,0,0
29026,-100,4,2,1,70,0,0
29466,-100,4,2,1,50,0,0
34524,-100,4,2,1,70,0,0
46838,-100,4,2,1,50,0,0
62670,-100,4,2,1,70,0,0
69596,-100,4,2,1,50,0,0
69816,-100,4,2,1,70,0,0
75424,-100,4,2,1,50,0,0
76523,-100,4,2,1,70,0,0
83560,-100,4,2,1,50,0,0
83999,-100,4,2,1,70,0,0
89827,-100,4,2,1,50,0,0
90875,439.785970827531,4,2,1,70,1,0
99700,441.175970827531,4,2,1,70,1,0
100361,-100,4,1,1,50,0,0
100802,-100,4,2,1,70,0,0
105035,439.71597082753,4,2,1,70,1,0
106793,441.175970827531,4,2,1,70,1,0
115506,-100,4,2,1,0,0,0
115726,-100,4,2,1,70,0,0
119145,-100,4,2,1,0,0,0

[Colours]
Combo1 : 240,5,5
Combo2 : 255,255,255
Combo3 : 5,5,240

[HitObjects]
256,192,22209,1,4
48,192,22869,6,0,B|-8:192,3,40,0|8|0|0
464,192,24628,2,0,B|512:192,3,40,0|8|0|0
256,56,26387,6,0,B|256:0,3,40,0|8|0|0
256,328,28147,2,0,B|256:384,3,40,0|8|0|0
256,192,29246,5,2
184,96,29906,6,0,B|136:96,3,40,0|8|0|0
184,288,31665,2,0,B|128:288,3,40,0|8|0|0
320,192,33424,2,0,B|368:192,3,40,0|8|0|0
200,192,34963,5,2
160,264,35403,2,0,B|128:312,2,40,0|2|0
160,264,36283,1,2
312,312,37162,1,2
472,128,38482,5,2
400,88,38921,1,0
400,32,39251,2,0,B|344:32,1,40,2|0
296,32,39801,1,2
256,184,40681,1,0
48,304,42000,5,2
128,328,42440,2,0,B|184:328,2,40,0|2|0
128,328,43319,1,2
160,168,44199,1,2
376,72,45518,5,2
432,128,45958,2,0,B|480:184,1,60,0|2
472,232,46618,2,0,B|472:296,1,60,0|0
256,192,63110,5,2
192,152,63549,1,0
256,112,63989,1,0
320,152,64429,1,2
328,312,65309,2,0,B|256:360|176:312,1,160,2|2
88,232,66848,6,0,B|56:184,3,40,2|0|0|0
112,136,67947,1,2
192,48,68607,1,0
192,48,68827,2,0,B|272:8|360:56,1,160,2|0
416,56,70146,5,2
472,112,70586,1,0
416,168,71026,1,0
464,232,71466,1,2
376,312,72125,1,0
376,312,72345,1,2
256,288,73005,1,0
256,288,73225,1,2
144,312,73884,5,0
144,312,74104,1,2
256,288,74764,1,0
256,288,74984,1,2
256,168,75644,2,0,B|256:112,3,40,0|8|0|0
112,192,77183,6,0,B|24:192,1,80,2|0
112,192,78062,2,0,B|112:96,1,80,0|2
216,56,79162,1,0
216,56,79382,1,2
296,144,80041,1,0
296,144,80261,1,2
256,216,80701,6,0,B|256:304,2,80,2|0|0
256,216,81801,1,0
256,216,82020,1,2
368,104,82900,2,0,B|424:104,2,40,2|0|0
296,64,83780,1,0
256,120,84219,6,0,B|160:120,1,80,2|0
112,168,85099,1,0
112,168,85539,1,2
144,288,86198,1,0
144,288,86418,1,2
256,240,87078,1,0
256,240,87298,1,2
256,208,87958,12,8,89937
88,192,91314,5,2
64,112,91754,2,0,B|40:40,2,60,0|2|0
64,112,92634,1,2
208,40,93513,2,0,B|304:40,1,80
360,72,94393,6,0,B|432:136|360:216,1,160,2|2
152,312,96152,2,0,B|80:248|152:168,1,160,2|2
280,24,97911,1,2
256,112,98351,5,0
328,144,98791,2,0,B|392:144,1,60,2|0
448,144,99450,1,0
448,144,99700,1,2
400,280,100582,1,4
256,208,101905,12,2,104111
384,56,105475,5,0
424,120,105915,1,2
384,184,106355,1,0
384,256,106793,2,0,B|336:320|224:328,1,160,2|2
88,296,108558,1,2
48,224,108999,6,0,B|32:136,1,80,0|2
72,80,109881,1,0
72,80,110322,2,0,B|240:48,1,160,2|2
256,208,112087,1,2
256,288,112528,6,0,B|336:328,1,80,0|2
408,304,113411,2,0,B|464:232,1,80,0|2
400,88,114734,2,0,B|320:32|240:96,1,160,2|0
256,176,116058,5,0
256,176,116499,1,2
256,208,117381,12,0,119146
