osu file format v12

[General]
AudioFilename: Niump3.mp3
AudioLeadIn: 2000
PreviewTime: 67714
Countdown: 0
SampleSet: Soft
StackLeniency: 0.7
Mode: 0
LetterboxInBreaks: 0

[Editor]
DistanceSpacing: 1.2
BeatDivisor: 4
GridSize: 4

[Metadata]
Title:Solving Secrets
TitleUnicode:Solving Secrets
Artist:Vandera
ArtistUnicode:Vandera
Creator:RikiH_
Version:Challenging
Source:
Tags:liquid drum and bass dnb liquicity
BeatmapID:234071
BeatmapSetID:83286

[Difficulty]
HPDrainRate:6
CircleSize:4
OverallDifficulty:7
ApproachRate:8
SliderMultiplier:1.3
SliderTickRate:1

[Events]
//Background and Video events
0,0,"speed_painting_crater_city_2_by_antifan_real-d5u7yus.jpg",0,0
//Break Periods
2,135282,143104
2,157738,166613
2,168966,177841
//Storyboard Layer 0 (Background)
//Storyboard Layer 1 (Fail)
//Storyboard Layer 2 (Pass)
//Storyboard Layer 3 (Foreground)
//Storyboard Sound Samples
//Background Colour Transformations
3,100,255,255,255

[TimingPoints]
346,350.877192982456,4,2,0,30,1,0
45258,-100,4,1,0,50,0,1
45345,-100,4,2,0,50,0,0
67714,-100,4,1,0,50,0,1
67802,-100,4,2,0,50,0,1
78240,-100,4,2,0,50,0,0
78942,-100,4,2,0,50,0,1
90170,-100,4,2,0,50,0,0
111574,-100,4,1,0,35,0,0
112626,-100,4,2,0,50,0,1
112714,-100,4,2,0,50,0,0
123854,-100,4,2,0,50,0,1
123942,-100,4,2,0,50,0,0
135082,-100,4,1,0,50,0,0
135170,-100,4,2,0,50,0,0
157538,-80,4,2,0,50,0,1
157626,-133.333333333333,4,2,0,50,0,0
168767,-200,4,2,0,50,0,1
168854,-200,4,2,0,50,0,0
178591,-100,4,2,0,50,0,0
191223,-100,4,2,0,50,0,1
202363,-100,4,2,0,50,0,0
202451,-100,4,2,0,50,0,1
202538,-100,4,1,0,50,0,0

[Colours]
Combo1 : 255,95,17
Combo2 : 193,13,58
Combo3 : 28,108,181
Combo4 : 51,230,176

[HitObjects]
424,56,346,2,0,P|464:120|452:172,1,130,4|2,0:0|0:0,0:0:0:0:
424,244,872,2,0,L|448:296,2,32.5,0|0|0,0:0|0:0|0:0,0:0:0:0:
356,208,1223,1,0,0:0:0:0:
316,276,1398,2,0,L|248:280,1,65,2|0,0:0|0:0,0:0:0:0:
188,232,1749,6,0,P|172:272|180:304,2,65,0|0|2,0:0|0:0|0:0,0:0:0:0:
108,100,2451,2,0,L|84:32,1,65,2|0,0:0|0:0,0:0:0:0:
164,40,2802,2,0,L|188:108,1,65,2|0,0:0|0:0,0:0:0:0:
264,108,3153,2,0,L|242:46,1,65,0|0,0:0|0:0,0:0:0:0:
319,47,3504,2,0,L|340:108,1,65,2|0,0:0|0:0,0:0:0:0:
404,152,3854,6,0,L|472:168,1,65
424,232,4205,2,0,L|484:272,1,65,2|0,0:0|0:0,0:0:0:0:
420,320,4556,1,0,0:0:0:0:
348,348,4731,2,0,L|316:352,2,32.5,0|0|2,0:0|0:0|0:0,0:0:0:0:
332,272,5082,1,0,0:0:0:0:
256,256,5258,6,0,B|184:256|184:256|112:344|112:344|32:344,2,260,4|2|0,0:0|0:0|0:0,0:0:0:0:
176,120,7012,1,2,0:0:0:0:
336,120,7363,2,0,L|400:120,2,65,0|0|2,0:0|0:0|0:0,0:0:0:0:
256,256,8065,6,0,L|256:116,1,130,4|0,0:0|0:0,0:0:0:0:
256,48,8591,1,0,0:0:0:0:
188,88,8767,2,0,P|120:120|64:108,1,130,0|2,0:0|0:0,0:0:0:0:
28,272,9468,2,0,P|96:240|152:252,1,130,0|2,0:0|0:0,0:0:0:0:
280,332,10170,6,0,L|348:348,1,65,2|0,0:0|0:0,0:0:0:0:
336,268,10521,2,0,L|416:256,1,65,2|0,0:0|0:0,0:0:0:0:
364,188,10872,2,0,L|424:152,1,65,2|0,0:0|0:0,0:0:0:0:
360,104,11223,2,0,L|400:52,1,65,2|2,0:0|0:0,0:0:0:0:
324,28,11574,6,0,B|280:84|280:84|212:84,1,130,4|2,0:0|0:0,0:0:0:0:
156,44,12100,1,0,0:0:0:0:
88,84,12275,2,0,L|32:128,1,65
52,204,12626,2,0,L|108:160,1,65,2|0,0:0|0:0,0:0:0:0:
172,124,12977,6,0,P|240:144|272:192,1,130,0|2,0:0|0:0,0:0:0:0:
384,300,13679,2,0,P|328:352|272:352,1,130,2|2,0:0|0:0,0:0:0:0:
204,324,14205,1,0,0:0:0:0:
144,276,14381,2,0,P|132:240|140:208,1,65
204,176,14731,2,0,P|216:212|208:244,1,65,2|0,0:0|0:0,0:0:0:0:
137,214,15082,2,0,P|125:178|133:146,1,65
198,114,15433,2,0,P|210:150|202:182,1,65,2|0,0:0|0:0,0:0:0:0:
258,234,15784,5,0,0:0:0:0:
310,290,15960,2,0,L|342:290,2,32.5,0|0|2,0:0|0:0|0:0,0:0:0:0:
258,350,16310,1,0,0:0:0:0:
208,292,16486,2,0,P|148:304|64:152,2,260,4|2|0,0:0|0:0|0:0,0:0:0:0:
256,168,18240,1,2,0:0:0:0:
320,24,18591,6,0,B|256:40|256:40|192:24,1,130,0|2,0:0|0:0,0:0:0:0:
76,128,19293,2,0,B|60:192|60:192|75:254,1,130,4|2,0:0|0:0,0:0:0:0:
132,308,19819,1,0,0:0:0:0:
204,336,19995,2,0,P|212:296|196:260,1,65
180,200,20345,6,0,P|172:160|188:124,1,65,2|0,0:0|0:0,0:0:0:0:
252,168,20696,2,0,P|268:136|292:120,1,65
324,192,21047,2,0,P|360:168|388:168,1,65,2|0,0:0|0:0,0:0:0:0:
384,244,21398,5,0,0:0:0:0:
404,88,21749,1,2,0:0:0:0:
248,68,22100,1,0,0:0:0:0:
228,224,22451,1,2,0:0:0:0:
384,244,22802,6,0,P|448:272|472:324,2,130,4|8|2,0:0|0:0|0:0,0:0:0:0:
256,336,23854,1,0,0:0:0:0:
128,244,24205,2,0,P|64:272|40:324,2,130,0|8|2,0:0|0:0|0:0,0:0:0:0:
256,156,25258,1,0,0:0:0:0:
356,36,25609,6,0,B|388:68|388:68|388:156,2,130,0|8|2,0:0|0:0|0:0,0:0:0:0:
256,156,26661,1,0,0:0:0:0:
156,36,27012,2,0,B|124:68|124:68|124:156,1,130,0|8,0:0|0:0,0:0:0:0:
140,308,27714,2,0,P|272:356|384:296,2,260,4|2|0,0:0|0:0|0:0,0:0:0:0:
36,192,29468,1,0,0:0:0:0:
148,80,29819,6,0,B|180:68|180:68|244:68|244:68|276:56,2,130,0|8|2,0:0|0:0|0:0,0:0:0:0:
256,192,30872,1,0,0:0:0:0:
364,304,31223,2,0,B|332:316|332:316|268:316|268:316|236:328,2,130,0|8|2,0:0|0:0|0:0,0:0:0:0:
256,192,32276,1,0,0:0:0:0:
104,152,32626,6,0,L|72:156,3,32.5,4|0|0|0,0:0|0:0|0:0|0:0,0:0:0:0:
48,188,32977,2,0,L|16:192,3,32.5,2|0|0|0,0:0|0:0|0:0|0:0,0:0:0:0:
12,232,33328,2,0,L|16:264,3,32.5
48,288,33679,2,0,L|52:320,3,32.5,2|0|0|0,0:0|0:0|0:0|0:0,0:0:0:0:
84,340,34030,6,0,L|220:320,1,130,6|2,0:0|0:0,0:0:0:0:
292,344,34556,1,0,0:0:0:0:
368,320,34731,1,0,0:0:0:0:
412,256,34907,1,0,0:0:0:0:
400,180,35082,1,2,0:0:0:0:
400,100,35258,6,0,P|392:140|324:192,1,130,0|0,0:0|0:0,0:0:0:0:
344,44,35784,2,0,L|281:25,1,65,2|0,0:0|0:0,0:0:0:0:
228,84,36135,2,0,L|290:102,2,65,0|0|2,0:0|0:0|0:0,0:0:0:0:
164,36,36661,6,0,P|120:88|56:88,1,130,0|0,0:0|0:0,0:0:0:0:
24,160,37188,2,0,P|12:196|20:232,1,65,2|0,0:0|0:0,0:0:0:0:
60,288,37538,2,0,P|96:300|132:292,1,65,0|0,0:0|0:0,0:0:0:0:
192,260,37889,1,2,0:0:0:0:
228,188,38065,1,0,0:0:0:0:
196,116,38240,1,0,0:0:0:0:
128,76,38416,2,0,L|88:64,2,32.5,0|0|2,0:0|0:0|0:0,0:0:0:0:
124,156,38767,1,0,0:0:0:0:
64,208,38942,6,0,B|16:260|16:260|9:322|70:340|70:340|116:301|164:336,2,260,4|0|0,0:0|0:0|0:0,0:0:0:0:
124,156,40521,1,0,0:0:0:0:
200,144,40696,1,2,0:0:0:0:
176,220,40872,2,0,P|204:256|292:252,1,130
332,320,41398,6,0,P|359:283|360:252,1,65,2|0,0:0|0:0,0:0:0:0:
437,246,41749,2,0,P|421:210|390:191,1,65
325,168,42100,2,0,P|332:152|368:124,1,65,2|0,0:0|0:0,0:0:0:0:
424,72,42451,5,0,0:0:0:0:
348,48,42626,1,0,0:0:0:0:
272,40,42802,2,0,L|208:44,1,65,2|0,0:0|0:0,0:0:0:0:
172,120,43153,2,0,L|236:116,1,65,0|0,0:0|0:0,0:0:0:0:
204,192,43503,2,0,L|140:196,1,65,2|0,0:0|0:0,0:0:0:0:
64,216,43854,6,0,B|44:260|44:260|92:296|68:356|68:356|160:364|180:304|180:304|240:296|280:336|280:336,1,390,4|2,0:0|0:0,0:0:0:0:
336,280,45082,1,2,0:0:0:0:
400,328,45258,6,0,P|413:257|376:208,1,130,4|8,0:0|0:0,0:0:0:0:
324,160,45784,1,0,0:0:0:0:
378,103,45960,2,0,P|414:82|434:61,1,65
373,10,46310,1,8,0:0:0:0:
300,36,46486,2,0,P|247:62|186:35,1,130,2|0,0:0|0:0,0:0:0:0:
112,60,47012,6,0,L|48:84,1,65,8|0,0:0|0:0,0:0:0:0:
48,160,47363,2,0,L|112:136,1,65,0|0,0:0|0:0,0:0:0:0:
184,160,47714,1,8,0:0:0:0:
244,208,47889,2,0,B|222:238|230:273|230:273|208:301|216:344,1,130,2|0,0:0|0:0,0:0:0:0:
136,344,48416,6,0,L|68:348,1,65,8|0,0:0|0:0,0:0:0:0:
40,276,48767,2,0,L|108:272,1,65
140,204,49117,1,8,0:0:0:0:
68,172,49293,2,0,P|44:104|70:57,1,130,2|0,0:0|0:0,0:0:0:0:
120,116,49819,6,0,L|180:80,1,65,8|0,0:0|0:0,0:0:0:0:
252,108,50170,2,0,P|260:156|288:184,1,65
345,183,50521,2,0,P|337:135|309:107,1,65,8|0,0:0|0:0,0:0:0:0:
372,60,50872,6,0,B|420:32|420:32|444:80|496:72,1,130,0|8,0:0|0:0,0:0:0:0:
504,148,51398,1,0,0:0:0:0:
464,216,51574,2,0,L|404:240,1,65
364,308,51924,1,8,0:0:0:0:
316,244,52100,6,0,P|252:204|202:214,1,130,2|0,0:0|0:0,0:0:0:0:
129,241,52626,2,0,P|122:217|132:180,1,65,8|0,0:0|0:0,0:0:0:0:
128,320,52977,2,0,P|135:344|125:381,2,65,0|0|8,0:0|0:0|0:0,0:0:0:0:
60,280,53503,6,0,P|16:216|20:166,1,130,2|0,0:0|0:0,0:0:0:0:
40,92,54030,2,0,L|72:28,1,65,8|0,0:0|0:0,0:0:0:0:
132,80,54381,2,0,B|112:120|112:120|124:168|184:164,1,130,0|8,0:0|0:0,0:0:0:0:
236,112,54907,2,0,B|256:72|256:72|244:24|184:28,1,130,2|0,0:0|0:0,0:0:0:0:
132,80,55433,6,0,L|68:124,1,65,8|0,0:0|0:0,0:0:0:0:
32,180,55784,1,0,0:0:0:0:
36,260,55960,2,0,P|48:296|68:316,1,65,0|8,0:0|0:0,0:0:0:0:
136,348,56310,1,0,0:0:0:0:
208,320,56486,6,0,B|256:304|256:304|276:255|330:253,1,130,4|8,0:0|0:0,0:0:0:0:
332,332,57012,1,0,0:0:0:0:
408,312,57188,2,0,P|464:268|448:204,1,130,0|8,0:0|0:0,0:0:0:0:
488,144,57714,2,0,P|408:176|360:144,1,130,2|0,0:0|0:0,0:0:0:0:
320,104,58240,6,0,L|292:44,1,65,8|0,0:0|0:0,0:0:0:0:
228,92,58591,2,0,L|200:32,1,65,0|0,0:0|0:0,0:0:0:0:
124,16,58942,1,8,0:0:0:0:
76,76,59117,2,0,P|32:140|48:204,1,130,2|0,0:0|0:0,0:0:0:0:
84,252,59644,6,0,L|100:316,1,65,8|0,0:0|0:0,0:0:0:0:
168,276,59995,2,0,L|184:340,1,65,0|0,0:0|0:0,0:0:0:0:
256,312,60345,1,8,0:0:0:0:
336,316,60521,2,0,P|303:246|252:231,1,130,2|0,0:0|0:0,0:0:0:0:
188,196,61047,6,0,P|141:180|108:110,1,130,8|0,0:0|0:0,0:0:0:0:
188,116,61574,1,0,0:0:0:0:
228,48,61749,2,0,L|304:32,1,65,8|0,0:0|0:0,0:0:0:0:
368,56,62100,6,0,B|372:88|372:88|400:144|400:144|404:180,1,130,0|8,0:0|0:0,0:0:0:0:
464,228,62626,1,0,0:0:0:0:
500,300,62802,2,0,L|428:312,1,65
400,380,63153,2,0,L|332:352,1,65,8|0,0:0|0:0,0:0:0:0:
304,288,63503,6,0,P|288:220|304:160,1,130,0|8,0:0|0:0,0:0:0:0:
358,107,64030,2,0,P|258:131|216:107,1,130,0|0,0:0|0:0,0:0:0:0:
176,73,64556,1,8,0:0:0:0:
256,192,64907,12,2,67363,0:0:0:0:
256,192,67714,6,0,P|192:164|184:96,1,130,4|8,0:0|0:0,0:0:0:0:
256,116,68240,2,0,L|296:92,2,32.5
216,48,68591,1,0,0:0:0:0:
140,24,68767,2,0,B|112:24|112:24|108:28|108:28|72:28,1,65,8|0,0:0|0:0,0:0:0:0:
32,92,69117,6,0,L|20:232,1,130,4|8,0:0|0:0,0:0:0:0:
20,300,69644,2,0,P|68:224|164:248,1,195,0|8,0:0|0:0,0:0:0:0:
208,304,70345,1,0,0:0:0:0:
256,240,70521,6,0,L|368:168,1,130,4|8,0:0|0:0,0:0:0:0:
436,204,71047,2,0,P|388:136|448:56,1,195,0|8,0:0|0:0,0:0:0:0:
464,132,71749,1,0,0:0:0:0:
436,204,71924,6,0,P|408:264|436:340,1,130,0|8,0:0|0:0,0:0:0:0:
352,356,72451,1,0,0:0:0:0:
280,324,72626,2,0,P|294:264|266:204,1,130,0|8,0:0|0:0,0:0:0:0:
292,128,73153,1,0,0:0:0:0:
352,79,73328,6,0,P|288:51|228:83,1,130,4|8,0:0|0:0,0:0:0:0:
160,52,73854,2,0,L|116:40,2,32.5
152,128,74205,1,0,0:0:0:0:
76,152,74381,2,0,L|20:192,1,65,8|0,0:0|0:0,0:0:0:0:
64,256,74731,6,0,P|72:312|148:324,1,130,4|8,0:0|0:0,0:0:0:0:
212,356,75258,2,0,P|168:304|220:200,1,195,0|8,0:0|0:0,0:0:0:0:
284,240,75960,1,0,0:0:0:0:
344,192,76135,6,0,L|400:64,1,130,4|8,0:0|0:0,0:0:0:0:
320,60,76661,2,0,L|432:224,1,195,0|8,0:0|0:0,0:0:0:0:
368,272,77363,1,0,0:0:0:0:
416,332,77538,6,0,L|480:336,2,65,0|0|8,0:0|0:0|0:0,0:0:0:0:
336,344,78065,2,0,L|296:352,1,32.5
268,336,78240,2,0,B|236:328|236:328|204:344|204:344|156:336,2,97.5,2|0|2,0:0|0:0|0:0,0:0:0:0:
304,268,78942,6,0,L|340:128,1,130,4|8,0:0|0:0,0:0:0:0:
260,148,79468,2,0,L|248:196,2,32.5
252,72,79819,1,0,0:0:0:0:
188,28,79995,2,0,L|120:48,1,65,8|0,0:0|0:0,0:0:0:0:
48,48,80345,6,0,B|44:112|44:112|40:112|40:112|36:180,1,130,4|8,0:0|0:0,0:0:0:0:
112,152,80872,2,0,P|64:212|108:316,1,195,0|8,0:0|0:0,0:0:0:0:
176,344,81574,1,0,0:0:0:0:
248,312,81749,6,0,P|304:272|364:296,1,130,4|8,0:0|0:0,0:0:0:0:
424,332,82275,2,0,P|384:264|440:160,1,195,0|8,0:0|0:0,0:0:0:0:
468,96,82977,1,0,0:0:0:0:
420,36,83153,6,0,L|284:44,1,130,4|8,0:0|0:0,0:0:0:0:
312,120,83679,1,0,0:0:0:0:
340,192,83854,2,0,L|204:200,1,130,0|8,0:0|0:0,0:0:0:0:
232,276,84380,1,0,0:0:0:0:
260,348,84556,6,0,L|124:356,1,130,4|8,0:0|0:0,0:0:0:0:
64,312,85082,2,0,L|20:308,2,32.5
112,248,85433,2,0,P|80:224|52:188,2,65,0|8|0,0:0|0:0|0:0,0:0:0:0:
180,208,85960,6,0,P|161:136|192:76,1,130,4|8,0:0|0:0,0:0:0:0:
253,56,86486,2,0,P|292:155|233:245,1,195,0|8,0:0|0:0,0:0:0:0:
180,208,87188,1,0,0:0:0:0:
104,200,87363,6,0,P|133:268|200:282,1,130,4|8,0:0|0:0,0:0:0:0:
194,361,87889,2,0,P|260:297|217:213,1,195,0|8,0:0|0:0,0:0:0:0:
172,152,88591,1,0,0:0:0:0:
208,84,88767,6,0,L|288:64,1,65,0|0,0:0|0:0,0:0:0:0:
348,52,89117,2,0,P|404:96|436:92,1,97.5,8|8,0:0|0:0,0:0:0:0:
456,68,89468,2,0,L|504:128,1,65,0|0,0:0|0:0,0:0:0:0:
440,176,89819,2,0,L|488:236,1,65,0|8,0:0|0:0,0:0:0:0:
488,304,90170,6,0,P|444:296|420:268,1,65,4|0,0:0|0:0,0:0:0:0:
372,232,90521,1,8,0:0:0:0:
316,180,90696,1,0,0:0:0:0:
300,256,90872,2,0,P|332:300|348:308,1,65
332,384,91223,1,8,0:0:0:0:
264,348,91398,1,0,0:0:0:0:
200,300,91574,6,0,L|104:340,1,97.5,4|0,0:0|0:0,0:0:0:0:
76,320,91924,2,0,L|48:292,3,32.5,8|0|0|0,0:0|0:0|0:0|0:0,0:0:0:0:
32,264,92275,2,0,L|20:224,3,32.5
28,196,92626,2,0,L|32:156,3,32.5,8|0|0|0,0:0|0:0|0:0|0:0,0:0:0:0:
44,128,92977,6,0,L|112:140,1,65,4|0,0:0|0:0,0:0:0:0:
160,80,93328,2,0,L|184:48,3,32.5,8|0|0|0,0:0|0:0|0:0|0:0,0:0:0:0:
208,84,93679,2,0,L|227:110,3,32.5
252,80,94030,2,0,L|276:48,3,32.5,8|0|0|0,0:0|0:0|0:0|0:0,0:0:0:0:
301,79,94381,2,0,B|379:81|425:95|442:179|442:179|382:176|363:206|363:206|412:261|406:320,1,390,0|8,0:0|0:0,0:0:0:0:
256,264,95784,5,4,0:0:0:0:
256,184,95960,1,0,0:0:0:0:
256,108,96135,2,0,L|220:88,3,32.5,8|0|0|0,0:0|0:0|0:0|0:0,0:0:0:0:
192,72,96486,2,0,L|156:52,3,32.5
128,36,96837,2,0,L|92:16,3,32.5,8|0|0|0,0:0|0:0|0:0|0:0,0:0:0:0:
68,44,97188,6,0,L|36:144,1,97.5,4|0,0:0|0:0,0:0:0:0:
52,172,97538,2,0,L|40:212,3,32.5,8|0|0|0,0:0|0:0|0:0|0:0,0:0:0:0:
68,236,97889,2,0,L|56:276,3,32.5
80,300,98240,2,0,L|68:340,3,32.5,8|0|0|0,0:0|0:0|0:0|0:0,0:0:0:0:
96,360,98591,6,0,L|168:356,1,65,4|0,0:0|0:0,0:0:0:0:
224,308,98942,1,8,0:0:0:0:
276,248,99117,1,0,0:0:0:0:
356,244,99293,1,0,0:0:0:0:
408,184,99468,1,0,0:0:0:0:
412,104,99644,1,8,0:0:0:0:
360,44,99819,1,0,0:0:0:0:
256,192,99995,12,0,101047,0:0:0:0:
272,80,101398,6,0,P|254:109|216:128,1,65,4|0,0:0|0:0,0:0:0:0:
196,52,101749,2,0,L|152:32,3,32.5,8|0|0|0,0:0|0:0|0:0|0:0,0:0:0:0:
152,76,102100,2,0,L|116:76,3,32.5
120,116,102451,2,0,L|80:128,3,32.5,8|0|0|0,0:0|0:0|0:0|0:0,0:0:0:0:
96,164,102802,6,0,L|84:272,1,97.5,4|0,0:0|0:0,0:0:0:0:
112,292,103153,2,0,L|140:320,3,32.5,8|0|0|0,0:0|0:0|0:0|0:0,0:0:0:0:
172,316,103503,2,0,L|194:293,3,32.5
236,296,103854,2,0,L|258:318,3,32.5,8|0|0|0,0:0|0:0|0:0|0:0,0:0:0:0:
296,316,104205,6,0,L|364:296,1,65,4|0,0:0|0:0,0:0:0:0:
312,232,104556,2,0,L|384:184,1,65,8|0,0:0|0:0,0:0:0:0:
308,144,104907,2,0,L|360:96,1,65
288,64,105258,2,0,L|324:4,1,65,8|0,0:0|0:0,0:0:0:0:
256,192,105609,12,8,106661,0:0:0:0:
68,192,107012,6,0,L|24:256,1,65,4|0,0:0|0:0,0:0:0:0:
68,316,107363,2,0,L|112:320,3,32.5,8|0|0|0,0:0|0:0|0:0|0:0,0:0:0:0:
136,340,107714,2,0,L|180:344,3,32.5
200,320,108065,2,0,L|244:324,3,32.5,8|0|0|0,0:0|0:0|0:0|0:0,0:0:0:0:
264,348,108416,6,0,P|292:308|344:300,1,97.5,4|0,0:0|0:0,0:0:0:0:
372,280,108767,2,0,L|404:248,3,32.5,8|0|0|0,0:0|0:0|0:0|0:0,0:0:0:0:
424,232,109117,2,0,L|456:200,3,32.5
476,180,109468,2,0,L|508:148,3,32.5,8|0|0|0,0:0|0:0|0:0|0:0,0:0:0:0:
492,120,109819,6,0,L|464:52,1,65,4|0,0:0|0:0,0:0:0:0:
396,28,110170,2,0,L|356:28,3,32.5,8|0|0|0,0:0|0:0|0:0|0:0,0:0:0:0:
328,48,110521,2,0,L|288:48,3,32.5
260,68,110872,2,0,L|220:68,3,32.5,8|0|0|0,0:0|0:0|0:0|0:0,0:0:0:0:
192,88,111223,6,0,L|124:88,1,65,4|0,0:0|0:0,0:0:0:0:
60,124,111574,1,8,0:0:0:0:
20,192,111749,1,8,0:0:0:0:
44,264,111924,1,8,0:0:0:0:
116,296,112100,1,8,0:0:0:0:
188,256,112275,1,8,0:0:0:0:
200,180,112450,1,8,0:0:0:0:
140,124,112626,6,0,B|176:68|176:68|244:68,1,130,4|8,0:0|0:0,0:0:0:0:
300,20,113153,2,0,L|344:8,2,32.5,0|0|0,0:0|0:0|0:0,0:0:0:0:
312,96,113503,1,0,0:0:0:0:
356,160,113679,2,0,L|432:168,1,65,8|0,0:0|0:0,0:0:0:0:
492,196,114030,6,0,P|510:273|464:318,1,130,0|8,0:0|0:0,0:0:0:0:
436,248,114556,2,0,P|360:240|288:332,1,195,0|8,0:0|0:0,0:0:0:0:
224,280,115258,1,0,0:0:0:0:
152,312,115433,6,0,B|92:312|92:312|88:316|88:316|24:316,1,130,0|8,0:0|0:0,0:0:0:0:
20,236,115960,2,0,B|56:236|56:236|112:172|68:76,1,195,0|8,0:0|0:0,0:0:0:0:
132,36,116661,1,0,0:0:0:0:
196,84,116837,6,0,B|240:128|240:128|240:132|240:132|288:180,1,130,0|8,0:0|0:0,0:0:0:0:
340,124,117363,1,0,0:0:0:0:
368,196,117538,2,0,B|412:240|412:240|412:244|412:244|460:292,1,130,0|8,0:0|0:0,0:0:0:0:
512,236,118064,1,0,0:0:0:0:
464,176,118240,6,0,L|456:108,2,65,0|0|8,0:0|0:0|0:0,0:0:0:0:
388,152,118767,2,0,L|382:108,2,32.5
312,132,119117,1,0,0:0:0:0:
236,108,119293,2,0,B|208:108|208:108|204:104|204:104|168:104,1,65,8|0,0:0|0:0,0:0:0:0:
112,52,119644,6,0,B|74:103|74:103|105:121|114:164,1,130,0|8,0:0|0:0,0:0:0:0:
43,191,120170,2,0,P|115:155|219:219,1,195,0|8,0:0|0:0,0:0:0:0:
256,268,120872,1,0,0:0:0:0:
312,324,121047,6,0,P|388:344|444:316,1,130,0|8,0:0|0:0,0:0:0:0:
466,254,121574,2,0,B|416:205|416:205|372:236|338:215,1,130
328,151,122100,1,8,0:0:0:0:
256,184,122275,1,0,0:0:0:0:
208,124,122451,6,0,P|184:152|184:192,2,65,2|0|2,0:0|0:0|0:0,0:0:0:0:
256,64,122977,2,0,L|288:64,1,32.5,0|0,0:0|0:0,0:0:0:0:
316,36,123153,2,0,L|384:36,1,65,2|2,0:0|0:0,0:0:0:0:
456,56,123503,2,0,L|464:92,1,32.5,8|0,0:0|0:0,0:0:0:0:
500,104,123679,2,0,L|492:144,1,32.5,8|0,0:0|0:0,0:0:0:0:
468,164,123854,6,0,L|464:200,3,32.5,4|0|0|0,0:0|0:0|0:0|0:0,0:0:0:0:
440,228,124205,2,0,L|436:264,3,32.5,8|0|0|0,0:0|0:0|0:0|0:0,0:0:0:0:
453,295,124556,2,0,L|481:361,1,65
400,356,124907,2,0,L|353:304,1,65,8|0,0:0|0:0,0:0:0:0:
288,268,125258,6,0,L|248:260,3,32.5,4|0|0|0,0:0|0:0|0:0|0:0,0:0:0:0:
239,297,125609,2,0,L|199:289,3,32.5,8|0|0|0,0:0|0:0|0:0|0:0,0:0:0:0:
170,304,125960,2,0,P|140:343|101:355,1,65
65,301,126310,2,0,P|51:294|26:248,1,65,8|0,0:0|0:0,0:0:0:0:
104,236,126661,6,0,L|92:196,3,32.5,4|0|0|0,0:0|0:0|0:0|0:0,0:0:0:0:
108,168,127012,2,0,L|96:128,3,32.5,8|0|0|0,0:0|0:0|0:0|0:0,0:0:0:0:
112,100,127363,2,0,L|148:42,1,65
189,110,127714,2,0,P|212:149|256:164,1,65,8|0,0:0|0:0,0:0:0:0:
264,88,128065,6,0,B|328:56|328:56|364:80|404:64,1,130,4|8,0:0|0:0,0:0:0:0:
416,144,128591,1,0,0:0:0:0:
380,216,128767,2,0,B|360:205|324:229|324:229|261:198,1,130,0|8,0:0|0:0,0:0:0:0:
200,152,129293,1,0,0:0:0:0:
136,108,129468,6,0,L|96:96,3,32.5,4|0|0|0,0:0|0:0|0:0|0:0,0:0:0:0:
68,112,129819,2,0,L|32:136,3,32.5,8|0|0|0,0:0|0:0|0:0|0:0,0:0:0:0:
16,160,130170,2,0,P|-2:192|-2:227,1,65
78,215,130521,2,0,P|109:249|114:279,1,65,8|0,0:0|0:0,0:0:0:0:
73,333,130872,6,0,L|109:361,3,32.5,4|0|0|0,0:0|0:0|0:0|0:0,0:0:0:0:
136,345,131223,2,0,L|180:345,3,32.5,8|0|0|0,0:0|0:0|0:0|0:0,0:0:0:0:
198,320,131574,2,0,P|193:279|203:247,1,65
276,288,131924,2,0,P|317:282|340:267,1,65,8|0,0:0|0:0,0:0:0:0:
288,212,132275,6,0,P|368:100|436:264,1,390,4|8,0:0|0:0,0:0:0:0:
360,252,133503,1,0,0:0:0:0:
288,212,133679,6,0,L|220:180,1,65,2|0,0:0|0:0,0:0:0:0:
152,192,134030,2,0,L|160:124,1,65,2|0,0:0|0:0,0:0:0:0:
168,48,134381,2,0,L|236:80,1,65,2|0,0:0|0:0,0:0:0:0:
304,68,134732,2,0,L|296:136,1,65,2|0,0:0|0:0,0:0:0:0:
288,212,135082,5,4,0:0:0:0:
256,192,143854,12,0,145960,0:0:0:0:
212,128,146310,6,0,B|256:80|256:80|304:132,1,130,4|8,0:0|0:0,0:0:0:0:
335,197,146837,2,0,B|255:261|255:261|173:192,1,195,0|8,0:0|0:0,0:0:0:0:
132,144,147538,1,0,0:0:0:0:
72,96,147714,6,0,P|60:168|100:216,1,130,0|8,0:0|0:0,0:0:0:0:
152,260,148240,1,0,0:0:0:0:
220,300,148416,2,0,L|296:332,1,65
288,248,148767,2,0,L|360:256,1,65,8|0,0:0|0:0,0:0:0:0:
356,176,149117,6,0,L|488:160,1,130,4|8,0:0|0:0,0:0:0:0:
504,84,149644,2,0,L|304:108,1,195,0|8,0:0|0:0,0:0:0:0:
256,52,150345,1,0,0:0:0:0:
180,40,150521,6,0,P|136:100|68:104,1,130,0|8,0:0|0:0,0:0:0:0:
100,31,151047,1,0,0:0:0:0:
85,109,151223,2,0,P|76:160|16:206,1,130,4|8,0:0|0:0,0:0:0:0:
7,124,151749,1,0,0:0:0:0:
17,205,151924,6,0,L|53:329,1,130,4|8,0:0|0:0,0:0:0:0:
132,328,152451,2,0,B|112:255|112:255|148:193|228:208,1,195,0|8,0:0|0:0,0:0:0:0:
200,284,153153,1,0,0:0:0:0:
256,336,153328,6,0,P|324:344|352:288,1,130,0|8,0:0|0:0,0:0:0:0:
426,322,153854,2,0,P|413:248|305:236,1,195,0|8,0:0|0:0,0:0:0:0:
232,256,154556,1,0,0:0:0:0:
160,224,154731,6,0,L|28:188,1,130,0|8,0:0|0:0,0:0:0:0:
40,112,155258,2,0,B|108:132|108:132|122:56|205:50,1,195,0|8,0:0|0:0,0:0:0:0:
192,136,155960,1,0,0:0:0:0:
256,192,156135,12,4,157538,0:0:0:0:
250,286,167363,6,0,B|231:236|252:201|252:201|281:152|244:91,2,195.00000743866,0|2|4,0:0|0:0|0:0,0:0:0:0:
500,360,178591,6,0,L|424:340,1,65,2|0,0:0|0:0,0:0:0:0:
472,272,178942,2,0,L|408:236,1,65,2|0,0:0|0:0,0:0:0:0:
460,176,179293,2,0,L|416:120,1,65,2|0,0:0|0:0,0:0:0:0:
484,80,179644,2,0,L|460:20,1,65,2|2,0:0|0:0,0:0:0:0:
384,40,179995,6,0,B|356:40|356:40|352:44|352:44|320:44,1,65,4|0,0:0|0:0,0:0:0:0:
320,120,180345,2,0,B|292:120|292:120|288:124|288:124|256:124,1,65,8|0,0:0|0:0,0:0:0:0:
236,200,180696,2,0,B|208:200|208:200|204:204|204:204|172:204,1,65,0|0,0:0|0:0,0:0:0:0:
140,276,181047,1,8,0:0:0:0:
112,348,181223,6,0,P|66:294|77:231,1,130,0|0,0:0|0:0,0:0:0:0:
140,276,181749,1,8,0:0:0:0:
216,296,181924,1,0,0:0:0:0:
292,316,182100,1,0,0:0:0:0:
368,336,182275,1,0,0:0:0:0:
444,356,182451,1,8,0:0:0:0:
420,284,182626,2,0,P|412:220|456:164,1,130
388,120,183153,6,0,P|428:92|464:92,1,65,8|0,0:0|0:0,0:0:0:0:
504,44,183503,2,0,P|464:16|428:16,1,65,0|0,0:0|0:0,0:0:0:0:
372,36,183854,1,8,0:0:0:0:
296,16,184030,1,0,0:0:0:0:
220,36,184205,5,0,0:0:0:0:
204,112,184381,2,0,L|172:144,2,32.5
264,160,184731,1,0,0:0:0:0:
300,224,184907,2,0,L|280:260,3,32.5,0|0|0|0,0:0|0:0|0:0|0:0,0:0:0:0:
304,284,185258,2,0,L|264:308,3,32.5,8|0|0|0,0:0|0:0|0:0|0:0,0:0:0:0:
240,292,185609,6,0,P|200:280|124:316,1,130,4|8,0:0|0:0,0:0:0:0:
48,300,186135,1,0,0:0:0:0:
92,236,186310,2,0,L|76:172,2,65,0|0|8,0:0|0:0|0:0,0:0:0:0:
124,316,186837,2,0,P|200:280|240:292,1,130,0|0,0:0|0:0,0:0:0:0:
312,324,187363,6,0,L|384:344,1,65,8|0,0:0|0:0,0:0:0:0:
380,264,187714,2,0,L|456:244,1,65
467,173,188065,1,0,0:0:0:0:
441,98,188240,6,0,P|405:40|336:26,1,130,4|0,0:0|0:0,0:0:0:0:
272,48,188767,2,0,P|259:60|215:76,1,65,8|0,0:0|0:0,0:0:0:0:
200,152,189117,2,0,P|156:168|143:180,1,65,0|0,0:0|0:0,0:0:0:0:
138,257,189468,2,0,P|150:269|166:313,1,65,8|0,0:0|0:0,0:0:0:0:
236,352,189819,5,4,0:0:0:0:
298,305,189995,1,0,0:0:0:0:
376,308,190170,2,0,P|376:276|396:244,1,65,8|0,0:0|0:0,0:0:0:0:
448,192,190521,1,2,0:0:0:0:
412,124,190696,1,2,0:0:0:0:
456,60,190872,2,0,L|412:36,3,32.5,8|0|8|0,0:0|0:0|0:0|0:0,0:0:0:0:
392,28,191223,6,0,B|332:28|332:28|328:32|328:32|260:32,1,130,4|8,0:0|0:0,0:0:0:0:
212,92,191749,1,0,0:0:0:0:
156,148,191924,2,0,B|128:148|128:148|124:152|124:152|88:152,1,65
40,212,192275,1,8,0:0:0:0:
4,280,192451,6,0,P|32:340|100:344,1,130,0|0,0:0|0:0,0:0:0:0:
168,360,192977,2,0,B|196:360|196:360|200:364|200:364|232:364,1,65,8|0,0:0|0:0,0:0:0:0:
280,304,193328,2,0,B|308:304|308:304|312:300|312:300|344:300,1,65
400,248,193679,1,8,0:0:0:0:
472,276,193854,6,0,P|424:204|440:156,1,130
372,116,194381,2,0,P|348:152|312:160,1,65,8|0,0:0|0:0,0:0:0:0:
272,212,194731,2,0,P|252:231|244:267,1,65
256,344,195082,1,8,0:0:0:0:
180,364,195258,6,0,B|120:364|120:364|116:360|116:360|52:360,1,130
20,288,195784,2,0,P|16:248|24:212,1,65,8|0,0:0|0:0,0:0:0:0:
76,168,196135,2,0,L|108:164,3,32.5
124,128,196486,2,0,L|156:124,3,32.5,8|0|0|0,0:0|0:0|0:0|0:0,0:0:0:0:
184,100,196837,6,0,P|224:56|300:64,1,130,4|8,0:0|0:0,0:0:0:0:
256,128,197363,1,0,0:0:0:0:
196,176,197538,2,0,L|168:244,2,65,0|0|8,0:0|0:0|0:0,0:0:0:0:
184,100,198065,2,0,P|224:56|300:64,1,130
336,124,198591,6,0,L|404:124,1,65,8|0,0:0|0:0,0:0:0:0:
384,200,198942,2,0,L|316:200,2,65,0|0|8,0:0|0:0|0:0,0:0:0:0:
448,248,199468,1,0,0:0:0:0:
384,292,199644,1,4,0:0:0:0:
256,192,199731,12,4,202451,0:0:0:0:
