osu file format v9

[General]
AudioFilename: b5eb2656df66df448e12a5bf0c3e4b8363286444.mp3
AudioLeadIn: 0
PreviewTime: -1
Countdown: 0
SampleSet: Soft
StackLeniency: 0.7
Mode: 0
LetterboxInBreaks: 1

[Editor]
Bookmarks: 201446
DistanceSpacing: 0.7
BeatDivisor: 4
GridSize: 8

[Metadata]
Title:Boy Next Door
Artist:Van
Creator:Hello
Version:ass we can
Source:niconico
Tags:van

[Difficulty]
HPDrainRate:5
CircleSize:4
OverallDifficulty:7
ApproachRate:9
SliderMultiplier:3
SliderTickRate:1

[Events]
//Background and Video events
Video,0,"b5eb2656df66df448e12a5bf0c3e4b83632864442.flv"
//Break Periods
2,148589,163656
//Storyboard Layer 0 (Background)
//Storyboard Layer 1 (Fail)
//Storyboard Layer 2 (Pass)
//Storyboard Layer 3 (Foreground)
//Storyboard Sound Samples
//Background Colour Transformations
3,100,0,0,0

[TimingPoints]
25476,495.867768595041,4,2,0,100,1,0
29814,-50,4,2,0,100,0,0
30930,-100,4,2,0,100,0,0
34897,-100,4,2,2,30,0,0
35393,-100,4,2,2,70,0,0
38368,-50,4,2,2,70,0,0
39360,-100,4,2,2,70,0,0
41343,-100,4,1,2,70,0,0
42211,-100,4,1,2,50,0,0
42459,-100,4,1,2,80,0,0
46054,-100,4,2,2,80,0,0
63161,-100,4,2,2,90,0,0
66137,-100,4,2,1,90,0,0
67872,-100,4,2,2,90,0,0
86963,-100,4,2,0,50,0,0
87955,-100,4,2,2,100,0,0
88947,-100,4,2,2,100,0,1
91922,-50,4,2,2,100,0,1
92914,-100,4,2,2,100,0,1
95889,-100,4,1,1,100,0,1
96880,-100,4,2,2,100,0,1
99856,-50,4,2,2,100,0,1
100847,-133.333333333333,4,2,2,100,0,1
102831,-50,4,2,2,100,0,1
103823,-100,4,2,2,100,0,1
108285,-50,4,2,2,100,0,1
108781,-100,4,2,2,100,0,1
111756,129.310344827586,4,2,2,100,1,1
112725,495.867768595041,4,2,2,100,1,1
116196,-50,4,2,2,100,0,1
116691,-200,4,2,2,100,0,1
116691,-200,4,2,2,100,0,1
118427,-50,4,1,2,100,0,1
119667,-100,4,2,2,100,0,1
122604,495.867768595041,4,2,2,100,1,0
136488,-50,4,1,2,100,0,0
137480,-100,4,2,2,100,0,0
165744,495.867768595041,4,2,2,40,1,0
171694,-50,4,2,2,70,0,0
173553,-100,4,2,2,70,0,1
177148,-50,4,2,2,70,0,1
177644,-100,4,2,2,70,0,1
179628,-50,4,2,2,90,0,1
181611,-100,4,2,2,70,0,1
185082,-50,4,1,1,90,0,1
185578,-100,4,2,2,70,0,1
188553,-50,4,1,2,70,0,1
189545,-100,4,2,2,70,0,1
193016,-50,4,2,2,70,0,1
193512,-100,4,2,2,70,0,1
194256,-50,4,2,2,70,0,1
194504,-100,4,2,2,70,0,1
195496,-50,4,2,2,70,0,1
196487,-100,4,2,2,70,0,1
201694,-100,4,2,2,90,0,1
208140,-50,4,2,2,70,0,1
209628,-100,4,2,2,70,0,1
213347,-100,4,1,2,70,0,1
215330,-100,4,1,2,70,0,0
219297,-200,4,2,2,5,0,0

[Colours]
Combo1 : 0,255,255
Combo2 : 255,135,248
Combo3 : 135,183,255
Combo4 : 135,255,172
Combo5 : 255,169,135
Combo6 : 255,135,197

[HitObjects]
96,72,25475,1,2
128,104,25599,1,0
128,104,25847,1,2
160,144,25971,1,0
160,144,26219,1,2
192,184,26343,1,0
192,184,26591,1,2
224,216,26715,1,0
288,288,26963,1,4
416,128,27459,5,2
416,160,27583,1,0
352,192,27831,1,2
352,224,27955,1,0
288,256,28203,1,2
288,288,28327,1,0
224,320,28575,1,2
224,352,28699,1,0
88,232,28947,2,4,B|48:208|48:208|80:168,1,75,4|0
256,96,29442,5,2
256,144,29566,1,0
392,264,29814,2,2,B|448:216|448:216|376:160,1,150,2|0
256,256,30186,1,2
256,304,30310,1,0
120,160,30558,2,0,B|64:208|64:208|136:264,1,150,2|0
256,192,30930,1,4
176,256,31426,6,0,B|112:256|112:256|88:240,1,75,2|0
104,152,31798,2,0,B|168:152|168:152|192:168,1,75,2|0
96,328,32170,2,0,B|160:328|160:328|184:312,1,75,2|0
176,80,32542,2,0,B|112:80|112:80|88:96,1,75,2|0
304,120,32914,2,4,B|312:136|312:136|256:184,1,75,4|0
208,248,33161,2,0,B|192:232|192:232|264:176,1,75,4|0
256,288,33533,5,6
256,64,33905,1,4
256,64,34277,1,6
256,288,34649,1,4
256,192,34897,2,0,B|256:128,6,37.5
256,192,35393,6,8,B|232:160|232:160|192:224|192:224|112:208,2,150,4|0|8
168,288,36137,1,0
280,352,36385,1,8
376,264,36633,1,0
320,144,36880,1,8
192,160,37128,1,0
264,240,37376,2,4,B|304:248|304:248|368:160,1,150
416,64,37872,1,2
416,64,38120,1,2
312,32,38368,6,8,B|248:80|136:16,1,150
72,136,38616,2,8,B|120:216|72:288,1,150
184,352,38864,2,8,B|264:304|360:368,1,150
432,280,39112,2,8,B|384:200|440:136,1,150
360,120,39360,5,8
216,120,39608,1,0
320,120,39856,1,8
184,120,40104,1,0
264,224,40352,2,0,B|256:216|256:216|136:256|136:256|144:208,3,150,8|0|0|0
56,144,41343,5,8
40,192,41467,1,8
64,240,41591,1,8
40,288,41715,1,8
64,336,41839,1,4
152,312,42087,2,8,B|232:312,1,75
176,288,42335,1,4
208,264,42459,2,8,B|128:264,1,75
152,160,42831,6,0,B|176:128,1,37.5,0|0
200,192,42955,2,0,B|224:160,1,37.5
248,224,43079,2,0,B|272:192,1,37.5
296,256,43203,2,0,B|320:224,1,37.5
344,288,43327,2,4,B|392:320|392:320|376:232|376:232|432:224,1,150,4|8
432,152,43823,5,4
368,72,44071,1,0
272,40,44318,1,0
176,48,44566,1,0
88,96,44814,1,0
32,176,45062,2,0,B|40:232|40:232|104:184|104:184|128:232,3,150
112,192,46054,1,2
112,192,46302,1,2
192,296,46550,6,0,B|216:320|216:320|296:272|296:272|320:312,2,150
192,296,47294,1,0
240,312,47418,1,0
288,296,47542,1,0
376,256,47790,1,4
288,208,48037,1,0
240,192,48161,1,0
192,208,48285,2,4,B|160:176|120:208,4,75,4|4|4|4|0
240,120,49029,5,0
160,56,49277,1,8
208,72,49401,1,0
256,88,49525,1,0
304,104,49649,1,0
352,120,49773,1,4
448,104,50021,1,0
400,80,50145,1,0
360,56,50269,1,4
264,16,50517,1,4
152,96,50765,6,0,B|112:72,3,37.5
160,96,51013,2,0,B|192:112,3,37.5
152,96,51261,1,8
64,160,51509,1,0
96,256,51756,1,8
192,256,52004,1,0
232,168,52252,5,8
320,64,52500,1,0
440,120,52748,1,8
424,248,52996,1,0
296,272,53244,1,8
320,224,53368,1,0
344,184,53492,1,0
296,272,53740,1,2
296,272,53988,1,2
280,176,54236,6,8,B|264:144,1,37.5
240,208,54360,2,0,B|256:248,1,37.5,0|0
192,240,54484,2,0,B|176:208,1,37.5,0|0
152,272,54608,2,0,B|168:312,1,37.5,0|0
104,304,54732,2,8,B|88:272,1,37.5,0|0
104,304,54980,1,4
88,208,55228,6,0,B|80:176|80:176|184:160|184:160|184:120,1,150
224,64,55723,1,8
320,96,55971,1,0
384,168,56219,1,8
368,264,56467,1,0
296,336,56715,1,8
200,360,56963,1,0
104,312,57211,5,0
136,272,57335,1,0
168,232,57459,1,0
200,192,57583,1,0
232,152,57707,1,8
168,152,57955,1,0
200,192,58079,1,0
224,232,58203,1,8
128,248,58451,2,0,B|80:248,1,27.5
104,192,58699,5,0
152,192,58823,1,0
200,192,58947,1,0
248,192,59071,1,0
296,192,59195,1,8
296,96,59442,5,0
392,96,59690,1,8
392,192,59938,1,0
296,192,60186,1,8
424,152,60434,1,0
424,280,60682,1,8
291,280,60930,1,0
291,147,61178,5,8
448,208,61426,1,0
448,373,61674,1,8
282,373,61922,1,0
282,207,62170,1,0
368,64,62418,2,0,B|328:112|416:112|368:208,1,150
376,264,62914,1,0
280,272,63161,5,0
232,264,63285,1,0
88,240,63533,1,0
320,48,64153,1,0
280,80,64277,1,0
240,112,64401,1,0
200,144,64525,1,0
160,176,64649,1,0
88,240,64897,1,4
176,288,65145,6,0,B|176:232,1,55
304,160,65641,2,0,B|304:224,1,55
112,112,66137,2,0,B|216:152|216:152|224:96,1,150,4|0
328,112,66633,1,0
216,104,66880,2,0,B|304:64|304:64|336:136,3,150
308,105,67872,1,2
308,105,68120,1,2
24,144,68616,6,0,B|56:184|56:184|104:160|104:160|128:216,2,150
24,144,69360,1,0
112,184,69608,1,8
24,144,69856,1,0
112,184,70104,2,0,B|128:232|128:232|200:200|200:200|216:256,2,150,8|0|0
200,225,70847,1,0
112,184,71095,1,8
200,224,71343,2,0,B|232:256|232:256|288:248|288:248|320:288,1,150
112,184,71839,2,0,B|184:160|184:160|192:208|192:208|248:176|248:176|368:176,2,300,8|0|0
256,40,73079,5,4
256,240,73575,1,8
256,240,73823,1,0
392,344,74071,5,8
456,264,74318,1,0
456,168,74566,1,8
392,88,74814,1,0
360,184,75062,2,0,B|376:152|376:152|256:88,1,150,8|0
360,264,75558,2,0,B|368:312|368:312|264:352,2,150,0|0|4
416,184,76302,5,0
328,88,76550,1,8
192,88,76798,1,0
104,192,77046,1,8
239,212,77294,1,0
184,296,77542,2,0,B|224:312|224:312|240:200,1,150
352,296,78038,2,0,B|304:312|304:312|296:200,3,150
352,296,79029,5,4
224,272,79277,1,0
352,232,79525,1,8
224,200,79773,1,0
352,168,80021,1,8
224,136,80269,1,0
352,96,80517,1,8
224,64,80765,1,4
96,80,81013,6,0,B|80:128|80:128|112:160|112:160|72:160|72:160|80:128|80:128|104:128|104:128|96:264,1,300
176,112,81756,6,0,B|160:160|160:160|184:152|184:152|200:160|200:160|184:176|184:176|184:320,1,225
256,160,82376,6,0,B|240:208|240:208|272:208|272:208|264:224|264:224|264:360,1,225
416,344,82996,5,8
280,336,83244,1,0
152,296,83492,1,8
56,208,83740,1,0
48,88,83988,1,0
160,128,84236,2,0,B|208:128|208:128|208:248,1,150
80,328,84980,5,12
208,320,85228,1,0
336,280,85475,1,0
448,216,85723,1,0
400,216,85847,1,0
352,216,85971,1,0
304,216,86095,1,0
256,216,86219,1,0
208,216,86343,1,0
160,216,86467,2,0,B|120:216,6,37.5
136,176,86963,5,0
176,144,87087,1,0
224,144,87211,1,0
264,168,87335,1,0
304,200,87459,1,0
336,240,87583,1,0
368,280,87707,1,0
400,320,87831,1,0
440,344,87955,2,2,B|440:304,1,37.5
440,144,88451,2,2,B|440:104,1,37.5
280,40,88947,5,0
144,80,89195,1,8
56,192,89442,1,0
32,336,89690,1,8
176,312,89938,2,0,B|168:272|168:272|232:192|256:240,3,150
344,344,90930,5,4
456,256,91178,1,8
464,112,91426,1,0
352,16,91674,1,8
256,128,91922,6,0,B|312:192,1,75,2|0
256,264,92170,6,0,B|200:200,1,75,2|2
256,328,92418,6,0,B|320:264,1,75,2|0
256,64,92666,6,0,B|200:112,1,75,2|0
96,144,92914,5,8
176,264,93161,1,0
168,144,93409,1,8
248,264,93657,1,0
112,208,93905,1,0
160,208,94029,1,0
208,208,94153,1,0
256,208,94277,1,0
328,336,94649,5,8
424,336,94897,1,0
208,64,95145,1,8
104,64,95393,1,0
112,328,95641,1,0
256,304,95889,6,0,B|192:248,1,75,4|0
256,112,96137,6,0,B|320:168,1,75,4|0
144,208,96385,6,0,B|208:144,1,75,4|0
360,208,96633,6,0,B|312:272,1,75,4|0
376,88,96880,5,0
200,72,97128,1,0
64,184,97376,1,0
240,208,97624,2,0,B|176:264,1,75
256,200,97872,1,0
272,216,98120,2,0,B|304:216|320:288,1,75
216,184,98616,5,0
128,48,98864,1,8
120,200,99112,1,0
224,88,99360,1,8
72,120,99608,1,0
256,96,99856,6,0,B|256:208,1,75,4|0
144,240,100104,6,0,B|232:240,1,75,4|0
304,312,100352,6,0,B|304:248,1,55,4|0
152,168,100600,6,0,B|80:168,1,55,4|0
256,72,100847,6,0,B|256:160|256:160|224:208,1,112.499996647239
168,176,101343,1,0
320,176,101591,2,4,B|320:264|320:264|280:304,2,112.499996647239
472,176,102335,1,0
320,176,102583,1,0
400,64,102831,6,0,B|352:192|216:224,1,150
400,96,103203,6,0,B|352:208|248:304,1,150
400,144,103575,6,0,B|376:280|208:360,1,300
256,192,103947,12,0,104566
88,96,104814,5,0
88,156,104938,1,0
88,216,105062,1,0
40,128,105310,1,0
88,152,105434,1,0
136,184,105558,1,0
40,192,105806,1,0
88,152,105930,1,0
136,120,106054,1,0
368,48,106550,6,0,B|296:96,1,75
368,48,106798,1,8
305,89,107046,1,0
304,208,107294,1,8
304,90,107542,1,0
184,88,107790,1,0
240,88,107914,1,0
300,88,108037,1,0
416,48,108285,6,2,B|376:48|376:48|400:136,1,75,2|0
96,48,108533,6,2,B|136:48|136:48|112:136,1,75,2|0
80,160,108781,6,0,B|80:248|80:248|96:256,1,75
80,160,109029,1,0
184,192,109277,1,8
80,160,109525,2,0,B|80:48|80:48|128:40,2,150
192,192,110269,1,4
192,192,110517,1,4
240,304,110765,5,8
360,280,111013,1,0
456,208,111261,1,8
464,88,111509,1,0
344,56,111756,6,0,B|344:240,1,150,4|0
296,96,112014,6,0,B|296:280,1,150,4|0
248,136,112273,6,0,B|248:320,1,150,4|0
200,176,112531,6,0,B|200:360,1,150,4|0
136,312,112725,5,8
56,224,112972,1,0
136,136,113220,1,8
216,224,113468,1,0
136,312,113716,1,0
136,256,113840,1,0
136,200,113964,1,0
136,136,114088,1,0
296,56,114460,6,0,B|376:56|376:56|384:56,1,75
296,56,114708,1,8
296,176,114956,1,0
296,56,115204,1,8
416,56,115452,1,0
424,176,115700,1,0
384,128,115824,1,0
336,88,115948,1,0
392,192,116196,6,8,B|304:192,1,75
136,192,116444,2,8,B|232:192,1,75
80,304,116691,6,0,B|112:280|112:280|152:320,1,75,4|0
80,304,117187,1,0
136,312,117435,6,0,B|168:288|168:288|208:328,1,75,4|0
136,312,117931,1,0
192,320,118179,6,0,B|224:296|224:296|264:336,1,75,4|0
456,200,118675,6,0,B|232:64,1,150,4|0
400,224,119047,6,0,B|184:96,1,150,4|0
344,248,119419,6,0,B|40:80,1,300,4|0
48,144,119791,1,0
40,192,119915,1,0
56,240,120039,1,0
104,264,120163,1,0
152,248,120286,1,0
176,200,120410,1,0
272,152,120658,5,4
424,296,121154,2,0,B|464:224|416:160,1,75
456,176,121402,1,0
400,88,121650,2,0,B|328:48|256:88,3,150
168,80,122604,6,0,B|120:56|120:56|88:80,1,75
224,168,123099,1,0
280,168,123223,1,0
304,224,123347,1,0
360,240,123471,1,0
376,288,123595,5,4
240,312,123843,1,4
216,216,124091,5,0
272,240,124215,1,0
320,208,124339,1,0
368,176,124463,1,0
400,224,124587,1,4
296,48,125083,5,0
272,104,125207,1,0
216,112,125331,1,0
160,120,125455,1,0
136,176,125579,5,8
136,176,125641,1,8
136,176,125703,1,8
136,176,125765,1,8
136,176,125827,1,8
136,176,125889,1,8
136,176,125951,1,8
176,240,126075,5,0
232,216,126199,1,0
240,168,126323,1,0
296,152,126446,1,0
352,176,126570,1,4
360,264,127066,5,0
304,264,127190,1,0
280,264,127252,1,0
256,264,127314,1,0
200,264,127438,1,4
104,136,127810,5,0
152,176,127934,1,8
144,232,128058,1,0
200,264,128182,1,8
256,240,128306,1,0
312,216,128430,1,8
360,256,128554,1,0
368,312,128678,1,8
376,248,128926,5,0
376,88,129298,5,0
320,176,129546,5,0
288,136,129670,1,8
240,168,129794,1,0
200,136,129918,1,8
160,168,130042,1,0
120,136,130165,1,0
72,160,130289,1,8
40,200,130413,1,0
16,152,130537,2,8,B|40:104,6,37.5
24,88,131033,5,0
72,64,131157,1,0
120,88,131281,1,0
144,136,131405,1,0
136,192,131529,5,4
240,216,131777,1,4
320,280,132025,5,0
368,264,132149,1,0
408,232,132273,1,0
408,176,132397,1,0
456,144,132521,5,4
360,96,132769,1,4
256,88,133017,5,0
216,128,133141,1,0
152,128,133265,1,0
112,176,133389,1,0
64,216,133513,6,4,B|64:264,6,37.5
112,256,134008,5,0
160,224,134132,1,0
216,248,134256,1,0
264,280,134380,1,0
288,192,134504,5,4
320,296,134752,1,4
416,256,135000,5,0
416,200,135124,1,0
416,176,135186,1,8
416,152,135248,1,0
416,96,135372,1,8
376,64,135496,5,4
272,80,135744,1,4
168,88,135992,5,0
152,136,136116,1,8
192,168,136240,1,0
176,216,136364,1,8
200,264,136488,6,2,B|352:272,1,150,2|0
200,264,136860,6,2,B|352:272,1,150,2|0
200,264,137232,6,2,B|352:272,1,150,2|0
256,192,137604,12,0,138471
120,80,138967,5,8
280,256,139463,1,8
176,312,139711,1,0
176,256,139835,1,0
176,200,139959,1,0
232,120,140207,6,0,B|336:96,1,75
288,160,140455,2,0,B|328:128|328:128|400:144|400:144|456:120,1,150
344,200,140951,2,0,B|408:216|408:216|496:168,3,150
344,200,141942,1,4
256,112,142190,5,0
208,80,142314,1,8
160,48,142438,2,0,B|32:72|32:72|32:128,4,150
32,91,143678,1,4
168,288,144174,5,0
208,248,144298,1,0
240,200,144422,2,0,B|272:216|272:216|352:96,4,150
256,192,145909,5,4
256,192,146157,1,4
256,192,146405,12,0,148389
96,40,164256,5,8
160,40,164380,1,8
200,88,164504,1,8
248,128,164628,1,8
304,120,164752,1,8
336,168,164876,1,8
352,224,165000,1,8
296,256,165124,1,12
64,320,165744,6,0,B|120:264|120:264|176:336,1,150
168,320,166239,2,0,B|224:264|224:264|280:336,1,150
272,320,166735,2,0,B|328:264|328:264|384:336,1,150
368,320,167231,2,0,B|424:264|424:264|480:336,1,150
64,64,167727,6,0,B|120:120|120:120|176:48,1,150
168,64,168222,2,0,B|224:120|224:120|280:48,1,150
272,64,168718,2,0,B|328:120|328:120|384:48,1,150
368,64,169214,2,0,B|424:120|424:120|480:48,1,150
288,80,169710,6,0,B|288:160|288:160|368:160,1,150
368,224,170206,2,0,B|288:224|288:224|288:304,1,150
224,304,170702,2,0,B|224:224|224:224|144:224,1,150
232,152,171198,1,0
176,152,171322,1,0
120,152,171446,1,0
64,152,171570,1,0
16,152,171694,2,0,B|184:288,1,150
132,246,171942,5,4
224,304,172190,1,4
280,184,172438,2,8,B|448:320,1,150
224,184,172934,6,4,B|392:320,1,150
168,184,173182,2,4,B|336:320,1,150
104,184,173429,2,4,B|272:320,1,150
272,288,173677,5,0
376,288,173925,1,0
208,192,174173,1,8
448,192,174421,1,0
272,96,174669,2,0,B|344:24|416:112,3,150
352,184,175661,5,8
320,224,175785,1,0
288,264,175909,1,0
248,168,176157,1,8
168,296,176405,1,0
320,296,176653,1,8
360,256,176777,1,0
400,208,176901,1,0
384,88,177148,6,0,B|304:88,1,75,2|0
344,136,177396,2,0,B|256:136,1,75,2|0
200,72,177644,6,0,B|112:88|112:192,1,150,8|0
200,72,178140,1,0
200,72,178388,2,0,B|192:168|288:216,1,150,8|0
200,72,178884,1,0
200,72,179132,2,8,B|248:152|376:104,1,150
112,224,179628,6,4,B|64:304|64:304|192:304,1,150
361,304,180000,6,4,B|425:304|425:304|390:222,1,150
296,88,180372,6,0,B|256:32|256:32|200:88,6,150,0|4|0|4|0|4|0
64,152,181611,5,8
64,240,181859,1,0
144,88,182107,1,8
136,312,182355,1,0
136,192,182603,1,8
192,192,182727,1,0
248,192,182851,2,0,B|328:192,2,75,4|0|4
280,304,183347,5,0
336,304,183471,1,0
392,304,183595,1,8
392,184,183843,1,0
392,128,183967,1,0
392,72,184091,1,8
272,72,184339,1,0
288,128,184463,1,0
264,184,184586,1,8
288,240,184710,1,0
272,296,184834,1,0
168,240,185082,6,0,B|80:240,1,75,2|0
368,240,185330,2,0,B|456:240,1,75,2|0
416,152,185578,5,8
320,88,185826,1,0
240,240,186074,1,8
192,32,186322,2,0,B|152:32|152:32|144:136,1,75
152,104,186570,1,0
152,224,186818,1,8
152,280,186942,1,0
152,336,187066,1,8
272,336,187314,5,4
344,240,187562,1,0
384,192,187686,1,8
424,144,187810,1,0
320,88,188058,1,4
320,88,188305,1,4
104,64,188553,6,0,B|176:128,1,75,2|0
96,304,188801,2,0,B|184:248,1,75,2|0
384,312,189049,2,0,B|320:264,1,75,2|0
392,64,189297,2,0,B|312:136,1,75,2|0
320,184,189545,5,4
320,184,189793,1,0
200,120,190041,1,8
200,240,190289,1,0
96,184,190537,1,0
152,208,190661,1,0
192,168,190785,1,0
248,144,190909,1,0
296,184,191033,1,4
440,176,191281,5,8
400,288,191529,1,0
280,304,191777,1,8
400,288,192024,1,0
440,176,192272,1,8
320,200,192520,1,0
360,240,192644,1,0
392,280,192768,1,4
336,304,193016,2,0,B|280:328|280:328|264:312,1,75,4|0
176,144,193264,2,0,B|232:120|232:120|248:136,1,75,4|0
224,216,193512,5,0
224,272,193636,1,0
224,328,193760,1,0
224,216,194008,1,0
104,208,194256,6,0,B|264:128,1,150
408,80,194752,1,0
416,200,195000,1,0
416,256,195124,1,0
416,312,195248,1,0
296,296,195496,6,0,B|144:248,1,150
240,336,195867,2,0,B|200:192,1,150
168,312,196239,2,0,B|280:200,1,150
264,88,196611,1,0
200,184,196859,1,0
320,184,197107,1,0
256,192,197479,12,0,200950
88,40,201694,5,8
144,40,201818,1,8
200,40,201942,1,4
104,80,202190,5,8
160,80,202314,1,8
216,80,202438,1,4
120,120,202686,5,8
176,120,202810,1,8
232,120,202934,1,4
136,160,203182,5,8
192,160,203305,1,8
256,160,203429,1,4
152,200,203677,5,8
216,200,203801,1,8
272,200,203925,1,4
176,240,204173,5,8
232,240,204297,1,8
288,240,204421,1,4
88,40,204669,5,0
104,80,204793,5,0
120,120,204917,5,0
136,160,205041,5,0
152,200,205165,5,0
176,240,205289,5,0
192,280,205413,5,6
256,328,205661,5,8
200,296,205785,1,8
144,256,205909,1,4
256,280,206157,5,8
312,248,206281,1,8
368,216,206405,1,4
256,224,206653,5,8
200,192,206777,1,8
144,160,206901,1,4
256,176,207148,5,8
312,144,207272,1,8
360,112,207396,1,4
256,128,207644,5,8
208,96,207768,1,8
160,64,207892,1,4
256,336,208140,6,8,B|120:256,1,150
256,288,208388,2,8,B|384:208,1,150
256,240,208636,2,8,B|120:160,1,150
256,192,208884,2,8,B|384:112,1,150
256,144,209132,2,8,B|120:64,1,150
256,88,209380,6,6,B|256:248,1,150
320,240,209628,5,8
352,240,209752,1,8
384,240,209876,1,4
320,240,210124,5,8
344,208,210248,1,8
384,176,210372,1,4
320,240,210620,5,8
320,184,210743,1,8
320,128,210867,1,4
320,240,211115,5,8
272,184,211239,1,8
216,136,211363,1,4
320,240,211611,5,8
232,232,211735,1,8
144,216,211859,1,4
320,240,212107,5,8
232,296,212231,1,8
136,344,212355,1,4
456,240,212603,5,0
432,184,212727,1,0
392,136,212851,1,0
336,120,212975,1,0
272,136,213099,1,0
232,168,213223,1,4
200,216,213347,2,4,B|112:352,1,150
232,168,214091,2,4,B|336:32,1,150
176,160,214586,5,4
96,72,214834,5,0
96,128,214958,1,0
96,184,215082,1,0
96,240,215206,1,0
144,280,215330,5,0
184,320,215454,1,8
144,208,215702,1,0
200,208,215826,1,8
144,136,216074,1,0
192,96,216198,1,8
144,208,216446,1,0
200,208,216570,1,8
320,208,216818,1,4
320,208,217066,1,4
432,168,217314,6,0,B|432:256,1,75
312,248,217686,2,0,B|312:152,1,75
312,56,218058,2,0,B|408:56,1,75
400,336,218429,2,0,B|320:336,1,75
360,192,218801,5,4
360,192,219049,1,4
160,184,219545,6,0,B|96:192|64:224|48:280|72:344|136:384|208:384|256:344|280:280|264:240|224:200|224:200|224:200|392:16|392:16|232:40|232:40|392:16|392:16|392:200,1,1200
