osu file format v9

[General]
AudioFilename: b5eb2656df66df448e12a5bf0c3e4b8363286444.mp3
AudioLeadIn: 0
PreviewTime: -1
Countdown: 0
SampleSet: Soft
StackLeniency: 0.9
Mode: 0
LetterboxInBreaks: 1

[Editor]
Bookmarks: 201446
DistanceSpacing: 1.5
BeatDivisor: 8
GridSize: 8

[Metadata]
Title:Boy Next Door
Artist:Van
Creator:Hello
Version:SINN Against Humanity
Source:niconico
Tags:van

[Difficulty]
HPDrainRate:7
CircleSize:5
OverallDifficulty:7
ApproachRate:8
SliderMultiplier:3.1
SliderTickRate:2

[Events]
//Background and Video events
Video,0,"b5eb2656df66df448e12a5bf0c3e4b83632864442.flv"
//Break Periods
//Storyboard Layer 0 (Background)
//Storyboard Layer 1 (Fail)
//Storyboard Layer 2 (Pass)
//Storyboard Layer 3 (Foreground)
//Storyboard Sound Samples
//Background Colour Transformations
3,100,0,0,0

[TimingPoints]
13575,495.867768595041,4,2,0,70,1,0
25476,495.867768595041,4,2,0,70,1,0
29814,-50,4,2,0,70,0,0
30930,-100,4,2,0,70,0,0
33409,-50,4,2,0,70,0,0
34897,-100,4,2,2,30,0,0
35393,-100,4,2,2,70,0,0
38368,-50,4,2,2,70,0,0
39360,-100,4,2,2,70,0,0
41343,-100,4,1,2,80,0,0
42211,-100,4,1,2,50,0,0
42459,-100,4,1,2,80,0,0
46054,-100,4,2,2,80,0,0
63161,-100,4,2,2,90,0,0
66137,-100,4,2,1,90,0,0
67872,-100,4,2,2,90,0,0
86963,-100,4,2,0,50,0,0
87955,-100,4,2,2,100,0,0
88947,-100,4,2,2,100,0,1
91922,-50,4,2,2,100,0,1
92914,-100,4,2,2,100,0,1
95889,-100,4,1,1,100,0,1
96880,-100,4,2,2,100,0,1
99856,-50,4,2,2,100,0,1
100847,-100,4,2,2,100,0,1
102831,-50,4,2,2,100,0,1
103823,-100,4,2,2,100,0,1
108285,-50,4,2,2,100,0,1
108781,-100,4,2,2,100,0,1
111756,129.310344827586,4,2,2,100,1,1
112725,495.867768595041,4,2,2,100,1,1
116196,-50,4,2,2,100,0,1
116691,-133.333333333333,4,2,2,100,0,1
116691,-133.333333333333,4,2,2,100,0,1
118427,-50,4,1,2,100,0,1
119667,-100,4,2,2,100,0,1
122604,495.867768595041,4,2,2,100,1,0
136488,-50,4,1,2,100,0,0
137480,-100,4,2,2,100,0,0
165744,495.867768595041,4,2,2,40,1,0
171694,-50,4,2,2,70,0,0
173553,-100,4,2,2,70,0,1
177148,-50,4,2,2,70,0,1
177644,-100,4,2,2,70,0,1
179628,-50,4,2,2,90,0,1
181611,-100,4,2,2,70,0,1
185082,-50,4,1,1,90,0,1
185578,-100,4,2,2,70,0,1
188553,-50,4,1,2,70,0,1
189545,-100,4,2,2,70,0,1
193016,-50,4,2,2,70,0,1
193512,-100,4,2,2,70,0,1
194256,-50,4,2,2,70,0,1
194504,-100,4,2,2,70,0,1
195496,-50,4,2,2,70,0,1
196487,-100,4,2,2,70,0,1
208140,-50,4,2,2,70,0,1
209628,-100,4,2,2,70,0,1
213347,-100,4,1,2,70,0,1
219297,-133.333333333333,4,2,2,5,0,0

[Colours]
Combo1 : 192,192,192
Combo2 : 0,200,0
Combo3 : 170,170,255
Combo4 : 0,0,255
Combo5 : 255,128,0

[HitObjects]
448,96,25475,2,0,B|400:104|384:64,1,77.5
264,56,25723,1,0
144,48,25847,1,0
80,144,25971,6,0,B|48:216|120:216,1,77.5
208,232,26219,1,0
320,256,26343,1,0
320,256,26467,6,0,B|416:240|416:240|336:160|448:112|448:112|384:144,1,310
392,72,27459,6,0,B|368:128|440:152,1,77.5
411,139,27707,1,0
408,256,27831,1,0
304,304,27955,6,0,B|256:288|272:240,1,77.5
270,244,28203,1,0
272,128,28327,1,0
272,128,28451,6,0,B|208:192|208:192|144:160|176:48|96:136|96:136|144:88,1,310
64,296,29442,6,0,B|192:248|192:248|192:128|280:184|256:272,1,310
259,253,30062,1,0
448,56,30186,2,0,B|408:192|408:192|296:200|304:264|392:296,1,310
128,296,30558,6,0,B|40:136,1,155
280,216,30806,2,0,B|224:40,1,155
464,336,31426,6,0,B|384:296|472:264|424:152|344:224,1,155
405,205,31798,1,0
312,272,31922,2,0,B|208:280|184:176,1,155
190,198,32294,1,0
384,64,32418,2,0,B|384:160|320:168|264:168,1,155
293,166,32914,5,0
293,166,33161,1,0
144,96,33533,6,0,B|144:200|144:200|64:224|176:304|272:304|272:304|272:152,1,465
408,88,34277,2,0,B|240:88|240:88|416:88|416:88|416:240,1,465
184,200,34897,5,0
184,200,34959,1,0
184,200,35021,1,0
184,200,35083,1,0
184,200,35145,1,0
184,200,35207,1,0
184,200,35269,6,0,B|256:272|368:280|400:240,1,232.5
395,245,35765,1,0
320,152,35889,6,0,B|232:144|192:48,1,155
112,144,36261,1,0
80,264,36385,2,0,B|192:232|248:368,1,155
336,304,36756,1,0
448,280,36880,2,0,B|368:176|472:88,1,155
208,56,37376,6,0,B|240:160|240:160|352:184|352:184|360:88|264:128,1,310
316,116,38120,1,0
316,116,38368,1,0
316,116,38616,5,0
316,116,38740,1,0
316,116,38802,1,0
316,116,38864,1,0
316,116,38926,1,0
316,116,38988,1,0
64,352,39360,5,0
64,352,39608,2,0,B|184:152|304:344|304:344,1,310
384,128,40352,1,0
160,72,40599,1,0
160,72,40847,2,0,B|72:144|96:240|176:280|256:248,1,310
424,88,41591,5,0
424,88,41839,2,0,B|416:248,1,155
200,152,42335,2,0,B|104:304,1,155
117,283,42831,5,0
117,283,42955,1,0
117,283,43079,1,0
117,283,43203,1,0
232,288,43327,6,0,B|392:208|312:64|184:96,1,310
440,72,44071,2,0,B|280:160|352:256|464:272,1,310
232,312,44814,1,0
32,192,45062,1,0
200,32,45310,6,0,B|112:144|224:176,1,155
360,104,45806,2,0,B|448:160|504:88|496:48,1,155
491,78,46302,1,0
384,272,46550,5,0
384,272,46798,2,0,B|264:328|208:272,1,155
80,112,47294,2,0,B|208:56|320:80,1,232.5
424,96,47790,5,0
424,96,47914,2,0,B|464:176,1,77.5
344,184,48161,2,0,B|280:264,1,77.5
408,256,48409,2,0,B|440:344,1,77.5
320,320,48657,1,0
200,320,48781,5,0
160,312,48905,1,0
176,272,49029,1,0
144,256,49153,1,0
160,224,49277,2,0,B|200:136|200:136,1,77.5
96,80,49525,2,0,B|208:72,1,77.5
256,160,49773,2,0,B|328:112,1,77.5
240,32,50021,2,0,B|352:32,1,77.5
432,64,50269,6,0,B|464:168|408:232,1,155
200,280,50765,2,0,B|352:296|368:240,1,155
176,104,51261,6,0,B|344:136,1,155
328,133,51756,1,0
328,133,52004,1,0
464,320,52252,2,0,B|304:272,1,155
315,275,52748,1,0
315,275,52996,1,0
88,232,53244,5,0
320,208,53492,1,0
472,32,53740,1,0
472,32,53988,2,0,B|480:208|304:304,1,310
329,289,54732,1,0
329,289,54980,1,0
112,312,55228,5,0
336,264,55475,1,0
432,56,55723,1,0
200,96,55971,1,0
200,96,56219,2,0,B|160:176|256:232,1,155
456,128,56715,5,0
312,312,56963,1,0
112,192,57211,1,0
112,192,57459,2,0,B|192:48|376:112|480:304,1,465
424,64,59195,6,0,B|416:240|384:232,1,155
200,112,59690,2,0,B|240:248|288:272,1,155
488,320,60186,1,0
376,120,60434,1,0
208,280,60682,1,0
112,72,60930,2,0,B|72:176|168:224,1,155
336,72,61426,5,0
448,280,61674,1,0
336,288,61798,1,0
216,296,61922,2,0,B|136:304|88:208|88:208|144:144|48:88,1,310
288,64,62666,5,0
288,64,62914,1,0
64,64,63161,6,0,B|144:64,1,77.5
120,176,63409,2,0,B|216:176,1,77.5
224,64,63657,2,0,B|336:64,1,77.5
280,176,63905,2,0,B|368:176,1,77.5
424,80,64153,5,0
448,192,64277,1,0
424,80,64401,1,0
448,192,64525,1,0
424,304,64649,5,0
448,192,64773,1,0
424,304,64897,1,0
448,192,65021,1,0
448,192,65145,6,0,B|320:248|248:128|112:184,1,310
392,72,66137,6,0,B|424:272,1,193.75
312,168,66571,2,0,B|208:352,1,193.75
176,208,67004,2,0,B|24:288,1,155
80,168,67376,5,0
176,104,67500,1,0
288,96,67624,1,0
488,208,67872,6,0,B|400:328|336:296,1,155
136,296,68368,1,0
264,96,68616,1,0
32,56,68864,2,0,B|96:144|160:168,1,155
360,80,69360,5,0
464,288,69608,1,0
464,288,69856,2,0,B|376:264|352:176,1,155
152,304,70352,2,0,B|256:256|256:176,1,155
56,72,70847,5,0
56,72,71095,2,0,B|368:128,1,310
472,336,71839,5,0
432,328,71963,1,0
448,288,72087,1,0
408,272,72211,1,0
424,240,72335,2,0,B|400:160|336:200|336:200|352:144,1,155
296,104,72831,2,0,B|200:72|176:120|176:120|152:72,1,155
72,168,73203,1,0
16,280,73327,6,0,B|-16:360|72:408|184:376|192:280|112:248,1,310
336,168,74071,1,0
112,112,74318,1,0
336,48,74566,1,0
344,280,74814,1,0
120,208,75062,2,0,B|224:96|424:192,1,310
200,296,75806,5,0
232,64,76054,1,0
344,96,76178,1,0
432,176,76302,1,0
208,224,76550,6,0,B|320:232|344:144,1,155
104,136,77046,2,0,B|128:48|240:72,1,155
448,144,77542,6,0,B|352:304|160:304,1,310
88,96,78285,1,0
320,64,78533,1,0
320,64,78657,1,0
320,64,78781,1,0
192,256,79029,6,0,B|352:264|344:240,1,155
168,96,79525,2,0,B|40:160|32:216,1,155
280,192,80021,2,0,B|400:192|448:136,1,155
256,312,80517,2,0,B|136:336|80:288,1,155
184,88,81013,6,0,B|144:216|256:296|408:272|408:160,1,387.5
184,88,81756,2,0,B|312:24|360:192|312:280|168:272|152:176,1,387.5
184,88,82500,2,0,B|192:144|168:200|88:208|56:104|112:16|192:16,1,310
400,80,83244,5,0
368,312,83492,2,0,B|208:264,1,155
168,40,83988,1,0
112,264,84236,2,0,B|272:176,1,155
392,120,84980,6,0,B|368:224|296:240,1,155
80,312,85475,2,0,B|104:192|192:200,1,155
392,272,85971,5,0
392,272,86095,1,0
392,272,86219,1,0
392,272,86343,1,0
392,272,86467,5,0
392,272,86529,1,0
392,272,86591,1,0
392,272,86653,1,0
392,272,86715,1,0
392,272,86777,1,0
392,272,86839,1,0
280,288,86963,6,0,B|184:288,1,77.5
272,192,87211,2,0,B|368:192,1,77.5
280,96,87459,2,0,B|192:96,1,77.5
272,0,87707,2,0,B|352:0,1,77.5
440,80,87955,6,0,B|448:136,4,38.75
360,296,88451,2,0,B|320:336,4,38.75
128,320,88947,5,0
88,88,89195,1,0
312,144,89442,1,0
128,320,89690,2,0,B|272:304|224:208,1,155
234,236,90062,1,0
234,236,90186,1,0
208,8,90434,1,0
424,104,90682,5,0
424,104,90806,1,0
424,104,90930,2,0,B|320:168|368:248,1,155
264,328,91426,2,0,B|200:216|136:240,1,155
152,136,91922,2,0,B|352:184|432:16,1,310
420,38,92294,1,0
420,38,92418,1,0
40,312,92914,5,0
152,296,93037,1,0
88,200,93161,1,0
40,312,93285,2,0,B|136:336|216:288,1,155
191,300,93657,1,0
304,304,93781,1,0
424,296,93905,5,0
424,296,94029,1,0
424,296,94153,2,0,B|456:224|384:144,1,155
391,153,94525,1,0
391,153,94649,2,0,B|448:64|312:56,1,155
96,56,95145,5,0
256,120,95393,1,0
112,224,95641,2,0,B|176:256|248:208,1,116.25
448,56,96137,5,0
432,168,96261,1,0
448,56,96385,1,0
432,168,96509,1,0
336,232,96633,5,0
432,168,96756,1,0
336,232,96880,2,0,B|240:288|192:208,1,155
32,56,97376,2,0,B|152:16|184:104,1,155
172,80,97748,1,0
172,80,97872,1,0
160,200,97996,6,0,B|48:312|224:336|168:160|-8:216|80:368|192:312|216:232|64:208,1,310
112,160,98616,1,0
120,104,98740,2,0,B|232:48|256:176|320:224|408:200|368:128,1,310
432,256,99360,2,0,B|232:240,1,193.75
144,336,99856,6,0,B|40:32,1,310
43,42,100228,1,0
480,208,100352,6,0,B|400:320|288:296,1,155
128,264,100599,2,0,B|208:168|312:216,1,155
288,80,100847,6,0,B|336:192|432:160|432:160,1,155
392,280,101219,1,0
280,296,101343,2,0,B|192:200|136:304,1,155
152,160,101715,1,0
256,104,101839,2,0,B|336:160|408:112,1,155
416,232,102211,5,0
328,304,102335,2,0,B|184:304|104:240|96:200,1,232.5
296,88,102831,6,0,B|352:152,5,77.5
296,256,103203,6,0,B|208:304,5,77.5
160,200,103575,6,0,B|112:88,4,77.5
272,176,103947,5,0
384,184,104071,6,0,B|384:248,10,38.75
344,72,104814,6,0,B|192:72|80:136|232:208|280:224,1,310
255,214,105434,1,0
255,214,105558,2,0,B|136:224|128:296|256:352|384:336,1,310
448,272,106178,5,0
456,152,106302,2,0,B|368:64|288:80,1,155
208,72,106674,1,0
136,168,106798,2,0,B|232:264|104:304,1,155
368,288,107294,6,0,B|304:224|408:152,1,155
336,56,107666,1,0
224,80,107790,2,0,B|288:176|184:232,1,155
456,272,108285,6,0,B|128:288,1,310
96,56,108781,1,0
328,56,109029,1,0
120,160,109277,1,0
120,160,109525,1,0
120,160,109649,2,0,B|224:56|336:216|208:288|112:256,1,310
264,288,110269,6,0,B|432:272|368:208|248:72|424:128,1,310
192,40,111013,2,0,B|144:128|40:96,1,155
96,216,111385,1,0
184,288,111509,2,0,B|208:200|344:224,1,155
307,219,111772,2,0,B|344:224|336:240|352:224,53,38.75
240,224,112725,6,0,B|152:184|216:88,1,155
328,72,113096,1,0
416,144,113220,2,0,B|336:184|448:256,1,155
344,304,113592,1,0
232,320,113716,2,0,B|144:296|112:200,1,155
240,224,114088,1,0
344,160,114212,6,0,B|248:184|224:80,1,155
226,90,114584,1,0
226,90,114708,2,0,B|168:152|168:208|288:224,1,155
440,320,115204,2,0,B|464:240|344:136|480:24,1,310
360,64,115824,5,0
280,144,115948,2,0,B|176:152|120:80,1,155
136,98,116320,1,0
136,98,116444,1,0
112,272,116691,6,0,B|248:232|344:304,1,232.49999307096
480,192,117435,1,0
160,64,117931,1,0
160,64,118179,1,0
344,64,118427,2,0,B|280:184|312:128|424:192|344:312|328:288,1,155
120,176,118675,6,0,B|56:216|96:320|224:320|264:232|208:176|176:160|176:160|240:80|240:80|280:104|280:104|272:32|272:32|192:56|192:56|232:80|232:80|232:80,2,620
152,64,119791,1,0
232,152,119915,2,0,B|312:224|424:136,1,155
176,312,120658,6,0,B|120:144,1,155
216,88,121030,1,0
336,80,121154,2,0,B|480:192,1,155
384,264,121526,1,0
272,272,121650,2,0,B|96:240,1,155
232,40,122146,6,0,B|416:72|416:256,1,310
415,251,122665,6,0,B|392:304,7,38.75
344,280,123161,2,0,B|232:296,3,77.5
224,248,123595,2,0,B|80:160,2,155
224,248,124091,2,0,B|288:168,3,77.5
272,187,124587,1,0
352,72,125083,6,0,B|400:144,3,77.5
392,192,125579,1,0
392,192,125641,1,0
392,192,125703,1,0
392,192,125765,1,0
392,192,125827,1,0
392,192,125889,1,0
392,192,125951,1,0
392,192,126013,1,0
392,192,126075,2,0,B|360:288,3,77.5
367,265,126570,1,0
