osu file format v5

[General]
AudioFilename: 03 A-Punk.mp3
AudioLeadIn: 0
PreviewTime: -1
Countdown: 1
SampleSet: Normal
StackLeniency: 0.7
Mode: 0
LetterboxInBreaks: 1

[Metadata]
Title:A-Punk
Artist:Vampire Weekend
Creator:DJNSider
Version:Easy
Source:
Tags:Vampire Weekend

[Difficulty]
HPDrainRate:4
CircleSize:4
OverallDifficulty:3
SliderMultiplier:1.4
SliderTickRate:1

[Events]
//Background and Video events
1,0,"dfs.avi"
//Break Periods
2,5107,12384
2,23625,26101
2,37343,39819
2,62721,67254
2,78496,80971
2,94957,95375
//Storyboard Layer 0 (Background)
//Storyboard Layer 1 (Failing)
//Storyboard Layer 2 (Passing)
//Storyboard Layer 3 (Foreground)
//Storyboard Sound Samples
//Background Colour Transformations
3,100,163,162,255

[TimingPoints]
2850,685.877411603158,4,1,0,100,1

[HitObjects]
128,160,2850,1,0
128,256,3535,1,0
192,160,4221,1,0
192,256,4907,1,0
32,128,13824,5,0
96,224,14509,1,0
160,128,15195,1,0
224,224,15881,1,0
320,224,16567,2,0,B|160:224,2,140
96,160,19311,1,0
96,256,19996,1,0
192,192,20682,1,0
32,160,21368,2,0,B|224:160,3,140
64,128,27541,5,0
64,224,28227,1,0
128,128,28913,1,0
224,128,29599,1,0
320,128,30285,1,0
416,128,30970,1,0
384,224,31656,2,0,B|256:288,2,140
288,192,33714,5,0
192,160,34400,1,0
224,256,35086,1,0
256,192,35772,12,0,37143
32,128,41259,5,0
64,192,41945,1,0
96,128,42630,1,0
128,192,43316,1,0
192,160,44002,2,0,B|480:160,1,280
256,160,46746,1,0
256,256,47432,1,0
352,256,48117,1,0
448,256,48803,1,0
448,128,49489,1,0
448,352,50861,1,0
256,192,52233,12,0,53604
32,160,54976,5,0
128,160,55662,1,0
224,160,56348,1,0
256,192,57720,12,0,59091
32,128,60463,5,0
32,224,61149,1,0
32,320,61835,1,0
128,320,62521,1,0
64,128,68694,5,0
128,192,69380,1,0
224,128,70065,1,0
320,192,70751,1,0
320,64,71437,2,0,B|160:224,2,140
256,192,74181,12,0,75553
64,64,76924,5,0
128,160,77610,1,0
192,64,78296,1,0
224,96,82411,5,0
224,192,83097,1,0
224,288,83783,1,0
96,288,84469,1,0
96,160,85155,1,0
192,160,85841,1,0
288,160,86527,1,0
128,128,87898,6,0,B|128:288,2,140
128,352,90642,2,0,B|320:352,2,140
0,160,93385,1,0
64,256,94071,1,0
128,160,94757,1,0
96,32,96815,6,0,B|96:192,2,140
32,128,98872,2,0,B|224:128,2,140
256,96,101616,2,0,B|64:96,2,140
32,160,104359,2,0,B|192:160,2,140
224,288,107103,5,0
224,160,107789,1,0
224,32,108475,1,0
320,32,109160,1,0
320,128,109846,1,0
320,352,111218,1,0
96,352,112590,5,0
96,224,113276,1,0
96,96,113962,1,0
192,96,114648,1,0
288,96,115333,1,0
320,320,116705,1,0
256,192,118077,12,0,120820
96,160,122192,5,0
192,224,122878,1,0
288,192,123564,1,0
256,192,125622,12,0,126308
256,192,126307,12,0,126993
256,192,126993,12,0,127679
256,192,127679,12,0,128365
