osu file format v9

[General]
AudioFilename: 03 A-Punk.mp3
AudioLeadIn: 0
PreviewTime: -1
Countdown: 3
SampleSet: Normal
StackLeniency: 0.5
Mode: 0
LetterboxInBreaks: 1

[Editor]
Bookmarks: 16415,17615,20873,21730,23445,53281,53966,54995,107121,107636,108150,109008
DistanceSpacing: 1.2
BeatDivisor: 4
GridSize: 8

[Metadata]
Title:A-Punk
Artist:Vampire Weekend
Creator:CaptainOlimar247
Version:Medium
Source:
Tags:indie rock

[Difficulty]
HPDrainRate:2
CircleSize:4
OverallDifficulty:4
ApproachRate:4
SliderMultiplier:1.8
SliderTickRate:4

[Events]
//Background and Video events
Video,-2000,"dfs.avi"
0,0,"CrowdyBayParkDolphinsAtDiamondHead.jpg"
//Break Periods
2,38059,50947
2,78709,81134
2,92945,105833
//Storyboard Layer 0 (Background)
//Storyboard Layer 1 (Fail)
//Storyboard Layer 2 (Pass)
//Storyboard Layer 3 (Foreground)
//Storyboard Sound Samples
//Background Colour Transformations
3,100,163,162,255

[TimingPoints]
126,686.071056241427,4,1,0,100,1,0
52267,-100,4,1,0,100,0,1
60500,-100,4,1,0,100,0,0
107153,-100,4,1,0,100,0,1
128764,-100,4,1,0,100,0,0

[Colours]
Combo1 : 0,39,196
Combo2 : 247,2,2

[HitObjects]
112,192,13675,2,0,B|112:64,1,90
272,104,14533,2,0,B|312:56|328:200|376:72,3,135
448,160,16420,6,0,B|392:248|120:264|120:264,1,315
48,264,17963,1,0
48,160,18306,1,0
104,160,18478,1,0
376,152,19335,6,0,B|464:240,1,90
440,272,19850,2,0,B|440:344|352:336|368:272,1,135
256,280,20708,2,0,B|256:352|160:344|208:232,2,135
256,176,22080,6,0,B|256:80|312:80,2,90
360,152,23109,2,0,B|360:216,1,45
360,248,23452,6,0,B|240:248,2,90
368,304,24310,6,0,B|472:304,2,90
264,304,25339,1,0
224,272,25510,1,0
184,304,25682,1,0
80,304,26025,1,0
256,64,27397,5,2
224,128,27568,1,8
288,128,27740,1,2
288,256,28083,2,0,B|224:384|64:352|32:192|32:192,1,315
40,120,29627,1,2
128,56,29970,1,2
184,56,30141,5,2
240,56,30313,1,8
296,56,30484,1,2
296,160,30827,2,0,B|360:160|360:64,1,90
296,256,31685,5,2
352,256,31856,1,8
408,256,32028,1,2
352,344,32371,2,0,B|480:344,1,90
480,240,33057,6,0,B|480:104,1,90
480,96,33571,1,0
376,96,33914,1,0
248,192,34429,2,0,B|280:136|72:128|280:80|248:16,1,180
136,48,35458,5,2
136,104,35630,1,0
136,160,35801,1,2
32,160,36144,2,0,B|40:320|104:312,1,180
152,312,37002,2,0,B|216:280|280:312,1,90
344,296,37688,1,0
400,296,37859,1,2
128,256,52267,5,0
72,256,52438,1,0
72,152,52781,1,0
232,152,53296,2,8,B|264:88|392:88|384:248,1,225
272,216,54497,2,2,B|224:216|160:248|256:280|304:280,1,135
416,216,55526,2,0,B|464:216|464:216|464:216|464:216,6,45
64,344,57755,5,0
64,288,57926,1,0
64,184,58269,1,0
200,96,58784,2,8,B|232:32|360:32|352:192,1,225
256,208,59985,2,2,B|208:208|144:240|240:272|288:272,1,135
416,264,61014,2,0,B|464:264|464:264|464:264|464:264,13,45
288,192,64788,5,2
416,160,65131,1,8
288,128,65474,1,8
184,128,65817,2,0,B|80:128|144:288,1,180
456,272,67532,5,0
352,272,67875,1,0
400,176,68218,1,0
296,176,68561,6,2,B|264:144|232:176|232:240|200:240|200:176|168:144|136:176|104:208,1,180
88,176,69419,1,0
88,120,69590,1,0
136,88,69762,1,0
192,88,69933,1,8
392,344,70619,1,0
352,312,70791,1,0
304,344,70962,1,0
264,312,71134,1,8
256,208,71477,5,0
256,104,71820,1,0
256,48,71991,1,0
200,48,72163,1,0
200,104,72334,1,0
104,152,72678,2,0,B|24:152|24:224|104:224,1,135
176,280,73535,1,0
216,312,73707,1,0
272,312,73878,1,12
376,312,74221,5,0
376,256,74393,1,0
376,152,74736,2,0,B|496:152|448:24|296:48|248:112|304:224,1,360
304,272,76279,1,0
256,288,76451,1,0
208,304,76622,1,8
120,240,76965,6,0,B|192:240,2,60
120,168,77652,2,0,B|56:168,1,60
120,96,78166,2,0,B|240:96,1,90
32,32,82454,5,0
64,96,82626,1,0
32,160,82797,1,0
64,224,82969,1,0
88,328,83312,2,0,B|176:328|152:200|336:192,1,270
368,192,84512,1,0
368,88,84855,5,0
328,48,85027,1,0
272,48,85198,1,0
232,88,85370,1,0
192,48,85541,1,0
136,48,85713,1,2
64,128,86056,1,0
120,128,86227,1,2
120,232,86570,1,0
160,272,86742,1,0
120,312,86913,1,0
80,272,87085,1,2
448,160,87943,5,0
384,128,88114,1,0
320,160,88286,1,0
384,192,88457,1,12
384,296,88800,1,12
256,32,90344,5,0
288,96,90515,1,0
224,96,90687,1,0
256,160,90858,1,10
256,264,91201,1,0
416,264,91716,2,0,B|408:344|336:224|320:368,1,135
272,336,92402,1,2
216,336,92574,1,0
160,336,92745,1,2
472,64,107153,6,2,B|280:64,1,180
296,168,108182,2,0,B|392:168|456:264|272:320,1,270
224,320,109382,2,4,B|224:216,2,90
144,248,110411,1,0
48,192,110754,1,0
144,136,111097,1,0
240,192,111441,1,0
296,192,111612,1,0
352,192,111784,1,0
296,352,112641,6,2,B|488:352,1,180
472,248,113670,2,0,B|472:152|376:88|360:280,1,225
312,240,114699,2,4,B|312:144,2,90
208,240,115728,1,0
112,192,116072,1,0
208,144,116415,1,0
112,96,116758,1,0
64,64,116929,1,0
112,32,117101,1,0
296,40,118130,6,2,B|488:40,1,180
392,112,119159,2,0,B|296:112|232:208|424:208,1,225
448,208,120188,2,4,B|448:304,2,90
448,104,121217,1,0
344,48,121560,1,0
240,48,121903,1,0
240,152,122246,1,0
296,152,122418,1,0
344,152,122589,1,0
344,328,123618,6,2,B|152:328,1,180
184,224,124647,2,0,B|184:128|280:64|312:240,1,225
416,200,125848,2,0,B|496:200,2,45
408,104,126363,2,0,B|408:32,14,45
256,192,130651,12,2,134252
