osu file format v9

[General]
AudioFilename: 03 A-Punk.mp3
AudioLeadIn: 0
PreviewTime: -1
Countdown: 3
SampleSet: Normal
StackLeniency: 0.5
Mode: 0
LetterboxInBreaks: 1

[Editor]
Bookmarks: 16415,17615,18473
DistanceSpacing: 1.2
BeatDivisor: 4
GridSize: 8

[Metadata]
Title:A-Punk
Artist:Vampire Weekend
Creator:CaptainOlimar247
Version:Hard
Source:
Tags:indie rock

[Difficulty]
HPDrainRate:4
CircleSize:4
OverallDifficulty:4
ApproachRate:4
SliderMultiplier:2.4
SliderTickRate:4

[Events]
//Background and Video events
Video,-2000,"dfs.avi"
0,0,"CrowdyBayParkDolphinsAtDiamondHead.jpg"
//Break Periods
2,21422,26077
2,38059,50947
2,78538,81134
2,92945,105833
//Storyboard Layer 0 (Background)
//Storyboard Layer 1 (Fail)
//Storyboard Layer 2 (Pass)
//Storyboard Layer 3 (Foreground)
//Storyboard Sound Samples
//Background Colour Transformations
3,100,163,162,255

[TimingPoints]
126,686.071056241427,4,1,0,100,1,0
52267,-100,4,1,0,100,0,1
60500,-100,4,1,0,100,0,0
107153,-100,4,1,0,100,0,1
128935,-100,4,1,0,100,0,0

[Colours]
Combo1 : 0,39,196
Combo2 : 247,2,2

[HitObjects]
104,96,13675,2,0,B|184:96|176:224,1,120
392,176,14533,2,0,B|392:240,1,60
264,304,15048,2,0,B|208:344|320:360,5,60
120,328,16420,6,0,B|32:296|248:296|56:240,2,120
96,112,17620,2,0,B|240:112,1,120
216,40,18135,2,0,B|376:40,1,120
456,64,19335,5,0
456,136,19507,1,0
392,104,19679,1,0
392,248,20022,1,0
320,248,20193,1,0
208,80,21051,1,0
208,152,21222,1,0
256,64,27397,5,4
224,128,27568,1,4
288,128,27740,1,4
288,256,28083,1,0
192,352,28426,1,0
64,352,28769,1,0
160,256,29112,1,0
32,256,29455,1,8
64,192,29627,1,2
64,64,29970,1,0
128,96,30141,5,0
128,32,30313,1,0
192,64,30484,1,0
192,192,30827,1,8
192,320,31170,1,8
416,320,31685,5,0
352,288,31856,1,0
288,256,32028,1,0
416,192,32371,1,8
288,160,32714,1,8
392,64,33057,6,0,B|248:64,1,120
200,64,33571,2,0,B|144:112|184:168,1,60
400,288,34429,2,0,B|400:160,2,120
256,288,35458,5,0
184,288,35630,1,0
112,288,35801,1,0
112,144,36144,1,2
240,80,36487,1,2
368,144,36830,1,0
368,216,37002,1,4
224,208,37345,1,0
80,208,37688,1,0
152,208,37859,1,4
128,256,52267,5,8
64,256,52438,1,8
64,128,52781,1,4
256,32,53296,1,0
320,32,53468,1,0
320,160,53811,1,0
448,160,54154,1,0
448,288,54497,1,0
384,288,54668,1,0
240,288,55011,2,0,B|24:288|24:160,3,240
320,192,57755,5,8
248,192,57927,1,8
104,192,58270,1,4
272,56,58785,1,0
344,56,58956,1,0
392,192,59299,1,0
392,336,59642,1,0
248,336,59985,1,0
176,336,60157,1,0
32,336,60500,2,0,B|32:200|232:192,5,240
256,192,64788,5,2
120,152,65131,1,4
256,112,65474,1,4
392,152,65817,1,2
192,320,67532,5,0
48,320,67875,1,0
48,176,68218,1,0
48,32,68561,6,2,B|80:0|112:32|112:96|144:96|144:32|176:0|208:32|240:64,1,180
224,176,69419,1,2
288,152,69590,1,2
288,224,69762,1,0
224,248,69933,1,0
320,352,70276,1,0
416,256,70619,1,2
448,320,70791,1,0
480,256,70962,1,2
448,192,71134,1,0
448,64,71477,5,0
320,64,71820,1,0
288,128,71991,1,0
256,64,72163,1,0
224,128,72334,1,4
96,128,72678,1,0
32,256,73021,1,0
160,256,73364,1,0
192,320,73535,1,0
224,256,73707,1,0
256,320,73878,1,4
384,320,74221,5,0
448,320,74393,1,0
448,192,74736,1,2
384,64,75079,1,2
320,192,75422,1,2
256,64,75765,1,2
192,192,76108,1,0
128,224,76279,1,0
192,256,76451,1,0
128,288,76622,1,0
264,344,76965,5,0
336,344,77137,1,0
408,344,77308,1,0
480,344,77480,1,0
443,281,77652,1,0
371,281,77823,1,0
298,281,77995,1,0
334,219,78166,1,0
406,219,78338,1,0
32,32,82454,5,4
64,96,82626,1,0
32,160,82797,1,0
64,224,82969,1,2
64,352,83312,1,0
192,352,83655,1,0
192,224,83998,1,0
192,96,84341,1,8
256,96,84512,1,10
384,96,84855,5,0
352,160,85027,1,8
416,160,85198,1,0
448,96,85370,1,0
480,160,85541,1,8
448,224,85713,1,0
448,352,86056,1,0
384,320,86227,1,0
256,320,86570,1,8
288,256,86742,1,0
224,256,86913,1,0
192,320,87085,1,14
96,192,87943,5,0
160,160,88114,1,0
96,128,88286,1,0
32,160,88457,1,2
32,32,88800,1,0
256,32,89315,1,8
384,32,89658,1,4
352,96,89829,1,12
480,256,90344,5,0
416,224,90515,1,0
352,224,90687,1,0
288,256,90858,1,0
192,352,91201,1,2
192,136,91716,1,8
120,136,91888,1,0
48,136,92059,1,12
88,200,92231,1,0
160,200,92402,1,14
232,200,92574,1,0
264,136,92745,1,14
64,128,107153,5,8
96,64,107324,1,8
224,64,107667,1,4
448,64,108182,1,0
448,128,108353,1,0
448,256,108696,1,0
320,192,109039,1,0
192,256,109382,1,0
192,320,109554,1,0
48,320,109897,2,0,B|48:176,6,120
112,40,112641,5,8
184,40,112813,1,8
184,184,113156,1,2
400,184,113670,1,0
432,248,113842,1,0
320,352,114185,1,0
224,256,114528,1,0
128,352,114871,1,0
64,320,115042,1,0
64,176,115385,2,0,B|96:176|80:48,6,120
344,256,118130,5,8
416,256,118301,1,8
272,256,118644,1,4
448,128,119159,1,0
384,96,119330,1,0
256,96,119673,1,0
128,96,120016,1,0
128,224,120359,1,0
128,288,120531,1,0
256,352,120874,2,0,B|304:352|296:296|392:296,6,120
96,288,123618,5,8
96,224,123790,1,8
224,256,124133,1,4
440,256,124647,1,0
440,184,124819,1,0
336,80,125162,1,0
192,80,125505,1,0
48,80,125848,1,0
48,152,126020,1,0
256,192,126363,12,0,128935
256,192,130651,12,2,134252
