osu file format v9

[General]
AudioFilename: 03 A-Punk.mp3
AudioLeadIn: 0
PreviewTime: -1
Countdown: 3
SampleSet: Normal
StackLeniency: 0.5
Mode: 0
LetterboxInBreaks: 1

[Editor]
Bookmarks: 16415,17615,18473,19164,22251,22594
DistanceSpacing: 1.2
BeatDivisor: 4
GridSize: 8

[Metadata]
Title:A-Punk
Artist:Vampire Weekend
Creator:CaptainOlimar247
Version:Expert
Source:
Tags:Indie Rock

[Difficulty]
HPDrainRate:7
CircleSize:5
OverallDifficulty:6
ApproachRate:6
SliderMultiplier:2.4
SliderTickRate:4

[Events]
//Background and Video events
0,0,"CrowdyBayParkDolphinsAtDiamondHead.jpg"
Video,0,"dfs.avi"
//Break Periods
2,23652,26347
2,38059,51217
2,93116,106103
//Storyboard Layer 0 (Background)
//Storyboard Layer 1 (Fail)
//Storyboard Layer 2 (Pass)
//Storyboard Layer 3 (Foreground)
//Storyboard Sound Samples
//Background Colour Transformations
3,100,163,162,255

[TimingPoints]
126,686.071056241427,4,1,0,100,1,0
52267,-100,4,1,0,100,0,1
63244,-100,4,1,0,100,0,0
107153,-100,4,1,0,100,0,1
128935,-100,4,1,0,100,0,0

[Colours]
Combo1 : 0,39,196
Combo2 : 247,2,2

[HitObjects]
256,192,13675,1,0
184,192,13847,1,2
112,192,14018,1,0
40,192,14190,1,2
112,320,14533,1,8
184,320,14705,1,8
328,320,15048,2,2,B|368:320|368:240,1,60
368,208,15391,1,0
368,136,15562,2,2,B|368:48,1,60
312,32,15905,1,8
280,96,16077,1,4
248,32,16248,1,8
176,32,16420,6,2,B|216:88|136:88,1,60
112,56,16763,1,0
112,128,16934,2,2,B|112:192,1,60
112,264,17277,1,0
112,336,17449,2,8,B|208:336|248:272,1,120
296,296,17963,2,8,B|368:296|240:256,1,60
296,200,18306,1,0
296,128,18478,1,8
472,64,19164,6,0,B|472:128|368:128,1,120
384,200,19679,1,0
456,192,19850,2,2,B|504:264,1,60
488,312,20193,2,0,B|416:312|392:336|384:264,1,120
336,336,20708,2,2,B|312:360|264:328,1,60
208,344,21051,1,4
136,344,21222,2,0,B|72:344,1,60
32,288,21565,1,4
256,192,22080,12,2,23452
256,40,27397,5,2
256,112,27568,1,0
256,184,27740,2,8,B|256:256,1,60
328,248,28083,2,8,B|328:176,1,60
400,184,28426,2,8,B|400:272,1,60
472,248,28769,2,8,B|472:168,1,60
472,248,29112,2,8,B|472:320,1,60
416,352,29455,1,2
360,312,29627,2,8,B|272:312,1,60
240,352,29970,1,8
168,352,30141,5,0
96,328,30313,1,0
168,304,30484,2,2,B|168:224,1,60
224,200,30827,2,2,B|224:288,1,60
280,216,31170,2,6,B|280:152|376:144,1,120
360,216,31685,5,0
416,256,31856,1,0
416,184,32028,2,8,B|512:184,1,60
472,112,32371,2,0,B|472:24|360:24|360:112,1,180
288,104,33057,5,0
256,168,33228,2,8,B|328:168,1,60
272,224,33571,2,8,B|208:224,1,60
256,280,33914,2,8,B|328:280,1,60
392,280,34258,2,2,B|456:272|472:168,1,120
400,168,34772,1,0
400,96,34944,2,0,B|400:16|320:112,1,120
256,104,35458,5,0
200,152,35630,1,0
128,152,35801,2,8,B|128:240,1,60
88,152,36144,2,8,B|88:56,1,60
48,152,36487,2,8,B|48:232,1,60
48,288,36830,1,0
80,352,37002,2,8,B|160:352,1,60
144,280,37345,2,8,B|224:280,1,60
280,280,37688,1,0
344,248,37859,1,4
256,32,52267,5,2
256,104,52438,2,0,B|168:104,1,60
120,104,52781,2,0,B|72:168|216:184,1,120
248,184,53296,1,0
248,256,53468,2,2,B|248:328,1,60
320,320,53811,2,0,B|320:240,1,60
392,256,54154,2,0,B|392:352,1,60
464,320,54497,1,0
464,248,54668,2,0,B|416:192,1,60
256,192,55011,12,2,57069
256,32,57755,5,2
256,104,57926,2,0,B|344:104,1,60
392,104,58269,2,0,B|440:168|296:184,1,120
264,184,58784,1,0
264,256,58956,2,2,B|264:328,1,60
192,320,59299,2,0,B|192:240,1,60
120,256,59642,2,0,B|120:352,1,60
48,320,59985,1,0
48,248,60156,2,0,B|96:192,1,60
256,192,60499,12,2,63244
256,128,64788,6,8,B|256:48,1,60
256,128,65131,2,8,B|176:128,1,60
256,128,65474,2,8,B|256:192,1,60
256,128,65817,2,8,B|328:128,1,60
256,192,67532,6,8,B|168:192,1,60
144,240,67875,2,4,B|224:240,1,60
256,288,68218,2,2,B|184:288,1,60
144,344,68561,5,0
72,320,68733,1,0
48,256,68904,1,0
48,184,69076,2,2,B|48:80,1,60
104,80,69419,1,2
176,80,69590,2,2,B|256:80,1,60
200,144,69933,2,8,B|112:144,1,60
136,216,70276,2,0,B|136:304,1,60
200,304,70619,1,0
248,248,70791,2,0,B|336:248,1,60
376,272,71134,2,4,B|376:192,1,60
448,232,71477,6,0,B|448:160,1,60
392,128,71820,1,2
320,128,71991,1,2
368,72,72163,1,2
296,72,72334,2,0,B|224:72,1,60
232,144,72678,2,4,B|232:232,1,60
168,176,73021,2,4,B|72:176,1,60
56,128,73364,1,0
32,192,73535,1,0
56,256,73707,1,2
32,320,73878,2,4,B|112:320,1,60
168,320,74221,5,0
240,320,74393,2,4,B|320:320,1,60
336,256,74736,2,0,B|216:256,1,60
312,192,75079,2,4,B|384:192,1,60
408,128,75422,2,0,B|320:128,1,60
376,64,75765,2,14,B|288:64,1,60
240,64,76108,1,0
224,136,76279,1,0
168,176,76451,1,0
96,176,76622,2,14,B|96:248,1,60
96,312,76965,6,0,B|160:312,1,60
168,240,77308,1,8
240,240,77480,1,8
256,312,77652,2,0,B|336:312,1,60
336,240,77995,2,0,B|416:240,1,60
456,280,78338,1,8
456,208,78509,1,8
392,176,78681,2,0,B|312:176,1,60
24,192,79710,5,0
24,192,79881,1,0
24,192,80053,1,0
48,48,80396,1,0
120,48,80567,2,0,B|200:48,1,60
184,120,80910,1,0
248,96,81082,1,0
248,168,81253,1,0
312,136,81425,1,0
312,208,81596,1,0
376,176,81768,1,0
440,144,81939,1,0
440,72,82111,1,0
304,32,82454,5,2
232,32,82626,1,8
168,56,82797,1,8
120,112,82969,2,0,B|24:112,1,60
64,184,83312,2,2,B|144:184,1,60
128,256,83655,2,0,B|224:256,1,60
256,264,83998,2,0,B|256:336,1,60
328,328,84341,1,0
400,328,84512,2,10,B|400:264|400:264|392:272,1,60,0|0
400,192,84855,5,0
400,120,85027,1,0
344,72,85198,1,0
296,128,85370,1,8
232,104,85541,1,0
168,144,85713,2,8,B|128:144|128:216,1,60
128,256,86056,1,0
128,328,86227,1,0
56,328,86399,2,8,B|56:248,1,60
56,192,86742,1,8
88,128,86913,1,8
48,64,87085,2,10,B|104:8|312:24,1,240
352,24,87943,5,0
392,80,88114,1,8
440,24,88286,1,0
392,80,88457,2,8,B|392:176,1,60
392,216,88800,2,12,B|392:360,1,120
320,352,89315,2,0,B|200:352,1,60
184,352,89658,1,0
128,304,89829,2,14,B|40:312|56:208,1,120
48,160,90344,5,0
48,88,90515,1,2
104,40,90687,1,8
160,88,90858,2,2,B|272:88,1,60
296,88,91201,2,8,B|448:88,1,120
416,160,91716,1,0
360,208,91888,1,0
416,256,92059,1,0
472,304,92231,1,0
416,352,92402,1,0
360,304,92574,1,8
288,304,92745,2,8,B|184:304,1,60
256,32,107153,5,2
256,104,107324,2,0,B|168:104,1,60
120,104,107667,2,0,B|72:168|216:184,1,120
248,184,108182,1,0
248,256,108354,2,2,B|248:328,1,60
320,320,108697,2,0,B|320:240,1,60
392,256,109040,2,0,B|392:352,1,60
464,320,109383,1,0
464,248,109554,2,0,B|416:192,1,60
256,192,109897,12,2,111955
256,32,112641,5,2
256,104,112812,2,0,B|344:104,1,60
392,104,113155,2,0,B|440:168|296:184,1,120
264,184,113670,1,0
264,256,113842,2,2,B|264:328,1,60
192,320,114185,2,0,B|192:240,1,60
120,256,114528,2,0,B|120:352,1,60
48,320,114871,1,0
48,248,115042,2,0,B|96:192,1,60
256,192,115385,12,2,117444
256,352,118130,5,2
256,280,118301,2,0,B|168:280,1,60
120,280,118644,2,0,B|72:216|216:200,1,120
248,200,119159,1,0
248,128,119331,2,2,B|248:56,1,60
320,64,119674,2,0,B|320:144,1,60
392,128,120017,2,0,B|392:32,1,60
464,64,120360,1,0
464,136,120531,2,0,B|416:192,1,60
256,192,120874,12,2,122932
256,352,123618,5,2
256,280,123789,2,0,B|344:280,1,60
392,280,124132,2,0,B|440:216|296:200,1,120
264,200,124647,1,0
264,128,124819,2,2,B|264:56,1,60
192,64,125162,2,0,B|192:144,1,60
120,128,125505,2,0,B|120:32,1,60
48,64,125848,1,0
48,136,126019,2,0,B|96:192,1,60
88,256,126363,5,0
144,296,126534,1,0
208,264,126706,1,0
272,296,126877,1,0
336,272,127049,1,0
400,304,127220,1,0
456,264,127392,1,0
456,192,127563,1,0
456,120,127735,1,0
456,48,127906,1,0
392,80,128078,1,0
328,48,128249,1,0
264,80,128421,1,0
200,48,128592,1,0
136,80,128764,1,0
80,40,128935,1,0
256,192,130651,12,0,131680
256,192,133223,12,14,134252
