osu file format v9

[General]
AudioFilename: 03 A-Punk.mp3
AudioLeadIn: 0
PreviewTime: 52095
Countdown: 3
SampleSet: Normal
StackLeniency: 0.5
Mode: 0
LetterboxInBreaks: 1

[Editor]
Bookmarks: 22080,23280,27568,90344
DistanceSpacing: 1.2
BeatDivisor: 4
GridSize: 8

[Metadata]
Title:A-Punk
Artist:Vampire Weekend
Creator:CaptainOlimar247
Version:Easy
Source:
Tags:indie rock

[Difficulty]
HPDrainRate:2
CircleSize:3
OverallDifficulty:2
ApproachRate:2
SliderMultiplier:1.2
SliderTickRate:4

[Events]
//Background and Video events
Video,-1400,"Vampire Weekend - A-Punk.wmv"
0,0,"CrowdyBayParkDolphinsAtDiamondHead.jpg"
//Break Periods
2,38059,50707
2,76308,80894
2,92945,105593
//Storyboard Layer 0 (Background)
//Storyboard Layer 1 (Fail)
//Storyboard Layer 2 (Pass)
//Storyboard Layer 3 (Foreground)
//Storyboard Sound Samples
//Background Colour Transformations
3,100,163,162,255

[TimingPoints]
126,686.071056241427,4,1,0,100,1,0
52267,-100,4,1,0,100,0,0
60500,-100,4,1,0,100,0,0
107153,-100,4,1,0,100,0,0
127049,-100,4,1,0,100,0,0

[Colours]
Combo1 : 0,39,196
Combo2 : 247,2,2

[HitObjects]
192,192,13847,6,8,B|64:32|32:160|144:232,1,270
216,296,15905,1,0
320,192,16591,6,8,B|448:32|480:160|368:232,1,270
296,296,18649,1,0
192,192,19335,6,0,B|192:352,1,150
120,264,20708,2,0,B|120:104,1,150
216,160,22080,6,0,B|312:160|440:88|360:112|288:104|352:120|344:80|376:64|408:56,3,240
264,32,27568,6,0,B|8:32|48:360|40:296,1,390
152,304,30313,5,0
152,200,30827,1,0
224,200,31170,1,12
224,88,31685,5,0
368,88,32371,1,0
376,160,32714,1,12
304,160,33057,6,0,B|304:232,1,60
304,328,33914,2,0,B|152:328|176:192,1,210
176,136,35458,5,0
120,96,35801,1,0
176,56,36144,1,0
232,96,36487,1,0
288,56,36830,1,0
344,96,37173,5,0
392,144,37516,1,0
448,192,37859,1,0
48,344,52267,5,0
48,128,53296,1,0
160,128,53811,1,0
160,304,54668,1,0
232,304,55011,2,0,B|496:304,1,240
200,200,57755,5,0
416,200,58784,1,0
416,88,59299,1,0
240,88,60156,1,0
168,88,60500,2,0,B|56:88|56:296,2,240
256,192,64788,5,2
256,192,67532,5,0
80,72,68561,6,2,B|112:40|168:72|168:72|160:72|160:72|160:72|160:72|160:72,1,90
232,72,69419,1,0
336,72,69933,1,8
408,72,70276,1,0
408,184,70791,1,0
408,328,71477,5,0
336,328,71820,1,0
264,328,72163,1,0
152,328,72678,1,0
80,328,73021,1,0
80,256,73364,1,8
48,256,73535,1,8
32,112,74221,5,0
144,112,74736,1,0
216,112,75079,1,0
288,112,75422,1,0
360,112,75765,1,0
432,112,76108,1,4
400,192,82454,6,0,B|520:192,2,60
288,192,83655,5,0
216,192,83998,1,0
144,192,84341,1,2
112,192,84512,1,4
112,264,84855,5,0
160,320,85198,1,0
200,320,85370,1,0
248,264,85713,1,0
320,264,86056,1,0
424,264,86570,1,12
144,192,87943,5,0
144,120,88286,1,0
144,88,88457,1,0
216,88,88800,1,0
328,88,89315,1,0
432,88,89829,1,10
432,200,90344,6,0,B|224:200|288:64|88:80,1,360
56,136,92745,1,0
48,344,107153,5,0
48,128,108182,1,0
160,128,108697,1,0
160,304,109554,1,0
232,304,109897,2,0,B|232:80|456:80,1,360
456,224,112641,5,0
240,224,113670,1,0
128,224,114185,1,0
184,56,115042,1,0
256,56,115385,2,0,B|416:56|400:184|120:128,1,360
48,248,118130,5,0
264,248,119159,1,0
376,248,119674,1,0
232,144,120531,1,0
160,144,120874,2,0,B|160:16|480:48,1,360
472,192,123618,5,0
256,192,124647,1,0
256,80,125162,1,0
80,72,126019,1,0
136,120,126363,2,12,B|-24:248|40:312|136:312|80:312,2,240
256,192,130651,12,2,134252
