osu file format v6

[General]
AudioFilename: 1 ()-Rondo TV Size.mp3
AudioLeadIn: 0
PreviewTime: -1
Countdown: 1
SampleSet: Normal
StackLeniency: 0.7
Mode: 0
LetterboxInBreaks: 1

[Editor]
DistanceSpacing: 0.800000011920929
BeatDivisor: 8
GridSize: 32

[Metadata]
Title:Rondo
Artist:Vampire Knight
Creator:KeksMonster
Version:Zero
Source:Anime
Tags:

[Difficulty]
HPDrainRate:2
CircleSize:4
OverallDifficulty:2
SliderMultiplier:2.2
SliderTickRate:3

[Events]
//Background and Video events
0,0,"6-f4c8fbcabfd1e54f.jpg"
//Break Periods
2,8324,13315
//Storyboard Layer 0 (Background)
//Storyboard Layer 1 (Fail)
//Storyboard Layer 2 (Pass)
//Storyboard Layer 3 (Foreground)
//Storyboard Sound Samples
//Background Colour Transformations
3,100,163,162,255

[TimingPoints]
0,1000,4,1,0,100,1,0

[Colours]
Combo1 : 128,0,64
Combo2 : 128,0,0
Combo3 : 128,0,255

[HitObjects]
256,208,1000,12,0,4875
64,64,5250,6,0,B|64:96,1,27.5
64,160,5750,2,0,B|64:192,1,27.5
64,224,6125,2,0,B|128:288,2,82.5
96,192,7125,2,0,B|96:160,1,27.5
96,128,7500,2,0,B|96:96,2,27.5
128,160,8000,2,0,B|128:192,1,27.5
256,96,14875,5,0
160,192,15375,1,0
256,288,15875,1,0
352,192,16375,1,0
448,64,16875,5,0
448,128,17125,1,0
448,256,17625,2,0,B|448:288,1,27.5
384,288,18000,2,0,B|352:288,1,27.5
256,288,18500,2,0,B|192:288,2,55
256,288,19125,1,0
352,288,19500,2,0,B|320:224,1,55
448,256,20250,6,0,B|448:192,1,55
384,96,20750,1,0
256,96,21000,2,0,B|224:96,2,27.5
384,224,21625,2,0,B|320:224,1,55
288,96,22125,2,0,B|224:96,2,55
128,320,24500,6,0,B|224:320,2,82.5
64,320,25500,1,0
64,256,25750,2,0,B|64:224,1,27.5
64,128,26250,2,0,B|64:64,1,55
128,64,26750,1,0
128,64,26875,1,0
224,64,27250,2,0,B|288:64,1,55
320,64,28000,6,0,B|384:64,1,55
375,64,28375,2,0,B|416:128,1,55
416,128,28750,1,0
416,192,29125,1,0
416,224,29375,2,0,B|416:288|416:288|352:320,2,110
416,128,31125,6,0,B|416:64,5,55,0|0|0|0|0|0
352,64,32750,1,0
320,64,33000,1,0
224,64,33500,2,0,B|160:64,3,55
64,64,34750,1,0
64,96,35000,1,0
64,160,35375,2,0,B|64:224,3,55
128,320,36625,5,0
256,320,37125,1,0
320,320,37375,1,0
384,320,37625,1,0
352,256,37875,1,0
288,256,38125,1,0
320,192,38375,2,0,B|320:160,2,27.5
320,256,38875,1,0
256,320,39375,5,0
192,320,39625,1,0
128,320,39875,1,0
64,320,40125,1,0
64,224,40500,2,0,B|64:160,1,55
64,64,41250,1,0
128,64,41500,1,0
192,64,41750,1,0
256,64,42000,1,0
352,64,42375,2,0,B|416:64,1,55
416,192,43125,2,0,B|416:256,2,55
352,64,44125,6,0,B|320:64,2,27.5
416,64,44625,1,0
416,64,44750,1,0
416,128,45000,1,0
416,128,45125,1,0
416,256,45625,2,0,B|416:288,2,27.5
256,224,46625,2,0,B|256:256,1,27.5
256,288,46875,2,0,B|192:352|128:288|64:224|128:160|192:224|256:160|192:96|256:64,1,385
416,64,49250,6,0,B|416:128,3,55
416,160,50250,1,0
416,160,50375,1,0
416,192,50625,1,0
320,224,51125,2,0,B|320:160,3,55
320,128,52125,1,0
320,128,52250,1,0
320,96,52500,1,0
192,64,53125,5,0
128,96,53375,1,0
192,128,53625,1,0
128,160,53875,1,0
192,192,54125,2,0,B|192:224,1,27.5
128,256,54500,1,0
192,288,54750,1,0
256,256,55000,1,0
416,256,55500,2,0,B|416:192|352:128|320:128,1,165
256,96,56500,1,0
192,64,57000,6,0,B|128:64,1,55
96,64,57500,2,0,B|96:96,1,27.5
96,128,57875,2,0,B|96:160,1,27.5
96,224,58375,1,0
160,320,58875,5,0
224,320,59125,1,0
288,320,59375,1,0
352,320,59625,1,0
416,320,59875,2,0,B|416:288,1,27.5
416,224,60250,1,0
416,64,60875,5,0
352,64,61125,1,0
288,64,61375,1,0
224,64,61625,2,0,B|192:64,1,27.5
96,64,62125,2,0,B|64:64,1,27.5
64,128,62500,2,0,B|64:192,2,55
64,128,63125,1,0
64,256,63750,5,0
64,320,64000,1,0
128,288,64250,1,0
256,320,64750,5,0
320,288,65000,1,0
320,288,65125,1,0
384,256,65375,1,0
320,224,65625,1,0
320,224,65750,1,0
256,192,66000,1,0
160,64,66625,6,0,B|96:64,3,55
64,96,67625,1,0
64,96,67750,1,0
64,160,68000,1,0
64,288,68625,2,0,B|96:320|128:288,3,55
160,256,69625,1,0
160,256,69750,1,0
160,256,69875,1,0
160,160,70375,1,0
160,160,70500,1,0
160,64,71000,2,0,B|224:128|288:64|352:128,1,220
320,288,72500,5,0
384,288,72750,1,0
384,224,73000,1,0
384,192,73125,1,0
384,128,73375,1,0
384,96,73500,1,0
384,32,73750,1,0
256,64,74375,6,0,B|192:64,4,55
288,64,75500,2,0,B|352:64,1,55
448,160,76375,1,0
448,224,76625,1,0
416,288,76875,1,0
384,288,77000,2,0,B|320:288,1,55
288,320,77500,1,0
224,320,77750,1,0
160,320,78000,1,0
160,320,78125,2,0,B|160:224,1,82.5
128,224,78625,1,0
256,160,79750,5,4
256,208,80750,12,0,87625
