osu file format v6

[General]
AudioFilename: 1 ()-Rondo TV Size.mp3
AudioLeadIn: 0
PreviewTime: -1
Countdown: 1
SampleSet: Normal
StackLeniency: 0.7
Mode: 0
LetterboxInBreaks: 1

[Editor]
DistanceSpacing: 0.800000011920929
BeatDivisor: 8
GridSize: 32

[Metadata]
Title:Rondo
Artist:Vampire Knight
Creator:KeksMonster
Version:Yuki-chan
Source:Anime
Tags:

[Difficulty]
HPDrainRate:1
CircleSize:3
OverallDifficulty:1
SliderMultiplier:1.8
SliderTickRate:3

[Events]
//Background and Video events
0,0,"6-f4c8fbcabfd1e54f.jpg"
//Break Periods
2,8325,15070
//Storyboard Layer 0 (Background)
//Storyboard Layer 1 (Fail)
//Storyboard Layer 2 (Pass)
//Storyboard Layer 3 (Foreground)
//Storyboard Sound Samples
//Background Colour Transformations
3,100,163,162,255

[TimingPoints]
0,1000,4,1,0,100,1,0

[Colours]
Combo1 : 128,0,64
Combo2 : 128,0,0
Combo3 : 128,0,255

[HitObjects]
256,208,1000,12,0,4875
160,256,6125,5,0
352,256,7125,1,0
256,128,8125,1,0
64,64,16750,6,0,B|64:288,1,202.5
224,288,18750,1,0
416,288,19750,1,0
416,64,20750,1,0
256,64,21625,2,0,B|64:64,2,180
416,64,24625,5,0
416,192,25500,1,0
320,320,26500,1,0
160,320,27500,1,0
64,160,28500,1,0
160,64,29375,2,0,B|256:64,2,90
64,96,31375,5,0
64,224,32250,1,0
128,256,32750,2,0,B|192:256,1,45
320,256,34250,1,0
384,192,34750,2,0,B|384:128,1,45
256,64,36125,2,0,B|160:64,2,90
416,192,38125,5,0
320,320,39000,1,0
160,320,40000,1,0
64,160,41250,2,0,B|64:96,3,45
128,64,42500,2,0,B|192:64,1,45
416,64,44000,1,0
416,288,45750,5,0
96,288,46875,1,0
256,64,48875,5,0
256,192,49750,1,0
160,288,51125,1,0
96,224,51625,1,0
96,64,52625,1,0
96,64,53125,1,0
96,64,53625,1,0
256,64,54500,2,0,B|448:128,2,180
96,64,57500,5,0
96,224,58375,2,0,B|160:288|160:288|256:320,1,180
384,256,60375,2,0,B|416:192|416:192|416:96,1,157.5
288,64,62250,1,0
128,64,63000,1,0
128,64,63125,1,0
384,64,64625,5,0
448,160,65250,1,0
416,288,66125,2,0,B|320:320|320:320|224:320,1,180
96,256,68125,1,0
64,96,69125,1,0
224,64,70000,2,0,B|416:64,2,180
64,96,73000,2,0,B|96:160,2,67.5
256,64,74875,5,0
416,64,75750,1,0
416,224,76875,1,0
256,320,77750,1,0
64,288,78750,1,0
64,96,79750,1,0
256,208,80750,12,0,87625
