osu file format v13

[General]
AudioFilename: track.mp3
AudioLeadIn: 0
PreviewTime: 48109
Countdown: 0
SampleSet: Soft
StackLeniency: 0.7
Mode: 0
LetterboxInBreaks: 0
WidescreenStoryboard: 0

[Editor]
DistanceSpacing: 1.2
BeatDivisor: 4
GridSize: 4
TimelineZoom: 1.6

[Metadata]
Title:Ragogumi
TitleUnicode:Rágógumi
Artist:VV Zsofi
ArtistUnicode:VV Zsófi
Creator:Kazuya
Version:Difficult
Source:
Tags:hungarian magyar
BeatmapID:513281
BeatmapSetID:219045

[Difficulty]
HPDrainRate:6
CircleSize:3.5
OverallDifficulty:5.5
ApproachRate:7
SliderMultiplier:1.45
SliderTickRate:1

[Events]
//Background and Video events
Video,0,"video.avi"
0,0,"bg.jpg",0,0
//Break Periods
2,131616,137901
//Storyboard Layer 0 (Background)
//Storyboard Layer 1 (Fail)
//Storyboard Layer 2 (Pass)
//Storyboard Layer 3 (Foreground)
//Storyboard Sound Samples
//Background Colour Transformations
3,100,0,0,0

[TimingPoints]
2186,461.538461538462,4,2,1,60,1,0
30801,-100,4,2,1,5,0,0
33570,-100,4,2,1,60,0,0
48339,-100,4,2,1,60,0,1
63109,-100,4,2,1,60,0,0
84570,-100,4,2,1,5,0,0
87109,-100,4,2,1,60,0,0
101878,-100,4,2,1,60,0,1
116647,-100,4,2,1,60,0,0
160955,-100,4,2,1,60,0,1
175724,-100,4,2,1,60,0,0

[Colours]
Combo1 : 188,131,252
Combo2 : 142,67,188
Combo3 : 245,158,245
Combo4 : 230,2,138
SliderBorder : 255,255,255

[HitObjects]
52,192,2186,6,0,P|40:112|80:64,2,145,0|0|0,1:0|1:0|1:0,0:0:0:0:
112,256,3339,1,0,0:0:0:0:
196,232,3570,2,0,L|276:224,1,72.5,0|2,1:0|0:0,0:0:0:0:
348,260,4032,6,0,P|340:336|280:368,2,145,0|0|0,1:0|1:0|1:0,0:0:0:0:
268,224,5186,1,2,0:0:0:0:
196,176,5416,2,0,P|157:188|112:184,1,72.5,0|2,1:0|0:0,0:0:0:0:
68,120,5878,6,0,P|36:188|64:252,2,145,0|0|0,1:0|1:0|1:0,0:0:0:0:
144,76,7032,1,0,0:0:0:0:
216,124,7262,2,0,P|254:132|296:128,1,72.5,0|2,1:0|0:0,0:0:0:0:
360,80,7724,6,0,P|416:64|464:80,2,108.75,8|8|8,0:0|0:0|0:0,0:0:0:0:
256,220,8878,1,8,0:0:0:0:
172,196,9109,1,8,0:0:0:0:
100,244,9339,1,0,0:0:0:0:
124,328,9570,6,0,L|200:332,1,72.5,4|0,0:0|0:0,0:0:0:0:
276,296,10032,2,0,L|352:300,1,72.5,8|0,0:0|0:0,0:0:0:0:
424,256,10493,1,0,0:0:0:0:
364,192,10724,2,0,P|356:156|368:116,1,72.5,0|8,0:0|0:0,0:0:0:0:
436,72,11186,6,0,L|288:64,1,145
224,120,11878,2,0,L|144:116,1,72.5,8|0,0:0|0:0,0:0:0:0:
76,160,12339,1,0,0:0:0:0:
28,232,12570,2,0,L|24:312,2,72.5,0|8|0,0:0|0:0|0:0,0:0:0:0:
76,160,13262,6,0,P|112:148|160:156,1,72.5
204,216,13724,2,0,P|240:228|288:220,1,72.5,8|0,0:0|0:0,0:0:0:0:
340,168,14186,2,0,L|320:96,2,72.5,0|0|8,0:0|0:0|0:0,0:0:0:0:
364,252,14878,6,0,L|508:240,1,145
467,163,15570,2,0,L|390:171,1,72.5,8|0,0:0|0:0,0:0:0:0:
316,132,16032,1,0,0:0:0:0:
256,69,16262,1,0,0:0:0:0:
192,128,16493,2,0,P|152:140|116:132,1,72.5,8|0,0:0|0:0,0:0:0:0:
47,89,16955,6,0,P|34:121|43:169,1,72.5
75,237,17416,1,8,0:0:0:0:
132,304,17647,1,0,0:0:0:0:
216,280,17878,2,0,L|208:360,2,72.5,0|0|8,0:0|0:0|0:0,0:0:0:0:
267,209,18570,6,0,P|303:181|403:185,1,145
460,244,19262,2,0,L|456:324,1,72.5,8|0,0:0|0:0,0:0:0:0:
382,362,19724,1,0,0:0:0:0:
308,316,19955,1,0,0:0:0:0:
224,292,20186,2,0,L|144:284,1,72.5,8|0,0:0|0:0,0:0:0:0:
68,264,20647,6,0,P|44:196|64:128,1,145,0|8,0:0|0:0,0:0:0:0:
132,74,21339,1,0,0:0:0:0:
184,144,21570,1,0,0:0:0:0:
268,120,21801,2,0,L|260:40,2,72.5,0|8|0,0:0|0:0|0:0,0:0:0:0:
318,191,22493,6,0,P|359:197|384:216,1,72.5,0|0,0:0|0:0,0:0:0:0:
384,303,22955,2,0,P|354:323|318:327,1,72.5,8|0,0:0|0:0,0:0:0:0:
257,266,23416,1,0,0:0:0:0:
193,327,23647,2,0,P|157:323|128:303,1,72.5,2|8,0:0|0:0,0:0:0:0:
100,220,24109,1,2,0:0:0:0:
148,148,24339,6,0,L|236:144,1,72.5
256,64,24801,2,0,P|328:44|400:64,1,145
453,125,25493,2,0,L|457:173,1,36.25
448,204,25724,2,0,P|420:220|364:216,1,72.5
320,158,26186,6,0,P|256:134|184:162,1,145
128,224,26878,2,0,P|92:223|60:206,1,72.5
64,119,27339,2,0,L|68:79,1,36.25
91,46,27570,2,0,P|124:31|167:38,1,72.5
220,97,28032,6,0,L|304:97,1,72.5,0|0,0:0|0:0,0:0:0:0:
352,34,28493,2,0,P|388:31|421:46,1,72.5
468,120,28955,1,0,0:0:0:0:
462,207,29186,2,0,L|458:263,1,36.25
440,282,29416,2,0,P|408:294|356:290,1,72.5
312,228,29878,6,0,P|256:216|204:228,1,108.75
171,252,30339,2,0,P|139:268|83:256,1,72.5
256,192,30801,12,0,32647,0:0:0:0:
196,284,33570,6,0,P|240:281|272:296,1,72.5,4|0,0:0|0:0,0:0:0:0:
344,331,34032,2,0,P|378:342|413:338,1,72.5,8|0,0:0|0:0,0:0:0:0:
486,290,34493,1,0,0:0:0:0:
451,210,34724,2,0,L|458:174,2,36.25,0|0|8,0:0|0:0|0:0,0:0:0:0:
372,248,35186,6,0,B|332:256|304:228|304:228|276:256|236:248,1,145
164,204,35878,1,8,0:0:0:0:
91,252,36109,1,0,0:0:0:0:
28,192,36339,2,0,P|4:120|32:60,1,145,0|8,0:0|0:0,0:0:0:0:
108,18,37032,1,0,0:0:0:0:
164,84,37262,6,0,P|200:100|240:96,1,72.5
304,48,37724,2,0,P|340:32|380:36,1,72.5,8|0,0:0|0:0,0:0:0:0:
442,85,38186,1,0,0:0:0:0:
380,144,38416,2,0,P|368:132|356:112,2,36.25,0|0|8,0:0|0:0|0:0,0:0:0:0:
450,195,38878,6,0,P|475:261|442:327,1,145
390,257,39570,1,8,0:0:0:0:
390,257,39801,1,0,0:0:0:0:
390,257,40032,2,0,P|326:231|258:259,1,145,0|8,0:0|0:0,0:0:0:0:
205,326,40724,1,0,0:0:0:0:
140,268,40955,6,0,L|136:192,1,72.5
196,132,41416,2,0,L|192:80,2,36.25,8|0|0,0:0|0:0|0:0,0:0:0:0:
256,196,41878,2,0,P|288:205|336:200,1,72.5
400,156,42339,1,8,0:0:0:0:
376,72,42570,6,0,P|340:44|248:60,1,145
196,132,43262,1,8,0:0:0:0:
122,86,43493,1,0,0:0:0:0:
76,160,43724,2,0,P|68:200|84:240,1,72.5
164,240,44186,2,0,P|177:278|210:305,1,72.5,8|0,0:0|0:0,0:0:0:0:
272,348,44647,6,0,P|344:364|416:352,1,145,0|8,0:0|0:0,0:0:0:0:
472,288,45339,1,0,0:0:0:0:
466,201,45570,2,0,L|462:121,1,72.5
408,60,46032,1,8,0:0:0:0:
329,95,46262,6,0,P|257:115|189:95,1,145
124,40,46955,1,8,0:0:0:0:
61,100,47186,1,0,0:0:0:0:
120,164,47416,2,0,P|116:200|128:240,1,72.5,2|0,0:0|0:0,0:0:0:0:
188,296,47878,1,2,0:0:0:0:
256,242,48109,1,2,0:0:0:0:
327,292,48339,6,0,P|363:301|406:290,1,72.5,4|0,0:0|0:0,0:0:0:0:
462,234,48801,2,0,P|454:197|459:152,1,72.5,8|0,0:0|0:0,0:0:0:0:
398,97,49262,2,0,P|361:112|316:100,1,72.5,0|0,0:0|0:0,0:0:0:0:
256,60,49724,1,8,0:0:0:0:
182,107,49955,6,0,P|152:172|184:236,1,145
256,280,50647,1,8,0:0:0:0:
256,280,50878,1,0,0:0:0:0:
330,234,51109,2,0,P|360:170|329:107,1,145,0|8,0:0|0:0,0:0:0:0:
256,60,51801,1,0,0:0:0:0:
182,107,52032,6,0,P|156:136|152:172,1,72.5,0|0,0:0|0:0,0:0:0:0:
224,216,52493,2,0,P|215:254|230:287,1,72.5,8|0,0:0|0:0,0:0:0:0:
316,284,52955,2,0,P|328:321|357:342,1,72.5,0|0,0:0|0:0,0:0:0:0:
436,369,53416,1,8,0:0:0:0:
484,296,53647,6,0,L|492:148,1,145
496,64,54339,1,8,0:0:0:0:
418,102,54570,1,0,0:0:0:0:
344,56,54801,2,0,P|308:72|264:68,1,72.5
196,36,55262,2,0,P|160:36|127:51,1,72.5,8|0,0:0|0:0,0:0:0:0:
104,136,55724,6,0,L|108:216,1,72.5
186,248,56186,2,0,L|189:175,1,72.5,8|0,0:0|0:0,0:0:0:0:
254,117,56647,2,0,P|292:112|328:100,1,72.5
401,60,57109,1,8,0:0:0:0:
476,104,57339,6,0,P|500:172|468:240,1,145
406,293,58032,1,8,0:0:0:0:
335,241,58262,1,0,0:0:0:0:
320,328,58493,2,0,P|256:360|192:328,1,145,0|8,0:0|0:0,0:0:0:0:
148,256,59186,1,0,0:0:0:0:
135,170,59416,6,0,L|148:96,1,72.5
220,50,59878,2,0,P|255:54|296:50,1,72.5,8|0,0:0|0:0,0:0:0:0:
364,98,60339,2,0,L|377:170,1,72.5
392,256,60801,1,8,0:0:0:0:
324,310,61032,6,0,B|296:316|256:291|256:291|216:316|188:310,1,145
119,254,61724,1,8,0:0:0:0:
194,210,61955,1,0,0:0:0:0:
118,166,62186,2,0,P|107:130|109:90,1,72.5,2|0,0:0|0:0,0:0:0:0:
174,39,62647,1,2,0:0:0:0:
255,71,62878,1,2,0:0:0:0:
336,35,63109,6,0,L|412:44,1,72.5,4|0,0:0|0:0,0:0:0:0:
464,110,63570,1,8,0:0:0:0:
380,134,63801,1,0,0:0:0:0:
437,199,64032,2,0,P|454:235|455:273,1,72.5
397,332,64493,1,8,0:0:0:0:
320,292,64724,6,0,P|256:263|192:292,1,145
124,348,65416,2,0,P|88:352|44:340,1,72.5,8|0,0:0|0:0,0:0:0:0:
92,266,65878,2,0,P|70:236|58:192,1,72.5
147,197,66339,2,0,P|161:163|193:131,1,72.5,8|0,0:0|0:0,0:0:0:0:
256,84,66801,5,0,0:0:0:0:
324,138,67032,2,0,P|360:148|400:136,1,72.5,0|8,0:0|0:0,0:0:0:0:
457,80,67493,2,0,P|481:148|448:208,1,145
377,259,68186,1,8,0:0:0:0:
301,301,68416,1,0,0:0:0:0:
214,300,68647,6,0,P|179:287|140:295,1,72.5
97,219,69109,2,0,P|109:183|102:145,1,72.5,8|0,0:0|0:0,0:0:0:0:
156,80,69570,1,0,0:0:0:0:
80,37,69801,2,0,P|44:30|8:36,2,72.5,0|8|0,0:0|0:0|0:0,0:0:0:0:
156,80,70493,6,0,P|185:101|219:111,1,72.5,0|0,0:0|0:0,0:0:0:0:
304,88,70955,2,0,P|338:98|367:119,1,72.5,8|0,0:0|0:0,0:0:0:0:
416,192,71416,1,0,0:0:0:0:
369,265,71647,2,0,P|364:304|376:340,2,72.5,0|8|0,0:0|0:0|0:0,0:0:0:0:
315,197,72339,6,0,P|256:160|196:198,1,145,0|8,0:0|0:0,0:0:0:0:
135,258,73032,1,0,0:0:0:0:
70,201,73262,1,0,0:0:0:0:
49,285,73493,2,0,P|25:317|21:357,2,72.5,0|8|0,0:0|0:0|0:0,0:0:0:0:
134,258,74186,6,0,L|216:253,1,72.5
254,327,74647,2,0,L|336:322,1,72.5,8|0,0:0|0:0,0:0:0:0:
383,255,75109,1,0,0:0:0:0:
336,182,75339,2,0,L|348:108,2,72.5,0|8|0,0:0|0:0|0:0,0:0:0:0:
291,257,76032,6,0,P|255:249|219:257,1,72.5
148,304,76493,2,0,P|112:312|76:304,1,72.5,8|0,0:0|0:0,0:0:0:0:
44,224,76955,1,0,0:0:0:0:
103,160,77186,2,0,P|89:127|91:84,2,72.5,2|8|2,0:0|0:0|0:0,0:0:0:0:
180,200,77878,6,0,P|215:195|251:172,1,72.5,0|0,0:0|0:0,0:0:0:0:
313,120,78339,2,0,P|384:96|448:120,1,145
480,200,79032,2,0,L|476:236,1,36.25
452,272,79262,2,0,P|415:284|372:280,1,72.5
296,265,79724,6,0,P|259:263|225:275,1,72.5
155,327,80186,2,0,P|84:352|24:324,1,145
92,268,80878,2,0,L|100:224,1,36.25
128,200,81109,2,0,P|161:203|204:192,1,72.5
221,110,81570,6,0,P|257:102|293:110,1,72.5
313,194,82032,2,0,P|348:203|384:200,1,72.5
450,143,82493,1,0,0:0:0:0:
497,216,82724,2,0,L|493:256,1,36.25
476,292,82955,2,0,P|448:308|400:308,1,72.5
332,268,83416,6,0,P|276:256|224:268,1,108.75
190,291,83878,2,0,P|151:301|110:295,1,72.5
48,248,84339,5,4,0:0:0:0:
256,192,84570,12,0,86186,0:0:0:0:
484,192,87109,6,0,P|448:206|400:200,1,72.5,4|0,0:0|0:0,0:0:0:0:
352,144,87570,2,0,P|316:129|268:136,1,72.5,8|0,0:0|0:0,0:0:0:0:
216,188,88032,1,0,0:0:0:0:
155,126,88262,2,0,L|159:74,2,36.25,0|0|8,0:0|0:0|0:0,0:0:0:0:
99,193,88724,6,0,P|75:269|103:329,1,145
176,368,89416,1,8,0:0:0:0:
255,331,89647,1,0,0:0:0:0:
334,367,89878,2,0,P|350:335|354:283,1,72.5
416,236,90339,2,0,P|413:200|391:153,1,72.5,8|0,0:0|0:0,0:0:0:0:
332,112,90801,6,0,P|286:131|256:124,1,72.5
184,96,91262,2,0,P|152:78|116:80,1,72.5,8|0,0:0|0:0,0:0:0:0:
44,128,91724,1,0,0:0:0:0:
86,204,91955,2,0,P|101:194|114:182,2,36.25,0|0|8,0:0|0:0|0:0,0:0:0:0:
44,280,92416,6,0,P|72:308|172:308,1,145
256,284,93109,1,8,0:0:0:0:
256,284,93339,1,0,0:0:0:0:
340,308,93570,2,0,P|410:320|468:280,1,145,0|8,0:0|0:0,0:0:0:0:
476,193,94262,1,0,0:0:0:0:
404,144,94493,6,0,P|368:156|328:152,1,72.5
256,112,94955,2,0,L|256:60,2,36.25,8|0|0,0:0|0:0|0:0,0:0:0:0:
182,158,95416,2,0,P|146:155|111:167,1,72.5
55,234,95878,1,8,0:0:0:0:
84,316,96109,6,0,P|148:352|208:312,1,145
256,248,96801,1,8,0:0:0:0:
307,319,97032,1,0,0:0:0:0:
392,340,97262,2,0,L|412:268,1,72.5
480,216,97724,2,0,L|460:144,1,72.5,8|0,0:0|0:0,0:0:0:0:
420,68,98186,6,0,B|394:51|356:69|356:69|310:88|280:64,1,145,0|8,0:0|0:0,0:0:0:0:
202,29,98878,1,0,0:0:0:0:
133,83,99109,2,8,L|129:159,1,72.5,0|0,0:0|0:0,0:0:0:0:
128,244,99570,1,8,0:0:0:0:
188,308,99801,6,0,P|256:328|328:312,1,145,0|0,0:0|0:0,0:0:0:0:
396,260,100493,1,8,0:0:0:0:
331,202,100724,1,0,0:0:0:0:
412,171,100955,2,0,P|421:131|413:99,1,72.5,2|0,0:0|0:0,0:0:0:0:
336,60,101416,1,2,0:0:0:0:
256,92,101647,1,2,0:0:0:0:
178,53,101878,6,0,P|136:44|93:57,1,72.5,4|0,0:0|0:0,0:0:0:0:
119,137,102339,2,0,P|91:168|80:212,1,72.5,8|0,0:0|0:0,0:0:0:0:
163,229,102801,2,0,P|176:268|208:299,1,72.5,0|0,0:0|0:0,0:0:0:0:
257,353,103262,1,8,0:0:0:0:
336,316,103493,6,0,P|404:348|464:320,1,145
404,256,104186,1,8,0:0:0:0:
468,196,104416,1,0,0:0:0:0:
444,112,104647,2,0,P|379:84|316:116,1,145,0|8,0:0|0:0,0:0:0:0:
256,180,105339,1,0,0:0:0:0:
205,251,105570,6,0,P|168:264|129:263,1,72.5
108,180,106032,2,0,P|69:172|36:152,1,72.5,8|0,0:0|0:0,0:0:0:0:
73,75,106493,2,0,P|43:49|24:15,2,72.5,0|0|8,0:0|0:0|0:0,0:0:0:0:
152,112,107186,2,0,B|191:104|191:104|247:128|247:128|291:124,1,145,0|0,0:0|0:0,0:0:0:0:
359,70,107878,1,8,0:0:0:0:
433,116,108109,1,0,0:0:0:0:
430,202,108339,2,0,L|426:278,1,72.5
371,343,108801,1,8,0:0:0:0:
300,292,109032,1,0,0:0:0:0:
212,292,109262,6,0,L|206:220,1,72.5
140,160,109724,2,0,L|146:88,1,72.5,8|0,0:0|0:0,0:0:0:0:
220,40,110186,2,0,P|255:47|292:40,1,72.5
366,88,110647,1,8,0:0:0:0:
366,88,110878,6,0,L|372:236,1,145
376,320,111570,1,8,0:0:0:0:
302,366,111801,1,0,0:0:0:0:
256,292,112032,2,0,B|212:288|212:288|156:312|156:312|112:304,1,145,0|8,0:0|0:0,0:0:0:0:
40,264,112724,1,0,0:0:0:0:
16,180,112955,6,0,P|12:144|25:104,1,72.5
108,128,113416,2,0,P|122:95|153:67,1,72.5,8|0,0:0|0:0,0:0:0:0:
220,121,113878,2,0,P|256:129|292:121,1,72.5
363,70,114339,1,8,0:0:0:0:
432,124,114570,6,0,P|456:192|423:255,1,145
370,186,115262,1,8,0:0:0:0:
296,140,115493,1,0,0:0:0:0:
234,201,115724,2,0,L|162:189,1,72.5,2|0,0:0|0:0,0:0:0:0:
96,132,116186,1,2,0:0:0:0:
24,180,116416,1,2,0:0:0:0:
48,264,116647,6,0,P|40:300|48:336,1,72.5,4|0,0:0|0:0,0:0:0:0:
128,300,117109,2,0,P|139:335|163:362,1,72.5,8|0,0:0|0:0,0:0:0:0:
214,291,117570,2,0,P|241:315|276:326,2,72.5,0|0|8,0:0|0:0|0:0,0:0:0:0:
164,220,118262,1,0,0:0:0:0:
220,153,118493,5,0,0:0:0:0:
304,176,118724,1,0,0:0:0:0:
362,111,118955,2,0,P|396:120|432:113,1,72.5,8|0,0:0|0:0,0:0:0:0:
491,50,119416,2,0,P|519:115|487:182,1,145,0|8,0:0|0:0,0:0:0:0:
417,227,120109,1,0,0:0:0:0:
335,256,120339,6,0,P|295:264|259:288,1,72.5,0|0,0:0|0:0,0:0:0:0:
202,337,120801,2,0,P|170:354|134:360,1,72.5,8|0,0:0|0:0,0:0:0:0:
60,316,121262,2,0,L|52:172,1,145,0|8,0:0|0:0,0:0:0:0:
46,84,121955,1,0,0:0:0:0:
116,32,122186,1,0,0:0:0:0:
164,104,122416,5,0,0:0:0:0:
220,171,122647,2,0,P|254:179|293:170,1,72.5,8|0,0:0|0:0,0:0:0:0:
364,124,123109,2,0,P|432:92|488:128,1,145,0|8,0:0|0:0,0:0:0:0:
496,212,123801,1,0,0:0:0:0:
455,289,124032,6,0,P|419:301|379:297,1,72.5
316,244,124493,1,8,0:0:0:0:
256,180,124724,1,0,0:0:0:0:
196,244,124955,2,0,P|136:268|92:256,1,108.75,0|8,0:0|0:0,0:0:0:0:
68,224,125416,2,0,L|64:144,1,72.5,8|8,0:0|0:0,0:0:0:0:
108,76,125878,1,0,0:0:0:0:
183,120,126109,5,0,0:0:0:0:
234,50,126339,2,0,P|270:42|306:50,1,72.5,8|0,0:0|0:0,0:0:0:0:
381,90,126801,2,0,L|389:234,1,145,0|8,0:0|0:0,0:0:0:0:
392,321,127493,1,0,0:0:0:0:
307,301,127724,6,0,B|267:297|267:297|211:321|211:321|151:317,1,145,0|8,0:0|0:0,0:0:0:0:
95,268,128416,1,0,0:0:0:0:
111,182,128647,2,0,P|159:154|215:166,1,108.75,0|8,0:0|0:0,0:0:0:0:
247,185,129109,2,0,P|279:197|331:193,1,72.5,8|8,0:0|0:0,0:0:0:0:
384,141,129570,1,0,0:0:0:0:
424,218,129801,6,0,P|432:252|424:288,1,72.5,0|8,0:0|0:0,0:0:0:0:
366,353,130262,1,0,0:0:0:0:
296,300,130493,2,0,L|148:296,2,145,0|8|4,0:0|0:0|0:0,0:0:0:0:
190,55,138801,6,0,P|257:32|323:55,1,145,0|0,0:0|0:0,0:0:0:0:
407,207,139724,2,0,P|351:227|295:223,1,108.75,0|8,0:0|0:0,0:0:0:0:
262,208,140186,2,0,P|229:199|178:208,1,72.5,8|8,0:0|0:0,0:0:0:0:
131,267,140647,5,0,0:0:0:0:
60,216,140878,2,0,L|48:104,2,108.75,0|0|0,0:0|0:0|0:0,0:0:0:0:
74,346,141916,2,0,P|126:362|178:346,1,108.75
192,260,142493,6,0,P|256:228|317:258,1,145
460,356,143416,2,0,L|468:236,1,108.75,0|8,0:0|0:0,0:0:0:0:
464,204,143878,2,0,P|437:182|384:180,1,72.5,8|8,0:0|0:0,0:0:0:0:
328,128,144339,6,0,P|299:149|264:155,1,72.5,8|8,0:0|0:0,0:0:0:0:
188,112,144801,1,8,0:0:0:0:
112,156,145032,1,8,0:0:0:0:
131,241,145262,2,0,L|123:285,3,36.25,8|8|8|8,0:0|0:0|0:0|0:0,0:0:0:0:
163,297,145724,2,0,L|171:341,3,36.25,8|8|8|8,0:0|0:0|0:0|0:0,0:0:0:0:
213,335,146186,6,0,P|245:331|285:335,1,72.5,4|0,0:0|0:0,0:0:0:0:
372,344,146647,2,0,P|404:348|444:344,1,72.5,8|0,0:0|0:0,0:0:0:0:
493,272,147109,1,0,0:0:0:0:
413,236,147339,2,0,P|407:256|407:271,2,36.25,0|0|8,0:0|0:0|0:0,0:0:0:0:
480,180,147801,6,0,P|508:116|480:48,1,145
422,113,148493,1,8,0:0:0:0:
357,171,148724,1,0,0:0:0:0:
284,124,148955,2,0,P|246:129|212:120,1,72.5
148,64,149416,2,0,P|113:54|77:60,1,72.5,8|0,0:0|0:0,0:0:0:0:
40,140,149878,6,0,L|44:216,1,72.5
52,299,150339,2,0,P|85:311|132:307,1,72.5,8|0,0:0|0:0,0:0:0:0:
185,250,150801,1,0,0:0:0:0:
256,300,151032,2,0,L|256:342,2,36.25,0|0|8,0:0|0:0|0:0,0:0:0:0:
328,248,151493,6,0,P|396:276|460:248,1,145
394,189,152186,1,8,0:0:0:0:
394,189,152416,1,0,0:0:0:0:
460,132,152647,2,0,P|396:104|329:133,1,145,0|8,0:0|0:0,0:0:0:0:
264,188,153339,1,0,0:0:0:0:
192,140,153570,6,0,P|143:129|112:136,1,72.5
48,180,154032,2,0,P|38:166|32:140,2,36.25,8|0|0,0:0|0:0|0:0,0:0:0:0:
109,242,154493,2,0,P|144:238|179:249,1,72.5
256,292,154955,1,8,0:0:0:0:
324,344,155186,6,0,P|392:360|464:344,1,145
488,260,155878,2,0,L|496:184,1,72.5,8|0,0:0|0:0,0:0:0:0:
472,104,156339,2,0,P|436:76|328:96,1,145,0|8,0:0|0:0,0:0:0:0:
282,149,157032,1,0,0:0:0:0:
256,232,157262,6,0,P|220:260|112:240,1,145,0|8,0:0|0:0,0:0:0:0:
100,168,157955,1,0,0:0:0:0:
124,84,158186,2,0,L|84:24,2,72.5,0|0|8,0:0|0:0|0:0,0:0:0:0:
188,142,158878,6,0,P|256:166|324:142,1,145
391,90,159570,1,8,0:0:0:0:
460,142,159801,1,0,0:0:0:0:
392,196,160032,2,0,P|386:234|368:264,1,72.5,2|0,0:0|0:0,0:0:0:0:
284,280,160493,2,0,P|260:310|229:326,1,72.5,2|0,0:0|0:0,0:0:0:0:
172,260,160955,6,0,P|134:254|104:235,1,72.5,4|0,0:0|0:0,0:0:0:0:
140,156,161416,2,0,P|110:131|94:100,1,72.5,8|0,0:0|0:0,0:0:0:0:
178,77,161878,2,0,P|254:89|322:77,1,145,0|8,0:0|0:0,0:0:0:0:
404,52,162570,6,0,L|428:200,1,145
441,281,163262,1,8,0:0:0:0:
374,337,163493,1,0,0:0:0:0:
326,264,163724,2,0,B|288:257|257:282|257:282|226:257|190:264,1,145,0|8,0:0|0:0,0:0:0:0:
115,308,164416,1,0,0:0:0:0:
45,255,164647,6,0,P|32:220|38:176,1,72.5,0|0,0:0|0:0,0:0:0:0:
119,206,165109,2,0,P|125:169|152:134,1,72.5,8|0,0:0|0:0,0:0:0:0:
220,97,165570,2,0,B|256:102|256:102|296:97,1,72.5
361,44,166032,1,8,0:0:0:0:
436,88,166262,6,0,L|428:236,1,145
420,320,166955,2,0,P|386:332|340:332,1,72.5,8|0,0:0|0:0,0:0:0:0:
321,249,167416,2,0,P|256:221|191:250,1,145,0|8,0:0|0:0,0:0:0:0:
161,333,168109,1,0,0:0:0:0:
84,296,168339,6,0,P|48:280|28:248,1,72.5
106,211,168801,2,0,P|142:195|162:163,1,72.5,8|0,0:0|0:0,0:0:0:0:
112,96,169262,2,0,P|76:100|36:88,2,72.5,0|0|8,0:0|0:0|0:0,0:0:0:0:
184,45,169955,6,0,P|256:33|328:45,1,145
376,116,170647,1,8,0:0:0:0:
460,92,170878,1,0,0:0:0:0:
484,176,171109,2,0,P|484:252|440:304,1,145,0|8,0:0|0:0,0:0:0:0:
364,264,171801,1,0,0:0:0:0:
284,304,172032,6,0,P|245:313|208:308,1,72.5,0|0,0:0|0:0,0:0:0:0:
200,224,172493,2,0,P|225:198|240:165,1,72.5,8|0,0:0|0:0,0:0:0:0:
188,96,172955,2,0,P|150:109|112:104,1,72.5
40,64,173416,1,8,0:0:0:0:
16,148,173647,6,0,L|20:296,1,145
76,360,174339,1,8,0:0:0:0:
160,336,174570,1,0,0:0:0:0:
219,272,174801,2,0,P|255:268|291:272,1,72.5
364,320,175262,2,0,P|399:323|435:319,1,72.5,8|0,0:0|0:0,0:0:0:0:
460,236,175724,6,0,P|450:163|397:119,1,145,2|2,0:0|0:0,0:0:0:0:
256,220,176647,1,2,0:0:0:0:
108,128,177109,2,0,L|32:132,1,72.5,2|2,0:0|0:0,0:0:0:0:
256,192,177801,12,6,179186,0:0:0:0:
