osu file format v13

[General]
AudioFilename: track.mp3
AudioLeadIn: 0
PreviewTime: 48109
Countdown: 0
SampleSet: Soft
StackLeniency: 0.7
Mode: 0
LetterboxInBreaks: 0
WidescreenStoryboard: 0

[Editor]
DistanceSpacing: 1.2
BeatDivisor: 4
GridSize: 4
TimelineZoom: 1.6

[Metadata]
Title:Ragogumi
TitleUnicode:Rágógumi
Artist:VV Zsofi
ArtistUnicode:VV Zsófi
Creator:Kazuya
Version:Blondie
Source:
Tags:hungarian magyar
BeatmapID:513222
BeatmapSetID:219045

[Difficulty]
HPDrainRate:7
CircleSize:4
OverallDifficulty:7
ApproachRate:8
SliderMultiplier:1.7
SliderTickRate:1

[Events]
//Background and Video events
Video,0,"video.avi"
0,0,"bg.jpg",0,0
//Break Periods
2,131616,138051
//Storyboard Layer 0 (Background)
//Storyboard Layer 1 (Fail)
//Storyboard Layer 2 (Pass)
//Storyboard Layer 3 (Foreground)
//Storyboard Sound Samples
//Background Colour Transformations
3,100,0,0,0

[TimingPoints]
2186,461.538461538462,4,2,1,60,1,0
2532,-100,4,2,1,5,0,0
2647,-100,4,2,1,60,0,0
4378,-100,4,2,1,5,0,0
4493,-100,4,2,1,60,0,0
6224,-100,4,2,1,5,0,0
6339,-100,4,2,1,60,0,0
31032,-100,4,2,1,5,0,0
33570,-100,4,2,1,60,0,0
48339,-80,4,2,1,60,0,1
63109,-100,4,2,1,60,0,0
84570,-100,4,2,1,5,0,0
87109,-100,4,2,1,60,0,0
101878,-80,4,2,1,60,0,1
116647,-100,4,2,1,60,0,0
160955,-80,4,2,1,60,0,1
175724,-80,4,2,1,60,0,0

[Colours]
Combo1 : 188,131,252
Combo2 : 142,67,188
Combo3 : 245,158,245
Combo4 : 230,2,138
SliderBorder : 255,255,255

[HitObjects]
248,328,2186,6,0,L|404:316,1,127.5,0|0,1:0|0:0,0:0:0:0:
412,284,2647,2,0,P|400:228|412:192,1,85,0|0,1:0|0:0,0:0:0:0:
468,120,3109,1,0,1:0:0:0:
400,44,3339,1,0,0:0:0:0:
324,112,3570,2,0,L|232:120,1,85,0|2,1:0|0:0,0:0:0:0:
38,69,4032,6,0,P|98:85|156:60,1,127.5,0|0,1:0|0:0,0:0:0:0:
192,24,4493,2,0,P|172:60|176:120,1,85,0|0,1:0|0:0,0:0:0:0:
228,188,4955,1,0,1:0:0:0:
308,252,5186,1,2,0:0:0:0:
308,252,5301,1,0,0:0:0:0:
308,252,5416,2,0,L|320:160,1,85,0|2,1:0|0:0,0:0:0:0:
401,39,5878,6,0,L|416:168,1,127.5,0|0,1:0|0:0,0:0:0:0:
424,216,6339,2,0,P|380:200|336:208,1,85,0|0,1:0|0:0,0:0:0:0:
256,260,6801,1,0,1:0:0:0:
140,332,7032,1,0,0:0:0:0:
44,236,7262,2,0,P|30:192|40:148,1,85,0|2,1:0|0:0,0:0:0:0:
136,60,7724,6,0,P|180:44|236:52,1,85,8|0,0:0|0:0,0:0:0:0:
260,76,8070,2,0,P|308:80|360:68,1,85,8|0,0:0|0:0,0:0:0:0:
384,40,8416,2,0,P|430:27|480:36,1,85,8|0,0:0|0:0,0:0:0:0:
489,131,8878,1,8,0:0:0:0:
415,202,9109,1,8,0:0:0:0:
318,170,9339,1,8,0:0:0:0:
260,88,9570,6,0,L|168:96,1,85,4|0,0:0|0:0,0:0:0:0:
68,40,10032,1,8,0:0:0:0:
20,148,10262,1,0,0:0:0:0:
108,228,10493,1,0,0:0:0:0:
220,188,10724,2,0,L|304:192,1,85,0|8,0:0|0:0,0:0:0:0:
445,315,11186,6,0,L|276:308,1,170
164,264,11878,1,8,0:0:0:0:
380,168,12109,1,0,0:0:0:0:
172,72,12339,1,0,0:0:0:0:
348,264,12570,1,0,0:0:0:0:
132,168,12801,1,8,0:0:0:0:
340,72,13032,1,0,0:0:0:0:
340,72,13147,1,0,0:0:0:0:
340,72,13262,6,0,P|384:64|424:72,1,85,0|0,0:0|0:0,0:0:0:0:
484,196,13724,2,0,P|440:204|400:196,1,85,8|0,0:0|0:0,0:0:0:0:
285,166,14186,1,0,0:0:0:0:
196,244,14416,2,0,L|104:252,1,85,0|8,0:0|0:0,0:0:0:0:
20,174,14878,6,0,P|12:78|68:34,1,170
176,76,15570,2,0,P|216:96|272:88,1,85,8|0,0:0|0:0,0:0:0:0:
443,62,16032,2,0,P|406:43|364:44,1,85
256,94,16493,1,8,0:0:0:0:
352,164,16724,1,0,0:0:0:0:
352,164,16839,1,0,0:0:0:0:
352,164,16955,6,0,L|344:248,1,85
168,248,17416,2,0,L|160:164,1,85,8|0,0:0|0:0,0:0:0:0:
84,72,17878,1,0,0:0:0:0:
192,24,18109,2,0,P|236:39|280:36,1,85,0|8,0:0|0:0,0:0:0:0:
392,28,18570,6,0,P|464:48|468:140,1,170
400,228,19262,2,0,L|312:236,1,85,8|0,0:0|0:0,0:0:0:0:
220,164,19724,1,0,0:0:0:0:
156,264,19955,1,0,0:0:0:0:
56,200,20186,2,0,L|52:108,1,85,8|0,0:0|0:0,0:0:0:0:
76,68,20532,1,0,0:0:0:0:
116,36,20647,6,0,P|161:51|200:52,1,85
298,29,21109,1,8,0:0:0:0:
387,79,21339,1,0,0:0:0:0:
324,160,21570,2,0,P|308:200|316:248,2,85,0|0|8,0:0|0:0|0:0,0:0:0:0:
404,72,22262,1,0,0:0:0:0:
404,72,22378,1,0,0:0:0:0:
404,72,22493,6,0,L|488:68,1,85
288,44,22955,2,0,L|203:40,1,85,8|0,0:0|0:0,0:0:0:0:
84,36,23416,1,0,0:0:0:0:
20,136,23647,2,0,P|8:180|24:224,2,85,2|8|2,0:0|0:0|0:0,0:0:0:0:
84,36,24339,5,0,0:0:0:0:
156,108,24570,1,0,0:0:0:0:
236,44,24801,2,0,P|344:16|416:40,1,170
460,112,25493,1,0,0:0:0:0:
460,112,25609,1,0,0:0:0:0:
460,112,25724,2,0,L|456:200,1,85
420,292,26186,6,0,B|376:288|376:288|296:304|296:304|248:300,1,170
184,224,26878,1,0,0:0:0:0:
96,276,27109,1,0,0:0:0:0:
28,200,27339,1,0,0:0:0:0:
28,200,27455,1,0,0:0:0:0:
28,200,27570,2,0,L|32:108,1,85
92,32,28032,5,0,0:0:0:0:
160,108,28262,1,0,0:0:0:0:
240,44,28493,2,0,P|289:55|344:48,1,85
424,32,28955,1,0,0:0:0:0:
476,120,29186,1,0,0:0:0:0:
476,120,29301,1,0,0:0:0:0:
476,120,29416,2,0,L|472:216,1,85
448,304,29878,6,0,P|372:336|320:316,1,127.5
296,288,30339,2,0,P|256:280|212:288,1,85
124,340,30801,1,4,0:0:0:0:
256,192,31032,12,0,33109,0:0:0:0:
276,328,33570,6,0,L|372:336,1,85,4|0,0:0|0:0,0:0:0:0:
492,251,34032,2,0,L|407:243,1,85,8|0,0:0|0:0,0:0:0:0:
312,208,34493,2,0,P|288:172|288:124,1,85
304,84,34839,1,0,0:0:0:0:
344,52,34955,1,8,0:0:0:0:
400,156,35186,6,0,P|420:216|376:308,1,170
276,328,35878,1,8,0:0:0:0:
208,252,36109,1,0,0:0:0:0:
116,296,36339,2,0,L|31:288,1,85
208,252,36801,2,0,L|300:244,1,85,8|0,0:0|0:0,0:0:0:0:
456,131,37262,6,0,P|408:136|372:124,1,85,0|0,0:0|0:0,0:0:0:0:
209,57,37724,2,0,P|251:52|292:64,1,85,8|0,0:0|0:0,0:0:0:0:
374,125,38186,1,0,0:0:0:0:
288,180,38416,1,0,0:0:0:0:
256,220,38532,1,0,0:0:0:0:
274,267,38647,1,8,0:0:0:0:
364,316,38878,6,0,L|184:328,1,170
93,340,39570,1,8,0:0:0:0:
50,247,39801,1,0,0:0:0:0:
136,192,40032,2,0,P|192:208|240:200,1,85
378,154,40493,2,0,P|338:139|296:140,1,85,8|0,0:0|0:0,0:0:0:0:
264,308,40955,6,0,P|303:322|346:322,1,85,0|0,0:0|0:0,0:0:0:0:
442,287,41416,1,8,0:0:0:0:
470,244,41532,1,0,0:0:0:0:
460,194,41647,1,0,0:0:0:0:
387,122,41878,1,0,0:0:0:0:
387,122,41993,2,0,L|293:128,1,85
257,152,42339,1,8,0:0:0:0:
188,76,42570,6,0,P|100:48|32:96,1,170
14,185,43262,1,8,0:0:0:0:
52,280,43493,1,0,0:0:0:0:
144,236,43724,2,0,L|232:228,1,85
372,319,44186,2,0,L|288:312,1,85,8|0,0:0|0:0,0:0:0:0:
456,260,44647,6,0,L|464:172,1,85
460,124,44993,1,0,0:0:0:0:
420,92,45109,2,0,P|376:96|328:88,1,85,8|0,0:0|0:0,0:0:0:0:
176,90,45570,2,0,P|132:84|92:92,1,85,0|0,0:0|0:0,0:0:0:0:
48,116,45916,1,0,0:0:0:0:
16,156,46032,1,8,0:0:0:0:
32,256,46262,6,0,P|76:296|192:284,1,170
256,220,46955,1,8,0:0:0:0:
330,291,47186,1,0,0:0:0:0:
416,236,47416,2,0,L|424:152,1,85,2|0,0:0|0:0,0:0:0:0:
400,52,47878,1,2,0:0:0:0:
324,120,48109,1,2,0:0:0:0:
188,120,48339,6,0,L|80:132,1,106.25,4|0,0:0|0:0,0:0:0:0:
12,264,48801,2,0,L|120:276,1,106.25,8|0,0:0|0:0,0:0:0:0:
256,224,49262,1,0,0:0:0:0:
396,276,49493,1,0,0:0:0:0:
472,148,49724,1,8,0:0:0:0:
331,95,49955,6,0,P|283:75|231:79,1,106.25
6,147,50416,2,0,P|55:168|108:164,1,106.25,0|8,0:0|0:0,0:0:0:0:
231,80,50878,1,0,0:0:0:0:
320,200,51109,2,0,P|308:252|328:304,1,106.25
452,192,51570,2,0,P|465:141|448:88,1,106.25,8|0,0:0|0:0,0:0:0:0:
276,32,52032,6,0,L|172:52,1,106.25
8,148,52493,2,0,L|112:168,1,106.25,8|0,0:0|0:0,0:0:0:0:
176,303,52955,1,0,0:0:0:0:
256,177,53186,1,0,0:0:0:0:
336,303,53416,1,8,0:0:0:0:
468,104,53647,6,0,B|444:68|464:32|464:32|392:64|328:28,1,212.5
256,156,54339,1,8,0:0:0:0:
256,156,54570,1,0,0:0:0:0:
179,30,54801,2,0,B|120:64|48:32|48:32|68:68|44:104,1,212.5,0|8,0:0|0:0,0:0:0:0:
64,252,55493,1,0,0:0:0:0:
184,164,55724,6,0,L|300:172,1,106.25
497,272,56186,2,0,L|392:280,1,106.25,8|0,0:0|0:0,0:0:0:0:
244,300,56647,1,0,0:0:0:0:
64,252,56878,1,0,0:0:0:0:
108,84,57109,1,8,0:0:0:0:
276,112,57339,6,0,L|288:220,1,106.25
432,365,57801,2,0,L|444:260,1,106.25,0|8,0:0|0:0,0:0:0:0:
464,112,58262,1,0,0:0:0:0:
336,188,58493,2,0,P|288:204|224:196,1,106.25
9,100,58955,2,0,P|61:95|112:112,1,106.25,8|0,0:0|0:0,0:0:0:0:
412,260,59416,6,0,P|408:308|367:362,1,106.25
137,355,59878,2,0,P|107:312|100:260,1,106.25,8|0,0:0|0:0,0:0:0:0:
256,52,60339,2,0,L|256:164,1,106.25
72,112,60801,1,8,0:0:0:0:
72,112,61032,6,0,P|16:192|80:268,1,212.5
256,344,61724,1,8,0:0:0:0:
256,196,61955,1,0,0:0:0:0:
439,111,62186,2,0,P|495:193|431:268,1,212.5,2|2,0:0|0:0,0:0:0:0:
256,196,62878,1,2,0:0:0:0:
256,195,63109,6,0,P|216:211|174:207,1,85,4|0,0:0|0:0,0:0:0:0:
10,136,63570,2,0,P|52:132|92:148,1,85,8|0,0:0|0:0,0:0:0:0:
175,207,64032,1,0,0:0:0:0:
256,272,64262,1,0,0:0:0:0:
336,208,64493,1,8,0:0:0:0:
398,127,64724,6,0,L|431:295,1,170
492,210,65416,2,0,L|474:126,1,85,8|0,0:0|0:0,0:0:0:0:
336,207,65878,2,0,L|353:290,1,85
260,332,66339,2,0,P|220:348|164:344,1,85,8|0,0:0|0:0,0:0:0:0:
129,333,66686,1,0,0:0:0:0:
93,297,66801,6,0,L|85:205,1,85,0|0,0:0|0:0,0:0:0:0:
77,110,67262,1,8,0:0:0:0:
133,24,67493,2,0,P|201:60|305:48,1,170
387,18,68186,1,8,0:0:0:0:
474,70,68416,1,0,0:0:0:0:
416,156,68647,6,0,L|408:244,1,85
299,352,69109,2,0,L|292:268,1,85,8|0,0:0|0:0,0:0:0:0:
187,143,69570,2,0,L|180:228,1,85
107,353,70032,2,0,P|76:313|71:276,1,85,8|0,0:0|0:0,0:0:0:0:
66,229,70378,1,0,0:0:0:0:
80,180,70493,6,0,P|120:164|168:168,1,85
325,214,70955,2,0,P|286:229|244:228,1,85,8|0,0:0|0:0,0:0:0:0:
269,129,71416,1,0,0:0:0:0:
452,220,71647,1,0,0:0:0:0:
388,128,71878,1,8,0:0:0:0:
348,324,72109,1,0,0:0:0:0:
244,284,72339,6,0,L|156:288,1,85
57,295,72801,1,8,0:0:0:0:
20,200,73032,1,0,0:0:0:0:
88,124,73262,2,0,B|108:100|140:100|140:100|188:136|260:112,1,170,0|8,0:0|0:0,0:0:0:0:
328,56,73955,1,0,0:0:0:0:
328,56,74070,1,0,0:0:0:0:
328,56,74186,6,0,P|376:48|416:56,1,85
477,131,74647,2,0,L|481:219,1,85,8|0,0:0|0:0,0:0:0:0:
416,296,75109,1,0,0:0:0:0:
352,216,75339,2,0,L|348:120,2,85,0|8|0,0:0|0:0|0:0,0:0:0:0:
288,296,76032,6,0,P|246:309|196:304,1,85,0|0,0:0|0:0,0:0:0:0:
136,152,76493,2,0,P|177:138|228:144,1,85,8|0,0:0|0:0,0:0:0:0:
309,188,76955,1,0,0:0:0:0:
392,248,77186,1,2,0:0:0:0:
492,228,77416,2,0,P|507:187|500:140,1,85,0|2,0:0|0:0,0:0:0:0:
368,40,77878,5,0,0:0:0:0:
280,92,78109,1,0,0:0:0:0:
188,48,78339,2,0,P|96:36|24:84,1,170
20,176,79032,1,0,0:0:0:0:
20,176,79147,1,0,0:0:0:0:
20,176,79262,2,0,L|24:264,1,85
108,320,79724,6,0,P|148:304|200:308,1,85
276,360,80186,2,0,P|228:288|256:212,1,170
344,140,80878,1,0,0:0:0:0:
344,140,80993,1,0,0:0:0:0:
344,140,81109,2,0,L|428:133,1,85
264,76,81570,6,0,L|179:69,1,85
77,59,82032,1,0,0:0:0:0:
36,152,82262,1,0,0:0:0:0:
80,244,82493,1,0,0:0:0:0:
159,310,82724,1,0,0:0:0:0:
159,310,82839,1,0,0:0:0:0:
159,310,82955,2,0,P|203:294|255:302,1,85
340,276,83416,6,0,P|408:312|472:284,1,127.5
485,259,83878,2,0,L|481:163,1,85
416,96,84339,1,4,0:0:0:0:
256,192,84570,12,0,86647,0:0:0:0:
284,240,87109,6,0,L|200:248,1,85,4|0,0:0|0:0,0:0:0:0:
35,304,87570,2,0,L|120:312,1,85,8|0,0:0|0:0,0:0:0:0:
200,248,88032,1,0,0:0:0:0:
124,180,88262,1,0,0:0:0:0:
104,132,88378,1,0,0:0:0:0:
124,84,88493,1,8,0:0:0:0:
216,128,88724,6,0,B|300:152|300:152|380:128,1,170
476,96,89416,1,8,0:0:0:0:
496,196,89647,1,0,0:0:0:0:
432,276,89878,2,0,P|378:275|344:288,1,85
175,340,90339,2,0,P|217:342|258:331,1,85,8|0,0:0|0:0,0:0:0:0:
256,160,90801,6,0,P|215:148|173:150,1,85,0|0,0:0|0:0,0:0:0:0:
64,198,91262,1,8,0:0:0:0:
176,340,91493,1,0,0:0:0:0:
59,317,91724,1,0,0:0:0:0:
256,276,91955,1,0,0:0:0:0:
308,272,92070,1,0,0:0:0:0:
352,296,92186,1,8,0:0:0:0:
444,340,92416,6,0,L|460:164,1,170
416,76,93109,1,8,0:0:0:0:
308,96,93339,1,0,0:0:0:0:
228,32,93570,2,0,P|184:28|136:40,1,85
119,172,94032,2,0,P|151:144|190:128,1,85,8|0,0:0|0:0,0:0:0:0:
204,231,94493,6,0,P|200:274|211:323,1,85,0|0,0:0|0:0,0:0:0:0:
305,347,94955,1,8,0:0:0:0:
343,314,95070,1,0,0:0:0:0:
394,310,95186,1,0,0:0:0:0:
436,220,95416,1,0,0:0:0:0:
436,220,95532,2,0,L|444:136,1,85
448,84,95878,1,8,0:0:0:0:
360,32,96109,6,0,L|184:40,1,170
100,88,96801,1,8,0:0:0:0:
56,180,97032,1,0,0:0:0:0:
100,272,97262,2,0,P|144:264|192:280,1,85
354,326,97724,2,0,P|312:334|272:324,1,85,8|0,0:0|0:0,0:0:0:0:
272,220,98186,6,0,P|302:190|342:176,1,85,0|0,0:0|0:0,0:0:0:0:
392,180,98532,1,0,0:0:0:0:
440,197,98647,2,0,P|479:183|510:153,1,85,8|0,0:0|0:0,0:0:0:0:
425,95,99109,2,0,P|384:84|342:92,1,85,0|0,0:0|0:0,0:0:0:0:
299,119,99455,1,0,0:0:0:0:
250,105,99570,1,8,0:0:0:0:
160,56,99801,6,0,P|80:92|88:164,1,170
154,240,100493,2,0,P|196:236|244:252,1,85,8|0,0:0|0:0,0:0:0:0:
402,314,100955,2,0,P|360:319|320:308,1,85,2|0,0:0|0:0,0:0:0:0:
256,192,101416,1,2,0:0:0:0:
356,104,101647,1,2,0:0:0:0:
156,104,101878,6,0,L|144:212,1,106.25,4|0,0:0|0:0,0:0:0:0:
256,324,102339,2,0,L|256:216,1,106.25,8|0,0:0|0:0,0:0:0:0:
356,104,102801,2,0,L|368:212,1,106.25,0|0,0:0|0:0,0:0:0:0:
385,357,103262,1,8,0:0:0:0:
256,280,103493,6,0,L|144:264,1,106.25
10,135,103955,2,0,L|116:120,1,106.25,0|8,0:0|0:0,0:0:0:0:
256,68,104416,1,0,0:0:0:0:
396,120,104647,2,0,P|412:172|404:236,1,106.25
276,367,105109,2,0,P|260:316|264:264,1,106.25,8|0,0:0|0:0,0:0:0:0:
396,120,105570,6,0,P|449:124|497:103,1,106.25
272,36,106032,2,0,P|219:32|171:53,1,106.25,8|0,0:0|0:0,0:0:0:0:
76,192,106493,1,0,0:0:0:0:
172,332,106724,1,0,0:0:0:0:
340,332,106955,1,8,0:0:0:0:
435,191,107186,6,0,B|431:151|476:125|476:125|411:127|366:66,1,212.5,0|0,0:0|0:0,0:0:0:0:
257,13,107878,1,8,0:0:0:0:
256,151,108109,1,0,0:0:0:0:
146,66,108339,2,0,B|101:127|36:125|36:125|81:151|76:201,1,212.5,0|8,0:0|0:0,0:0:0:0:
119,335,109032,1,0,0:0:0:0:
245,256,109262,6,0,L|256:151,1,106.25
401,14,109724,2,0,L|412:120,1,106.25,8|0,0:0|0:0,0:0:0:0:
432,268,110186,1,0,0:0:0:0:
256,368,110416,1,0,0:0:0:0:
80,268,110647,1,8,0:0:0:0:
180,92,110878,6,0,P|128:60|108:20,1,106.25
380,176,111339,2,0,P|434:147|478:149,1,106.25,0|8,0:0|0:0,0:0:0:0:
188,268,111801,1,0,0:0:0:0:
188,268,112032,2,0,P|155:320|116:340,1,106.25
8,236,112493,1,8,0:0:0:0:
68,100,112724,1,0,0:0:0:0:
208,152,112955,6,0,P|254:168|316:160,1,106.25
498,50,113416,2,0,P|448:33|396:40,1,106.25,8|0,0:0|0:0,0:0:0:0:
208,172,113878,2,0,P|254:188|316:180,1,106.25
392,56,114339,1,8,0:0:0:0:
480,176,114570,6,0,P|484:292|408:332,1,212.5
256,256,115262,1,8,0:0:0:0:
140,132,115493,1,0,0:0:0:0:
24,256,115724,2,0,P|12:311|24:360,2,106.25,2|0|2,0:0|0:0|0:0,0:0:0:0:
140,132,116416,1,2,0:0:0:0:
140,132,116647,6,0,P|184:120|228:124,1,85
390,169,117109,2,0,P|350:182|308:180,1,85,8|0,0:0|0:0,0:0:0:0:
460,100,117570,2,0,P|488:160|468:232,1,127.5
447,260,118032,1,8,0:0:0:0:
384,340,118262,2,0,P|344:324|296:332,1,85
216,275,118724,5,0,0:0:0:0:
296,212,118955,1,8,0:0:0:0:
211,155,119186,1,0,0:0:0:0:
298,103,119416,2,0,P|394:87|438:147,1,170,0|8,0:0|0:0,0:0:0:0:
455,237,120109,1,0,0:0:0:0:
356,260,120339,6,0,L|260:272,1,85
131,173,120801,2,0,L|216:184,1,85,8|0,0:0|0:0,0:0:0:0:
308,140,121262,2,0,L|312:96,1,42.5
404,52,121609,1,0,0:0:0:0:
404,52,121724,2,0,L|408:8,2,42.5,8|0|0,0:0|0:0|0:0,0:0:0:0:
393,154,122186,5,0,0:0:0:0:
416,296,122416,1,0,0:0:0:0:
284,356,122647,1,8,0:0:0:0:
152,296,122878,1,0,0:0:0:0:
180,148,123109,2,0,P|132:112|24:128,1,170,0|8,0:0|0:0,0:0:0:0:
4,224,123801,1,0,0:0:0:0:
92,272,124032,6,0,L|110:354,1,85
197,222,124493,2,0,L|216:140,1,85,8|0,0:0|0:0,0:0:0:0:
245,43,124955,1,0,0:0:0:0:
245,43,125070,2,0,P|276:28|328:32,1,85,0|8,0:0|0:0,0:0:0:0:
371,55,125416,1,8,0:0:0:0:
324,192,125647,1,8,0:0:0:0:
392,320,125878,5,0,0:0:0:0:
256,344,126109,1,0,0:0:0:0:
124,284,126339,2,0,L|120:196,1,85,8|0,0:0|0:0,0:0:0:0:
116,97,126801,2,0,P|156:73|276:77,1,170,0|8,0:0|0:0,0:0:0:0:
356,140,127493,1,0,0:0:0:0:
304,228,127724,6,0,B|260:220|260:220|221:236|221:236|172:232,1,127.5,0|0,0:0|0:0,0:0:0:0:
129,230,128186,1,8,0:0:0:0:
64,152,128416,1,0,0:0:0:0:
116,64,128647,1,0,0:0:0:0:
116,64,128762,2,0,P|163:79|200:72,1,85,0|8,0:0|0:0,0:0:0:0:
241,46,129109,1,8,0:0:0:0:
356,140,129339,1,8,0:0:0:0:
468,48,129570,5,0,0:0:0:0:
476,192,129801,2,0,L|480:280,2,85,0|8|0,0:0|0:0|0:0,0:0:0:0:
468,48,130493,2,0,P|408:28|312:72,1,170,0|8,0:0|0:0,0:0:0:0:
256,152,131186,1,0,0:0:0:0:
164,108,131416,5,4,0:0:0:0:
168,256,138801,6,0,L|176:348,1,85
336,340,139262,2,0,L|344:256,1,85
316,96,139724,2,0,P|256:76|196:95,1,127.5,0|8,0:0|0:0,0:0:0:0:
197,95,140186,1,8,0:0:0:0:
256,316,140416,1,8,0:0:0:0:
256,196,140647,1,0,0:0:0:0:
356,252,140878,6,0,P|420:276|472:256,1,127.5
416,32,141570,2,0,P|396:88|420:152,1,127.5
418,149,142032,1,0,0:0:0:0:
499,88,142262,1,0,0:0:0:0:
464,256,142493,6,0,P|420:264|380:256,1,85
212,171,142955,2,0,P|254:163|296:172,1,85,0|0,0:0|0:0,0:0:0:0:
131,255,143416,2,0,P|69:258|32:209,1,127.5,0|8,0:0|0:0,0:0:0:0:
32,210,143878,1,8,0:0:0:0:
12,92,144109,1,8,0:0:0:0:
112,28,144339,5,8,0:0:0:0:
188,120,144570,1,8,0:0:0:0:
324,120,144801,1,8,0:0:0:0:
400,28,145032,1,8,0:0:0:0:
476,120,145262,5,8,0:0:0:0:
496,168,145378,1,8,0:0:0:0:
492,220,145493,1,8,0:0:0:0:
460,260,145609,1,8,0:0:0:0:
408,260,145724,1,8,0:0:0:0:
368,228,145839,1,8,0:0:0:0:
316,228,145955,1,8,0:0:0:0:
276,260,146070,1,8,0:0:0:0:
267,311,146186,6,0,P|227:295|185:298,1,85,4|0,0:0|0:0,0:0:0:0:
22,347,146647,2,0,P|60:362|103:360,1,85,8|0,0:0|0:0,0:0:0:0:
185,298,147109,1,0,0:0:0:0:
116,228,147339,1,0,0:0:0:0:
84,188,147455,1,0,0:0:0:0:
90,137,147570,1,8,0:0:0:0:
152,56,147801,6,0,P|216:88|332:72,1,170
404,36,148493,1,8,0:0:0:0:
476,108,148724,1,0,0:0:0:0:
412,188,148955,2,0,L|404:284,1,85
311,372,149416,2,0,L|304:288,1,85,8|0,0:0|0:0,0:0:0:0:
292,152,149878,6,0,P|249:156|213:183,1,85,0|0,0:0|0:0,0:0:0:0:
75,288,150339,2,0,P|117:284|152:260,1,85,8|0,0:0|0:0,0:0:0:0:
116,164,150801,2,0,P|74:159|39:135,1,85,0|0,0:0|0:0,0:0:0:0:
11,93,151147,1,0,0:0:0:0:
24,44,151262,1,8,0:0:0:0:
126,53,151493,6,0,P|208:80|292:80,1,170
392,64,152186,1,8,0:0:0:0:
464,136,152416,1,0,0:0:0:0:
412,224,152647,2,0,L|324:236,1,85
183,140,153109,2,0,L|268:152,1,85,8|0,0:0|0:0,0:0:0:0:
268,324,153570,6,0,L|183:335,1,85,0|0,0:0|0:0,0:0:0:0:
90,294,154032,1,8,0:0:0:0:
56,256,154147,1,0,0:0:0:0:
66,205,154262,1,0,0:0:0:0:
139,134,154493,1,0,0:0:0:0:
139,134,154609,2,0,P|167:144|239:138,1,85
263,113,154955,1,8,0:0:0:0:
364,100,155186,6,0,P|436:148|420:232,1,170
372,308,155878,1,8,0:0:0:0:
278,267,156109,1,0,0:0:0:0:
200,332,156339,2,0,L|112:320,1,85
11,231,156801,2,0,L|96:220,1,85,8|0,0:0|0:0,0:0:0:0:
184,116,157262,6,0,P|224:132|268:127,1,85,0|0,0:0|0:0,0:0:0:0:
313,110,157609,1,0,0:0:0:0:
354,80,157724,2,0,P|396:76|435:92,1,85,8|0,0:0|0:0,0:0:0:0:
490,178,158186,2,0,L|496:276,1,85
496,314,158532,1,0,0:0:0:0:
455,344,158647,1,8,0:0:0:0:
372,284,158878,6,0,B|324:272|324:272|256:300|256:300|200:292,1,170
112,264,159570,1,8,0:0:0:0:
68,172,159801,1,0,0:0:0:0:
148,108,160032,2,0,P|192:123|232:120,1,85,2|0,0:0|0:0,0:0:0:0:
403,65,160493,2,0,P|361:62|322:77,1,85,2|0,0:0|0:0,0:0:0:0:
383,212,160955,6,0,P|436:213|484:192,1,106.25,4|0,0:0|0:0,0:0:0:0:
247,151,161416,2,0,P|194:150|147:172,1,106.25,8|0,0:0|0:0,0:0:0:0:
0,294,161878,2,0,P|47:316|100:316,1,106.25,0|0,0:0|0:0,0:0:0:0:
148,172,162339,1,8,0:0:0:0:
171,40,162570,6,0,P|118:39|71:64,1,106.25
279,143,163032,2,0,P|332:143|379:120,1,106.25,0|8,0:0|0:0,0:0:0:0:
171,40,163493,1,0,0:0:0:0:
112,176,163724,2,0,L|132:288,1,106.25
297,353,164186,1,8,0:0:0:0:
444,248,164416,1,0,0:0:0:0:
444,248,164532,1,0,0:0:0:0:
444,248,164647,6,0,L|432:136,1,106.25
256,64,165109,2,0,L|256:180,1,106.25,8|0,0:0|0:0,0:0:0:0:
68,248,165570,2,0,L|80:136,1,106.25
256,64,166032,1,8,0:0:0:0:
372,156,166262,6,0,B|408:168|448:156|448:156|492:232|436:288,1,212.5
256,336,166955,1,8,0:0:0:0:
256,336,167186,1,0,0:0:0:0:
69,281,167416,2,0,B|20:232|64:156|64:156|104:168|140:156,1,212.5,0|8,0:0|0:0,0:0:0:0:
256,32,168109,1,0,0:0:0:0:
372,156,168339,6,0,P|424:160|468:188,1,106.25
364,374,168801,2,0,P|367:321|345:274,1,106.25,8|0,0:0|0:0,0:0:0:0:
256,183,169262,1,0,0:0:0:0:
108,256,169493,1,0,0:0:0:0:
130,98,169724,1,8,0:0:0:0:
382,98,169955,6,0,P|426:125|453:177,1,106.25
274,295,170416,2,0,P|246:339|194:367,1,106.25,0|8,0:0|0:0,0:0:0:0:
156,155,170878,1,0,0:0:0:0:
156,155,171109,2,0,P|131:108|132:56,1,106.25
377,55,171570,2,0,P|378:108|354:155,1,106.25,8|0,0:0|0:0,0:0:0:0:
256,272,172032,6,0,L|150:264,1,106.25
6,127,172493,2,0,L|112:120,1,106.25,8|0,0:0|0:0,0:0:0:0:
256,80,172955,1,0,0:0:0:0:
332,208,173186,1,0,0:0:0:0:
464,140,173416,1,8,0:0:0:0:
464,140,173647,6,0,B|512:176|496:236|496:236|456:256|456:256|432:296|404:288,1,212.5
256,340,174339,1,8,0:0:0:0:
256,180,174570,1,0,0:0:0:0:
101,289,174801,2,0,B|80:296|56:256|56:256|16:236|16:236|0:176|48:140,1,212.5,0|8,0:0|0:0,0:0:0:0:
168,36,175493,1,0,0:0:0:0:
256,180,175724,6,0,L|256:292,1,106.25,2|0,0:0|0:0,0:0:0:0:
489,307,176186,2,0,P|482:255|444:221,1,106.25,2|0,0:0|0:0,0:0:0:0:
23,307,176647,2,0,P|30:255|68:221,1,106.25,2|0,0:0|0:0,0:0:0:0:
408,296,177109,1,2,0:0:0:0:
104,296,177339,1,2,0:0:0:0:
256,192,177801,12,6,179186,0:0:0:0:
