osu file format v14

[General]
AudioFilename: (VIXX) - (Chained up) Official M_V.mp3
AudioLeadIn: 0
PreviewTime: -1
Countdown: 1
SampleSet: None
StackLeniency: 0.7
Mode: 0
LetterboxInBreaks: 1
WidescreenStoryboard: 0

[Editor]
DistanceSpacing: 0.8
BeatDivisor: 1
GridSize: 8
TimelineZoom: 1

[Metadata]
Title:Chained Up
TitleUnicode:Chained Up
Artist:VIXX
ArtistUnicode:VIXX
Creator:PumpkinSasha
Version:Normal
Source:
Tags:pop korean kpop vixx
BeatmapID:938301
BeatmapSetID:435524

[Difficulty]
HPDrainRate:5
CircleSize:5
OverallDifficulty:5
ApproachRate:5
SliderMultiplier:1.59999990463257
SliderTickRate:1

[Events]
//Background and Video events
0,0,"vixx.jpg",0,0
//Break Periods
2,79910,89610
//Storyboard Layer 0 (Background)
//Storyboard Layer 1 (Fail)
//Storyboard Layer 2 (Pass)
//Storyboard Layer 3 (Foreground)
//Storyboard Sound Samples

[TimingPoints]
0,504.500000000001,4,1,0,100,1,0

[HitObjects]
256,192,18162,12,0,22662,0:0:0:0:
104,56,23207,6,0,P|40:248|136:344,4,319.999980926513
80,56,28252,1,0,0:0:0:0:
208,64,28756,2,0,P|376:64|400:96,1,159.999990463257
424,128,29765,1,0,0:0:0:0:
400,256,30270,2,0,P|216:304|200:296,1,159.999990463257
168,320,31279,1,0,0:0:0:0:
72,256,31783,1,0,0:0:0:0:
96,152,32288,5,0,0:0:0:0:
368,144,33297,1,0,0:0:0:0:
384,232,33801,2,0,L|216:288,3,159.999990463257
168,256,36828,1,0,0:0:0:0:
120,152,37333,1,0,0:0:0:0:
64,40,37837,1,0,0:0:0:0:
432,48,38846,6,0,P|376:232|264:288,3,319.999980926513
136,304,42378,1,0,0:0:0:0:
112,120,42882,1,0,0:0:0:0:
224,64,43387,2,0,P|416:64|440:296,3,319.999980926513
440,272,46918,1,0,0:0:0:0:
144,272,47927,1,0,0:0:0:0:
144,96,48432,1,0,0:0:0:0:
400,64,49441,6,0,P|480:208|472:224,2,159.999990463257
272,320,50954,1,0,0:0:0:0:
160,272,51459,2,0,P|80:120|88:104,1,159.999990463257
168,72,52468,1,0,0:0:0:0:
296,64,52972,1,0,0:0:0:0:
400,96,53477,2,0,P|440:272|408:304,1,159.999990463257
360,232,54486,1,0,0:0:0:0:
184,256,54990,1,0,0:0:0:0:
88,168,55495,1,0,0:0:0:0:
128,48,55999,2,0,P|344:96|352:88,1,159.999990463257
352,56,57008,1,0,0:0:0:0:
456,128,57513,1,0,0:0:0:0:
424,256,58017,2,0,P|256:320|272:336,1,319.999980926513
280,288,59026,1,0,0:0:0:0:
352,256,59531,1,0,0:0:0:0:
432,168,60035,1,0,0:0:0:0:
216,48,61044,1,0,0:0:0:0:
88,72,61549,1,0,0:0:0:0:
72,200,62053,1,0,0:0:0:0:
192,256,62558,2,0,P|384:304|432:264,1,159.999990463257
280,280,63567,1,0,0:0:0:0:
368,264,64071,1,0,0:0:0:0:
424,200,64576,1,0,0:0:0:0:
400,96,65080,1,0,0:0:0:0:
264,88,65585,2,0,P|96:112|112:80,1,319.999980926513
168,96,67098,1,0,0:0:0:0:
288,64,67603,1,0,0:0:0:0:
408,112,68107,1,0,0:0:0:0:
384,240,68612,1,0,0:0:0:0:
456,344,69116,1,0,0:0:0:0:
328,336,69621,2,0,P|144:336|128:384,1,159.999990463257
184,336,70630,1,0,0:0:0:0:
120,272,71134,1,0,0:0:0:0:
120,184,71639,1,0,0:0:0:0:
104,56,72143,6,0,P|480:208|480:216,1,479.99997138977
408,280,74161,1,0,0:0:0:0:
280,272,74666,5,0,0:0:0:0:
120,224,75170,1,0,0:0:0:0:
64,112,75675,2,0,P|272:80|280:96,1,159.999990463257
312,40,76684,1,0,0:0:0:0:
416,112,77188,2,0,L|432:272,1,159.999990463257
288,272,78197,1,0,0:0:0:0:
448,232,78702,1,0,0:0:0:0:
408,112,79206,6,0,P|224:32|216:32,1,159.999990463257
400,48,90810,6,0,P|440:208|432:224,1,159.999990463257
352,280,91819,1,0,0:0:0:0:
224,272,92323,2,0,P|72:320|72:336,1,159.999990463257
168,184,93332,1,0,0:0:0:0:
72,96,93837,1,0,0:0:0:0:
184,40,94341,1,0,0:0:0:0:
248,152,94846,5,0,0:0:0:0:
192,272,95855,2,0,B|80:104|128:96|288:168|176:296,1,319.999980926513
112,312,97368,1,0,0:0:0:0:
56,224,97873,1,0,0:0:0:0:
48,96,98377,1,0,0:0:0:0:
96,64,99891,1,0,0:0:0:0:
192,64,101909,1,0,0:0:0:0:
256,192,102413,12,0,104413,0:0:0:0:
64,56,104936,5,0,0:0:0:0:
248,64,105440,1,0,0:0:0:0:
464,48,106449,1,0,0:0:0:0:
400,296,107458,2,0,P|224:328|216:320,1,159.999990463257
312,224,108467,1,0,0:0:0:0:
184,216,108972,2,0,P|328:120|336:120,1,159.999990463257
312,248,109981,1,0,0:0:0:0:
288,328,110485,2,0,P|448:208|448:144,1,159.999990463257
368,104,111999,5,0,0:0:0:0:
248,48,112503,1,0,0:0:0:0:
104,104,113008,1,0,0:0:0:0:
176,208,113512,1,0,0:0:0:0:
304,112,114017,1,0,0:0:0:0:
432,88,114521,2,0,P|80:216|80:224,1,479.99997138977
320,40,117044,1,0,0:0:0:0:
304,168,117548,1,0,0:0:0:0:
144,144,118053,1,0,0:0:0:0:
256,280,118557,1,0,0:0:0:0:
64,96,119566,2,0,P|232:80|272:104,1,159.999990463257
304,160,120575,1,0,0:0:0:0:
200,240,121080,2,0,P|384:280|432:256,1,159.999990463257
408,176,122089,5,0,0:0:0:0:
288,128,122593,1,0,0:0:0:0:
240,296,123098,1,0,0:0:0:0:
120,168,123602,1,0,0:0:0:0:
184,56,124107,2,0,P|352:64|384:88,1,159.999990463257
256,152,125116,1,0,0:0:0:0:
160,144,125620,1,0,0:0:0:0:
104,280,126125,1,0,0:0:0:0:
240,160,126629,1,0,0:0:0:0:
120,112,127134,1,0,0:0:0:0:
240,56,127638,1,0,0:0:0:0:
360,88,128143,2,0,P|368:296|352:360,1,159.999990463257
264,312,129152,1,0,0:0:0:0:
136,312,129656,5,0,0:0:0:0:
32,280,130161,1,0,0:0:0:0:
72,160,130665,2,0,P|232:80|240:96,1,159.999990463257
142,39,131674,1,0,0:0:0:0:
72,160,132179,1,0,0:0:0:0:
112,72,133692,1,0,0:0:0:0:
424,72,134701,1,0,0:0:0:0:
288,72,135206,1,0,0:0:0:0:
160,72,135710,1,0,0:0:0:0:
56,160,136215,2,0,P|256:272|264:272,1,159.999990463257
304,280,137224,1,0,0:0:0:0:
392,192,137728,1,0,0:0:0:0:
352,72,138233,1,0,0:0:0:0:
224,64,138737,2,0,P|56:184|32:248,1,159.999990463257
224,64,139746,6,0,P|240:240|256:224,1,479.99997138977
160,128,141764,1,0,0:0:0:0:
160,88,142269,1,0,0:0:0:0:
416,56,143278,2,0,P|248:344|208:344,1,319.999980926513
328,200,144791,1,0,0:0:0:0:
368,80,145296,1,0,0:0:0:0:
456,176,145800,1,0,0:0:0:0:
400,288,146305,1,0,0:0:0:0:
272,272,146809,1,0,0:0:0:0:
240,152,147314,1,0,0:0:0:0:
352,88,147818,1,0,0:0:0:0:
232,56,148323,6,0,P|64:144|32:224,1,159.999990463257
87,115,149332,1,0,0:0:0:0:
72,128,149836,1,0,0:0:0:0:
136,240,150341,6,0,P|224:72|224:64,1,159.999990463257
96,128,151350,1,0,0:0:0:0:
200,56,151854,2,0,P|264:240|256:248,1,159.999990463257
208,72,152863,1,0,0:0:0:0:
256,192,153368,12,0,156395,0:0:0:0:
104,64,156899,5,0,0:0:0:0:
80,192,157404,1,0,0:0:0:0:
176,272,157908,1,0,0:0:0:0:
304,280,158413,1,0,0:0:0:0:
408,208,158917,2,0,P|344:56|328:56,1,159.999990463257
304,168,159926,1,0,0:0:0:0:
136,168,160431,1,0,0:0:0:0:
232,80,160935,1,0,0:0:0:0:
360,72,161440,2,0,P|416:248|400:296,1,159.999990463257
296,192,162449,5,0,0:0:0:0:
208,280,162953,2,0,P|416:256|480:208,1,159.999990463257
456,184,163962,1,0,0:0:0:0:
408,64,164467,1,0,0:0:0:0:
280,56,164971,1,0,0:0:0:0:
152,80,165476,6,0,P|136:280|152:304,1,159.999990463257
232,168,166485,1,0,0:0:0:0:
288,280,166989,2,0,P|352:128|344:88,1,159.999990463257
232,168,167998,1,0,0:0:0:0:
312,72,168503,1,0,0:0:0:0:
392,176,169007,1,0,0:0:0:0:
312,72,169512,1,0,0:0:0:0:
392,176,170016,1,0,0:0:0:0:
328,288,170521,2,0,P|152:296|112:272,1,159.999990463257
173,304,171530,1,0,0:0:0:0:
80,264,172034,1,0,0:0:0:0:
64,136,172539,1,0,0:0:0:0:
168,64,173043,6,0,P|384:96|440:128,1,159.999990463257
200,64,174052,1,0,0:0:0:0:
296,152,174557,1,0,0:0:0:0:
200,64,175061,2,0,P|88:192|80:248,1,159.999990463257
92,177,176070,6,0,P|224:288|280:296,1,159.999990463257
232,160,177079,1,0,0:0:0:0:
168,48,177584,2,0,P|336:88|376:128,1,159.999990463257
232,160,178593,1,0,0:0:0:0:
128,88,179097,1,0,0:0:0:0:
248,48,179602,1,0,0:0:0:0:
368,88,180106,1,0,0:0:0:0:
384,216,180611,1,0,0:0:0:0:
280,288,181115,2,0,P|96:264|56:240,1,159.999990463257
120,144,182124,5,0,0:0:0:0:
240,88,182629,2,0,P|216:264|232:288,1,159.999990463257
320,184,183638,1,0,0:0:0:0:
416,96,184142,2,0,P|384:320|368:336,1,159.999990463257
320,176,185151,1,0,0:0:0:0:
360,296,185656,2,0,P|176:248|128:216,1,159.999990463257
312,192,186665,5,0,0:0:0:0:
208,264,187169,1,0,0:0:0:0:
104,184,187674,2,0,P|216:64|264:56,1,159.999990463257
208,264,188683,1,0,0:0:0:0:
112,184,189187,1,0,0:0:0:0:
104,312,189692,2,0,P|320:288|360:272,1,159.999990463257
384,264,190701,2,0,P|448:104|448:72,1,159.999990463257
328,176,191710,5,0,0:0:0:0:
224,96,192214,1,0,0:0:0:0:
112,160,192719,1,0,0:0:0:0:
152,280,193223,2,0,P|320:176|376:168,1,159.999990463257
272,312,194232,1,0,0:0:0:0:
368,232,194737,1,0,0:0:0:0:
424,120,195241,5,0,0:0:0:0:
368,232,195746,1,0,0:0:0:0:
472,304,196250,1,0,0:0:0:0:
344,320,196755,2,0,P|168:288|112:240,1,159.999990463257
80,232,197764,1,0,0:0:0:0:
96,104,198268,2,0,P|272:40|368:48,1,159.999990463257
216,168,199277,5,0,0:0:0:0:
312,88,199782,1,0,0:0:0:0:
432,120,200286,2,0,P|272:216|216:288,1,159.999990463257
424,208,201295,1,0,0:0:0:0:
320,288,201800,6,0,P|120:272|88:248,1,159.999990463257
48,344,202809,1,0,0:0:0:0:
80,224,203313,2,0,P|248:160|280:168,1,159.999990463257
312,48,204322,5,0,0:0:0:0:
184,56,204827,2,0,P|336:192|432:200,1,159.999990463257
416,160,205836,1,0,0:0:0:0:
352,272,206340,2,0,P|176:320|152:360,1,159.999990463257
