osu file format v14

[General]
AudioFilename: audio.mp3
AudioLeadIn: 0
PreviewTime: 33760
Countdown: 0
SampleSet: Normal
StackLeniency: 0.7
Mode: 2
LetterboxInBreaks: 0
WidescreenStoryboard: 1

[Editor]
Bookmarks: 34960,56560,73360
DistanceSpacing: 2
BeatDivisor: 4
GridSize: 32
TimelineZoom: 2

[Metadata]
Title:Greetings
TitleUnicode:Greetings
Artist:VINXIS
ArtistUnicode:VINXIS
Creator:Sinnoh
Version:Salad
Source:osu!
Tags:featured artist artcore drum and bass dnb
BeatmapID:1709678
BeatmapSetID:815162

[Difficulty]
HPDrainRate:4
CircleSize:3
OverallDifficulty:7
ApproachRate:7
SliderMultiplier:1.3
SliderTickRate:2

[Events]
//Background and Video events
0,0,"itsok.jpg",0,0
//Break Periods
//Storyboard Layer 0 (Background)
//Storyboard Layer 1 (Fail)
//Storyboard Layer 2 (Pass)
//Storyboard Layer 3 (Foreground)
//Storyboard Sound Samples

[TimingPoints]
160,300,4,2,1,60,1,0
13360,-100,4,2,1,30,0,0
13810,-100,4,2,1,40,0,0
14560,-100,4,2,1,60,0,0
15760,-100,4,2,1,100,0,0
16960,-100,4,2,1,60,0,0
18160,-100,4,2,1,100,0,0
19360,-100,4,2,1,60,0,0
20560,-100,4,2,1,100,0,0
21760,-100,4,2,1,60,0,0
22960,-100,4,2,1,100,0,0
31660,-100,4,2,1,21,0,0
31735,-100,4,2,1,33,0,0
31810,-100,4,2,1,46,0,0
31885,-100,4,2,1,59,0,0
31960,-100,4,2,1,67,0,0
32035,-100,4,2,1,75,0,0
32110,-100,4,2,1,82,0,0
32185,-100,4,2,1,87,0,0
32260,-100,4,2,1,90,0,0
32335,-100,4,2,1,94,0,0
32410,-100,4,2,1,100,0,0
33760,-100,4,3,1,40,0,0
34960,-100,4,1,1,100,0,1
54160,-100,4,2,1,70,0,0
55810,-100,4,1,1,100,0,0
56560,-100,4,1,1,100,0,1
73360,-100,4,2,1,80,0,0
73810,-100,4,2,1,60,0,0
75160,-100,4,2,1,40,0,0
76060,-100,4,2,1,20,0,0
76960,-100,4,2,1,5,0,0

[Colours]
Combo1 : 140,140,140
Combo2 : 84,163,172
Combo3 : 105,105,105
Combo4 : 84,152,172

[HitObjects]
421,242,4960,6,0,L|203:232,2,195,2|0|0,0:0|0:0|0:0,0:0:0:0:
91,242,7360,6,0,L|302:228,2,195,0|0|0,0:0|0:0|0:0,0:0:0:0:
416,248,9760,6,0,P|411:197|275:141,2,195
129,313,12160,6,0,P|123:257|172:114,1,195,0|0,0:0|0:0,0:0:0:0:
336,163,13060,1,0,0:0:0:0:
183,262,13360,6,0,P|143:220|196:176,1,130,2|8,0:0|0:0,0:0:0:0:
308,141,13960,2,0,L|368:98,2,65,0|2|0,0:0|0:0|0:0,0:0:0:0:
37,216,14560,5,2,0:0:0:0:
295,256,15460,1,0,0:0:0:0:
150,252,15760,6,0,P|112:208|169:147,1,130,2|8,0:0|0:0,0:0:0:0:
201,129,16210,1,2,0:0:0:0:
336,151,16510,2,0,L|413:121,2,65,8|2|8,0:0|0:0|0:0,0:0:0:0:
249,174,16960,6,0,L|58:223,2,195,2|0|2,0:0|0:0|0:0,0:0:0:0:
411,228,18160,6,0,P|411:157|352:109,1,130,8|2,0:0|0:0,0:0:0:0:
294,198,18610,2,0,P|219:178|160:142,1,130,8|2,0:0|0:0,0:0:0:0:
107,115,19060,1,0,0:0:0:0:
382,130,19360,5,2,0:0:0:0:
153,258,20260,1,0,0:0:0:0:
303,273,20560,6,0,P|365:222|351:157,1,130,2|8,0:0|0:0,0:0:0:0:
319,125,21010,1,2,0:0:0:0:
186,170,21310,2,0,L|150:95,2,65,8|2|8,0:0|0:0|0:0,0:0:0:0:
272,294,21760,6,0,P|343:269|365:141,2,195,2|0|0,0:0|0:0|0:0,0:0:0:0:
120,320,22960,2,0,P|76:258|93:191,1,130,8|2,0:0|0:0,0:0:0:0:
154,209,23410,2,0,P|191:181|195:102,1,130,8|2,0:0|0:0,0:0:0:0:
132,91,23860,1,8,0:0:0:0:
406,283,24160,6,0,P|464:227|383:152,1,195,2|2,0:0|0:0,0:0:0:0:
247,164,24910,2,0,L|169:130,1,65,8|2,0:0|0:0,0:0:0:0:
338,294,25360,5,8,0:0:0:0:
339,229,25510,1,2,0:0:0:0:
340,164,25660,1,2,0:0:0:0:
266,161,25810,1,8,0:0:0:0:
201,159,25960,1,2,0:0:0:0:
136,158,26110,1,2,0:0:0:0:
200,94,26260,1,8,0:0:0:0:
468,234,26560,6,0,P|467:166|390:136,1,130,2|8,0:0|0:0,0:0:0:0:
342,235,27010,2,0,P|305:232|275:149,1,130,2|8,0:0|0:0,0:0:0:0:
346,126,27460,2,0,L|339:39,1,65,2|0,0:0|0:0,0:0:0:0:
265,126,27760,6,0,L|185:112,2,65,8|2|0,0:0|0:0|0:0,0:0:0:0:
351,93,28210,2,0,L|424:71,2,65,8|2|0,0:0|0:0|0:0,0:0:0:0:
272,114,28660,1,8,0:0:0:0:
26,237,28960,6,0,L|32:104,1,130,8|2,0:0|0:0,0:0:0:0:
188,126,29560,1,2,0:0:0:0:
252,121,29710,1,0,0:0:0:0:
317,117,29860,1,8,0:0:0:0:
190,209,30160,6,0,L|51:182,1,130,8|2,0:0|0:0,0:0:0:0:
134,234,30610,2,0,L|273:207,1,130,8|2,0:0|0:0,0:0:0:0:
302,154,31060,1,8,0:0:0:0:
287,89,31210,1,2,0:0:0:0:
220,71,31360,1,2,0:0:0:0:
256,192,31660,12,8,32560,0:0:0:0:
286,240,33460,6,0,L|374:238,1,65,10|10,0:0|0:0,0:0:0:0:
421,192,33760,2,0,L|225:96,2,195,0|0|0,0:0|0:0|0:0,0:0:0:0:
181,211,34960,6,0,L|39:207,1,130,6|8,0:0|0:0,0:0:0:0:
200,159,35560,2,0,L|283:148,2,65,0|2|8,0:0|0:0|0:0,0:0:0:0:
48,323,36160,2,0,P|63:247|120:217,1,130,2|8,0:0|0:0,0:0:0:0:
161,194,36610,1,0,0:0:0:0:
182,134,36760,1,0,0:0:0:0:
155,78,36910,1,2,0:0:0:0:
94,58,37060,1,8,0:0:0:0:
354,299,37360,6,0,P|365:249|302:197,1,130,2|8,0:0|0:0,0:0:0:0:
221,253,37810,2,0,P|162:231|170:150,1,130,2|2,0:0|0:0,0:0:0:0:
217,76,38260,1,8,0:0:0:0:
364,251,38560,6,0,L|369:109,1,130,2|8,0:0|0:0,0:0:0:0:
288,111,39010,2,0,L|139:73,1,130,0|0,0:0|0:0,0:0:0:0:
224,47,39460,1,8,0:0:0:0:
468,243,39760,6,0,P|494:188|434:157,1,130,2|8,0:0|0:0,0:0:0:0:
302,155,40360,1,0,0:0:0:0:
237,149,40510,1,2,0:0:0:0:
172,144,40660,1,8,0:0:0:0:
327,343,40960,5,2,0:0:0:0:
390,335,41110,1,0,0:0:0:0:
435,290,41260,1,8,0:0:0:0:
442,227,41410,1,0,0:0:0:0:
407,173,41560,2,0,L|275:101,1,130,0|8,0:0|0:0,0:0:0:0:
36,240,42160,6,0,P|32:185|95:120,1,130,2|8,0:0|0:0,0:0:0:0:
137,118,42610,2,0,L|282:94,1,130,0|2,0:0|0:0,0:0:0:0:
330,66,43060,1,8,0:0:0:0:
179,264,43360,6,0,L|170:193,2,65,2|0|8,0:0|0:0|0:0,0:0:0:0:
274,268,43810,2,0,L|345:259,2,65,0|0|2,0:0|0:0|0:0,0:0:0:0:
191,275,44260,1,8,0:0:0:0:
445,247,44560,6,0,P|476:202|403:158,1,130,2|8,0:0|0:0,0:0:0:0:
369,147,45010,2,0,L|220:134,1,130,0|2,0:0|0:0,0:0:0:0:
174,129,45460,1,8,0:0:0:0:
340,284,45760,6,0,L|344:141,1,130,2|8,0:0|0:0,0:0:0:0:
209,125,46360,1,0,0:0:0:0:
144,119,46510,1,2,0:0:0:0:
79,113,46660,1,8,0:0:0:0:
343,256,46960,6,0,L|345:111,1,130,2|8,0:0|0:0,0:0:0:0:
268,148,47410,1,0,0:0:0:0:
199,224,47560,2,0,P|171:197|224:117,1,130,0|8,0:0|0:0,0:0:0:0:
351,188,48160,2,0,P|418:171|454:39,2,195,2|0|8,0:0|0:0|0:0,0:0:0:0:
79,240,49360,6,0,P|42:197|94:149,1,130,2|8,0:0|0:0,0:0:0:0:
226,140,49960,2,0,L|377:104,1,130,0|8,0:0|0:0,0:0:0:0:
209,291,50560,5,2,0:0:0:0:
152,261,50710,1,0,0:0:0:0:
143,196,50860,1,8,0:0:0:0:
196,154,51010,1,0,0:0:0:0:
260,137,51160,2,0,L|125:86,1,130,2|8,0:0|0:0,0:0:0:0:
421,276,51760,6,0,P|450:240|391:182,1,130,2|8,0:0|0:0,0:0:0:0:
325,172,52210,2,0,L|194:157,1,130,0|2,0:0|0:0,0:0:0:0:
128,145,52660,1,8,0:0:0:0:
250,178,52960,6,0,L|281:99,2,65,2|0|8,0:0|0:0|0:0,0:0:0:0:
162,175,53410,2,0,L|93:164,2,65,0|0|2,0:0|0:0|0:0,0:0:0:0:
239,149,53860,1,8,0:0:0:0:
499,127,54160,1,6,0:0:0:0:
251,264,55810,6,0,L|251:178,1,65
343,176,56110,2,0,L|341:99,1,65,2|8,0:0|0:0,0:0:0:0:
92,219,56560,6,0,P|51:191|96:126,1,130,2|8,0:0|0:0,0:0:0:0:
152,116,57010,2,0,L|359:58,1,195,0|8,0:0|0:0,0:0:0:0:
199,242,57760,1,2,0:0:0:0:
341,224,58060,2,0,L|434:205,2,65,8|0|0,0:0|0:0|0:0,0:0:0:0:
184,215,58660,1,8,0:0:0:0:
184,182,58735,1,0,0:0:0:0:
184,150,58810,1,0,0:0:0:0:
269,117,58960,6,0,L|422:92,1,130,2|8,0:0|0:0,0:0:0:0:
326,192,59410,2,0,L|184:174,1,130,0|2,0:0|0:0,0:0:0:0:
131,167,59860,1,8,0:0:0:0:
272,305,60160,5,2,0:0:0:0:
328,275,60310,1,0,0:0:0:0:
349,216,60460,1,8,0:0:0:0:
324,158,60610,1,0,0:0:0:0:
265,133,60760,2,0,L|107:114,1,130,0|8,0:0|0:0,0:0:0:0:
412,226,61360,6,0,P|452:189|390:148,1,130,2|8,0:0|0:0,0:0:0:0:
330,137,61810,2,0,L|195:100,1,130,0|2,0:0|0:0,0:0:0:0:
139,89,62260,1,8,0:0:0:0:
286,260,62560,6,0,L|280:184,1,65,2|0,0:0|0:0,0:0:0:0:
202,193,62860,1,8,0:0:0:0:
120,186,63010,2,0,L|126:110,1,65,0|0,0:0|0:0,0:0:0:0:
204,119,63310,1,2,0:0:0:0:
287,116,63460,1,8,0:0:0:0:
29,263,63760,6,0,P|17:213|93:154,1,130,2|8,0:0|0:0,0:0:0:0:
127,151,64210,2,0,L|272:114,1,130,0|2,0:0|0:0,0:0:0:0:
316,102,64660,1,8,0:0:0:0:
175,265,64960,6,0,L|169:184,1,65,2|0,0:0|0:0,0:0:0:0:
239,171,65260,2,0,L|322:140,1,65,8|0,0:0|0:0,0:0:0:0:
226,106,65560,2,0,L|82:73,1,130,0|8,0:0|0:0,0:0:0:0:
378,259,66160,6,0,P|414:223|352:174,1,130,2|8,0:0|0:0,0:0:0:0:
294,165,66610,1,0,0:0:0:0:
216,166,66760,2,0,P|185:153|154:64,1,130,0|8,0:0|0:0,0:0:0:0:
305,206,67360,6,0,P|305:156|217:121,1,130,2|8,0:0|0:0,0:0:0:0:
165,127,67810,2,0,P|166:83|247:38,1,130,0|2,0:0|0:0,0:0:0:0:
304,76,68260,1,8,0:0:0:0:
66,264,68560,6,0,P|33:249|80:188,1,130,2|8,0:0|0:0,0:0:0:0:
136,173,69010,2,0,L|264:150,1,130,0|2,0:0|0:0,0:0:0:0:
328,115,69460,1,8,0:0:0:0:
190,195,69760,6,0,L|255:186,2,65,2|0|8,0:0|0:0|0:0,0:0:0:0:
108,201,70210,1,0,0:0:0:0:
55,154,70360,2,0,P|51:55|94:23,1,130,0|8,0:0|0:0,0:0:0:0:
144,36,70810,1,0,0:0:0:0:
211,117,70960,5,2,0:0:0:0:
71,218,71260,1,8,0:0:0:0:
68,185,71335,1,0,0:0:0:0:
66,153,71410,1,0,0:0:0:0:
153,141,71560,2,0,L|233:129,1,65,0|2,0:0|0:0,0:0:0:0:
304,151,71860,1,8,0:0:0:0:
305,118,71935,1,0,0:0:0:0:
306,86,72010,1,0,0:0:0:0:
225,77,72160,6,0,L|86:53,1,130,2|8,0:0|0:0,0:0:0:0:
153,170,72610,2,0,L|298:156,1,130,0|2,0:0|0:0,0:0:0:0:
354,145,73060,1,8,0:0:0:0:
80,108,73360,5,6,0:0:0:0:
