osu file format v14

[General]
AudioFilename: The Sacred Story.mp3
AudioLeadIn: 0
PreviewTime: 25073
Countdown: 0
SampleSet: Soft
StackLeniency: 0.7
Mode: 3
LetterboxInBreaks: 0
SpecialStyle: 1
WidescreenStoryboard: 1

[Editor]
Bookmarks: 25832,79756,152668
DistanceSpacing: 1
BeatDivisor: 4
GridSize: 8
TimelineZoom: 1.7

[Metadata]
Title:The Sacred Story
TitleUnicode:The Sacred Story
Artist:VILA
ArtistUnicode:VILA
Creator:Rayz141
Version:Normal
Source:Cytus
Tags:chapter m million cranky pico rabpit sanctity sacred saika
BeatmapID:735076
BeatmapSetID:330709

[Difficulty]
HPDrainRate:7.5
CircleSize:8
OverallDifficulty:7
ApproachRate:5
SliderMultiplier:1.4
SliderTickRate:1

[Events]
//Background and Video events
0,0,"mainbg.png",0,0
//Break Periods
//Storyboard Layer 0 (Background)
//Storyboard Layer 1 (Fail)
//Storyboard Layer 2 (Pass)
//Storyboard Layer 3 (Foreground)
//Storyboard Sound Samples

[TimingPoints]
1529,379.746835443038,4,2,0,100,1,0
25832,-100,4,2,0,100,0,1
37604,-100,4,2,0,100,0,0
37984,-100,4,2,0,100,0,1
50136,-100,4,2,0,100,0,0
52415,379.746835443038,4,2,0,100,1,0
91908,-100,4,2,0,100,0,1
104060,-100,4,2,0,100,0,0
116212,-100,4,2,0,100,0,1
128364,-100,4,2,0,100,0,0
180009,-100,4,2,0,100,0,1
203933,-100,4,2,0,100,0,0
204313,-100,4,2,0,100,0,1
216465,-100,4,2,0,100,0,0

[HitObjects]
32,192,1529,5,0,0:0:0:0:
480,192,1529,1,0,0:0:0:0:
96,192,1529,1,0,0:0:0:0:
480,192,1908,1,0,0:0:0:0:
32,192,2098,1,0,0:0:0:0:
96,192,2098,1,0,0:0:0:0:
224,192,2098,1,0,0:0:0:0:
96,192,2288,1,0,0:0:0:0:
160,192,2288,1,0,0:0:0:0:
32,192,2478,1,0,0:0:0:0:
288,192,2478,1,0,0:0:0:0:
480,192,2668,1,0,0:0:0:0:
96,192,3047,1,0,0:0:0:0:
160,192,3047,1,0,0:0:0:0:
480,192,3427,1,0,0:0:0:0:
288,192,3617,1,0,0:0:0:0:
96,192,3712,1,0,0:0:0:0:
160,192,3712,1,0,0:0:0:0:
416,192,3807,1,0,0:0:0:0:
96,192,3997,1,0,0:0:0:0:
160,192,3997,1,0,0:0:0:0:
480,192,4187,1,0,0:0:0:0:
352,192,4377,1,0,0:0:0:0:
96,192,4566,1,0,0:0:0:0:
480,192,4566,1,0,0:0:0:0:
32,192,4566,1,0,0:0:0:0:
480,192,4946,1,0,0:0:0:0:
32,192,5136,1,0,0:0:0:0:
288,192,5136,1,0,0:0:0:0:
224,192,5231,1,0,0:0:0:0:
96,192,5231,1,0,0:0:0:0:
352,192,5326,1,0,0:0:0:0:
32,192,5516,1,0,0:0:0:0:
160,192,5516,1,0,0:0:0:0:
96,192,5516,1,0,0:0:0:0:
480,192,5706,1,0,0:0:0:0:
96,192,6085,1,0,0:0:0:0:
352,192,6085,1,0,0:0:0:0:
480,192,6465,1,0,0:0:0:0:
288,192,6655,1,0,0:0:0:0:
224,192,6750,1,0,0:0:0:0:
96,192,6750,1,0,0:0:0:0:
416,192,6845,1,0,0:0:0:0:
160,192,7035,1,0,0:0:0:0:
96,192,7035,1,0,0:0:0:0:
480,192,7225,1,0,0:0:0:0:
288,192,7415,1,0,0:0:0:0:
96,192,7604,1,0,0:0:0:0:
480,192,7604,1,0,0:0:0:0:
32,192,7604,1,0,0:0:0:0:
480,192,7984,1,0,0:0:0:0:
96,192,8174,1,0,0:0:0:0:
352,192,8174,1,0,0:0:0:0:
32,192,8174,1,0,0:0:0:0:
288,192,8364,1,0,0:0:0:0:
96,192,8364,1,0,0:0:0:0:
224,192,8554,1,0,0:0:0:0:
32,192,8554,1,0,0:0:0:0:
480,192,8744,1,0,0:0:0:0:
96,192,9123,1,0,0:0:0:0:
416,192,9123,1,0,0:0:0:0:
480,192,9503,1,0,0:0:0:0:
288,192,9693,1,0,0:0:0:0:
96,192,9788,1,0,0:0:0:0:
224,192,9788,1,0,0:0:0:0:
352,192,9883,1,0,0:0:0:0:
96,192,10073,1,0,0:0:0:0:
160,192,10073,1,0,0:0:0:0:
480,192,10263,1,0,0:0:0:0:
224,192,10453,1,0,0:0:0:0:
480,192,10642,1,0,0:0:0:0:
96,192,10642,1,0,0:0:0:0:
32,192,10642,1,0,0:0:0:0:
480,192,11022,1,0,0:0:0:0:
32,192,11212,1,0,0:0:0:0:
352,192,11212,1,0,0:0:0:0:
96,192,11402,1,0,0:0:0:0:
160,192,11402,1,0,0:0:0:0:
32,192,11592,1,0,0:0:0:0:
288,192,11592,1,0,0:0:0:0:
480,192,11782,1,0,0:0:0:0:
352,192,11972,1,0,0:0:0:0:
96,192,12161,1,0,0:0:0:0:
224,192,12161,1,0,0:0:0:0:
352,192,12351,1,0,0:0:0:0:
480,192,12541,1,0,0:0:0:0:
160,192,12731,1,0,0:0:0:0:
96,192,12731,1,0,0:0:0:0:
32,192,12921,1,0,0:0:0:0:
32,192,13111,1,0,0:0:0:0:
32,192,13301,1,0,0:0:0:0:
224,192,13491,1,0,0:0:0:0:
352,192,13491,1,0,0:0:0:0:
32,192,13680,1,0,0:0:0:0:
480,192,13680,1,0,0:0:0:0:
96,192,13680,1,0,0:0:0:0:
352,192,13870,1,0,0:0:0:0:
224,192,14060,1,0,0:0:0:0:
480,192,14060,1,0,0:0:0:0:
32,192,14250,1,0,0:0:0:0:
288,192,14250,1,0,0:0:0:0:
96,192,14440,1,0,0:0:0:0:
352,192,14440,1,0,0:0:0:0:
32,192,14630,1,0,0:0:0:0:
288,192,14630,1,0,0:0:0:0:
224,192,14820,1,0,0:0:0:0:
480,192,14820,1,0,0:0:0:0:
352,192,15010,1,0,0:0:0:0:
160,192,15199,1,0,0:0:0:0:
96,192,15199,1,0,0:0:0:0:
288,192,15389,1,0,0:0:0:0:
416,192,15579,1,0,0:0:0:0:
480,192,15579,1,0,0:0:0:0:
288,192,15769,1,0,0:0:0:0:
96,192,15959,1,0,0:0:0:0:
160,192,15959,1,0,0:0:0:0:
288,192,16149,1,0,0:0:0:0:
416,192,16339,1,0,0:0:0:0:
480,192,16339,1,0,0:0:0:0:
160,192,16529,1,0,0:0:0:0:
480,192,16718,1,0,0:0:0:0:
96,192,16718,1,0,0:0:0:0:
32,192,16718,1,0,0:0:0:0:
224,192,16908,1,0,0:0:0:0:
352,192,17098,1,0,0:0:0:0:
480,192,17098,1,0,0:0:0:0:
32,192,17288,1,0,0:0:0:0:
288,192,17288,1,0,0:0:0:0:
224,192,17478,1,0,0:0:0:0:
96,192,17478,1,0,0:0:0:0:
32,192,17668,1,0,0:0:0:0:
288,192,17668,1,0,0:0:0:0:
352,192,17858,1,0,0:0:0:0:
480,192,17858,1,0,0:0:0:0:
224,192,18047,1,0,0:0:0:0:
416,192,18237,1,0,0:0:0:0:
96,192,18237,1,0,0:0:0:0:
288,192,18427,1,0,0:0:0:0:
160,192,18617,1,0,0:0:0:0:
480,192,18617,1,0,0:0:0:0:
288,192,18807,1,0,0:0:0:0:
416,192,18997,1,0,0:0:0:0:
96,192,18997,1,0,0:0:0:0:
288,192,19187,1,0,0:0:0:0:
160,192,19377,1,0,0:0:0:0:
480,192,19377,1,0,0:0:0:0:
416,192,19566,1,0,0:0:0:0:
96,192,19756,1,0,0:0:0:0:
480,192,19756,1,0,0:0:0:0:
32,192,19756,1,0,0:0:0:0:
224,192,19946,1,0,0:0:0:0:
352,192,20136,1,0,0:0:0:0:
480,192,20136,1,0,0:0:0:0:
288,192,20326,1,0,0:0:0:0:
32,192,20326,1,0,0:0:0:0:
224,192,20516,1,0,0:0:0:0:
96,192,20516,1,0,0:0:0:0:
352,192,20706,1,0,0:0:0:0:
32,192,20706,1,0,0:0:0:0:
288,192,20896,1,0,0:0:0:0:
480,192,20896,1,0,0:0:0:0:
224,192,21085,1,0,0:0:0:0:
96,192,21275,1,0,0:0:0:0:
352,192,21275,1,0,0:0:0:0:
288,192,21465,1,0,0:0:0:0:
480,192,21655,1,0,0:0:0:0:
416,192,21655,1,0,0:0:0:0:
288,192,21845,1,0,0:0:0:0:
96,192,22035,1,0,0:0:0:0:
160,192,22035,1,0,0:0:0:0:
288,192,22225,1,0,0:0:0:0:
224,192,22415,1,0,0:0:0:0:
480,192,22415,1,0,0:0:0:0:
352,192,22604,1,0,0:0:0:0:
96,192,22794,1,0,0:0:0:0:
480,192,22794,1,0,0:0:0:0:
32,192,22794,1,0,0:0:0:0:
480,192,23174,1,0,0:0:0:0:
224,192,23174,1,0,0:0:0:0:
160,192,23364,1,0,0:0:0:0:
96,192,23554,1,0,0:0:0:0:
480,192,23554,1,0,0:0:0:0:
32,192,23554,1,0,0:0:0:0:
96,192,23934,1,0,0:0:0:0:
352,192,23934,1,0,0:0:0:0:
416,192,24123,1,0,0:0:0:0:
96,192,24313,1,0,0:0:0:0:
480,192,24313,1,0,0:0:0:0:
96,192,24693,1,0,0:0:0:0:
480,192,24693,1,0,0:0:0:0:
96,192,25073,1,0,0:0:0:0:
224,192,25073,1,0,0:0:0:0:
32,192,25073,1,0,0:0:0:0:
288,192,25263,1,0,0:0:0:0:
416,192,25263,1,0,0:0:0:0:
96,192,25453,1,0,0:0:0:0:
224,192,25453,1,0,0:0:0:0:
32,192,25453,1,0,0:0:0:0:
288,192,25642,1,0,0:0:0:0:
416,192,25642,1,0,0:0:0:0:
480,192,25832,1,0,0:0:0:0:
96,192,25832,1,0,0:0:0:0:
32,192,25832,1,0,0:0:0:0:
224,192,26022,1,0,0:0:0:0:
288,192,26212,1,0,0:0:0:0:
480,192,26212,1,0,0:0:0:0:
352,192,26402,1,0,0:0:0:0:
160,192,26592,1,0,0:0:0:0:
96,192,26592,1,0,0:0:0:0:
352,192,26782,1,0,0:0:0:0:
288,192,26972,1,0,0:0:0:0:
480,192,26972,1,0,0:0:0:0:
224,192,27161,1,0,0:0:0:0:
352,192,27351,1,0,0:0:0:0:
96,192,27351,1,0,0:0:0:0:
224,192,27541,1,0,0:0:0:0:
288,192,27731,1,0,0:0:0:0:
480,192,27731,1,0,0:0:0:0:
352,192,27921,1,0,0:0:0:0:
160,192,28111,1,0,0:0:0:0:
96,192,28111,1,0,0:0:0:0:
352,192,28301,1,0,0:0:0:0:
288,192,28491,1,0,0:0:0:0:
480,192,28491,1,0,0:0:0:0:
224,192,28680,1,0,0:0:0:0:
96,192,28870,1,0,0:0:0:0:
288,192,28870,1,0,0:0:0:0:
224,192,29060,1,0,0:0:0:0:
352,192,29250,1,0,0:0:0:0:
480,192,29250,1,0,0:0:0:0:
288,192,29440,1,0,0:0:0:0:
224,192,29630,1,0,0:0:0:0:
96,192,29630,1,0,0:0:0:0:
288,192,29820,1,0,0:0:0:0:
352,192,30010,1,0,0:0:0:0:
480,192,30010,1,0,0:0:0:0:
288,192,30199,1,0,0:0:0:0:
416,192,30389,1,0,0:0:0:0:
96,192,30389,1,0,0:0:0:0:
352,192,30516,1,0,0:0:0:0:
224,192,30642,1,0,0:0:0:0:
160,192,30769,1,0,0:0:0:0:
480,192,30769,1,0,0:0:0:0:
288,192,30959,1,0,0:0:0:0:
352,192,31149,1,0,0:0:0:0:
96,192,31149,1,0,0:0:0:0:
288,192,31339,1,0,0:0:0:0:
224,192,31529,1,0,0:0:0:0:
480,192,31529,1,0,0:0:0:0:
352,192,31718,1,0,0:0:0:0:
160,192,31718,1,0,0:0:0:0:
480,192,31908,1,0,0:0:0:0:
96,192,31908,1,0,0:0:0:0:
288,192,32098,1,0,0:0:0:0:
352,192,32288,1,0,0:0:0:0:
96,192,32288,1,0,0:0:0:0:
416,192,32478,1,0,0:0:0:0:
96,192,32668,1,0,0:0:0:0:
480,192,32668,1,0,0:0:0:0:
288,192,32858,1,0,0:0:0:0:
224,192,33047,1,0,0:0:0:0:
480,192,33047,1,0,0:0:0:0:
160,192,33237,1,0,0:0:0:0:
416,192,33427,1,0,0:0:0:0:
96,192,33427,1,0,0:0:0:0:
288,192,33617,1,0,0:0:0:0:
480,192,33807,1,0,0:0:0:0:
224,192,33807,1,0,0:0:0:0:
160,192,33997,1,0,0:0:0:0:
416,192,33997,1,0,0:0:0:0:
96,192,34187,1,0,0:0:0:0:
352,192,34187,1,0,0:0:0:0:
288,192,34377,1,0,0:0:0:0:
480,192,34566,1,0,0:0:0:0:
160,192,34566,1,0,0:0:0:0:
352,192,34756,1,0,0:0:0:0:
224,192,34756,1,0,0:0:0:0:
416,192,34946,1,0,0:0:0:0:
96,192,34946,1,0,0:0:0:0:
352,192,35136,1,0,0:0:0:0:
288,192,35326,1,0,0:0:0:0:
480,192,35326,1,0,0:0:0:0:
224,192,35516,1,0,0:0:0:0:
352,192,35706,1,0,0:0:0:0:
96,192,35706,1,0,0:0:0:0:
288,192,35896,1,0,0:0:0:0:
224,192,36085,1,0,0:0:0:0:
480,192,36085,1,0,0:0:0:0:
288,192,36275,1,0,0:0:0:0:
160,192,36465,1,0,0:0:0:0:
96,192,36465,1,0,0:0:0:0:
224,192,36655,1,0,0:0:0:0:
288,192,36845,1,0,0:0:0:0:
480,192,36845,1,0,0:0:0:0:
352,192,37035,1,0,0:0:0:0:
224,192,37225,1,0,0:0:0:0:
96,192,37225,1,0,0:0:0:0:
288,192,37415,1,0,0:0:0:0:
352,192,37604,1,0,0:0:0:0:
480,192,37604,1,0,0:0:0:0:
288,192,37794,1,0,0:0:0:0:
480,192,37984,1,0,0:0:0:0:
96,192,37984,1,0,0:0:0:0:
32,192,37984,1,0,0:0:0:0:
352,192,38174,1,0,0:0:0:0:
416,192,38364,1,0,0:0:0:0:
480,192,38364,1,0,0:0:0:0:
224,192,38554,1,0,0:0:0:0:
160,192,38744,1,0,0:0:0:0:
96,192,38744,1,0,0:0:0:0:
352,192,38934,1,0,0:0:0:0:
416,192,39123,1,0,0:0:0:0:
480,192,39123,1,0,0:0:0:0:
224,192,39313,1,0,0:0:0:0:
352,192,39503,1,0,0:0:0:0:
96,192,39503,1,0,0:0:0:0:
288,192,39693,1,0,0:0:0:0:
224,192,39883,1,0,0:0:0:0:
480,192,39883,1,0,0:0:0:0:
288,192,40073,1,0,0:0:0:0:
416,192,40263,1,0,0:0:0:0:
96,192,40263,1,0,0:0:0:0:
288,192,40453,1,0,0:0:0:0:
160,192,40642,1,0,0:0:0:0:
480,192,40642,1,0,0:0:0:0:
224,192,40832,1,0,0:0:0:0:
96,192,41022,1,0,0:0:0:0:
288,192,41022,1,0,0:0:0:0:
224,192,41212,1,0,0:0:0:0:
352,192,41402,1,0,0:0:0:0:
480,192,41402,1,0,0:0:0:0:
288,192,41592,1,0,0:0:0:0:
160,192,41782,1,0,0:0:0:0:
96,192,41782,1,0,0:0:0:0:
288,192,41972,1,0,0:0:0:0:
224,192,42161,1,0,0:0:0:0:
480,192,42161,1,0,0:0:0:0:
352,192,42351,1,0,0:0:0:0:
416,192,42541,1,0,0:0:0:0:
96,192,42541,1,0,0:0:0:0:
352,192,42668,1,0,0:0:0:0:
224,192,42794,1,0,0:0:0:0:
160,192,42921,1,0,0:0:0:0:
480,192,42921,1,0,0:0:0:0:
416,192,43111,1,0,0:0:0:0:
352,192,43301,1,0,0:0:0:0:
96,192,43301,1,0,0:0:0:0:
160,192,43491,1,0,0:0:0:0:
224,192,43680,1,0,0:0:0:0:
480,192,43680,1,0,0:0:0:0:
288,192,43870,1,0,0:0:0:0:
416,192,43870,1,0,0:0:0:0:
352,192,44060,1,0,0:0:0:0:
96,192,44060,1,0,0:0:0:0:
288,192,44250,1,0,0:0:0:0:
224,192,44440,1,0,0:0:0:0:
480,192,44440,1,0,0:0:0:0:
288,192,44630,1,0,0:0:0:0:
352,192,44820,1,0,0:0:0:0:
96,192,44820,1,0,0:0:0:0:
288,192,45010,1,0,0:0:0:0:
416,192,45199,1,0,0:0:0:0:
480,192,45199,1,0,0:0:0:0:
288,192,45389,1,0,0:0:0:0:
160,192,45579,1,0,0:0:0:0:
96,192,45579,1,0,0:0:0:0:
224,192,45769,1,0,0:0:0:0:
288,192,45959,1,0,0:0:0:0:
480,192,45959,1,0,0:0:0:0:
352,192,46149,1,0,0:0:0:0:
416,192,46149,1,0,0:0:0:0:
224,192,46339,1,0,0:0:0:0:
96,192,46339,1,0,0:0:0:0:
352,192,46529,1,0,0:0:0:0:
160,192,46718,1,0,0:0:0:0:
480,192,46718,1,0,0:0:0:0:
288,192,46908,1,0,0:0:0:0:
416,192,47098,1,0,0:0:0:0:
96,192,47098,1,0,0:0:0:0:
288,192,47288,1,0,0:0:0:0:
224,192,47478,1,0,0:0:0:0:
480,192,47478,1,0,0:0:0:0:
352,192,47668,1,0,0:0:0:0:
160,192,47858,1,0,0:0:0:0:
96,192,47858,1,0,0:0:0:0:
288,192,48047,1,0,0:0:0:0:
352,192,48237,1,0,0:0:0:0:
480,192,48237,1,0,0:0:0:0:
224,192,48427,1,0,0:0:0:0:
416,192,48617,1,0,0:0:0:0:
96,192,48617,1,0,0:0:0:0:
288,192,48807,1,0,0:0:0:0:
160,192,48997,1,0,0:0:0:0:
480,192,48997,1,0,0:0:0:0:
224,192,49187,1,0,0:0:0:0:
288,192,49377,1,0,0:0:0:0:
96,192,49377,1,0,0:0:0:0:
32,192,49377,1,0,0:0:0:0:
352,192,49566,1,0,0:0:0:0:
224,192,49756,1,0,0:0:0:0:
480,192,49756,1,0,0:0:0:0:
352,192,49946,1,0,0:0:0:0:
160,192,49946,1,0,0:0:0:0:
96,192,50136,1,0,0:0:0:0:
480,192,50136,1,0,0:0:0:0:
32,192,50136,1,0,0:0:0:0:
416,192,50516,1,0,0:0:0:0:
160,192,50706,1,0,0:0:0:0:
352,192,51085,1,0,0:0:0:0:
224,192,51275,1,0,0:0:0:0:
32,192,52415,1,0,0:0:0:0:
480,192,52415,1,0,0:0:0:0:
96,192,52415,1,0,0:0:0:0:
160,192,52604,1,0,0:0:0:0:
224,192,52794,1,0,0:0:0:0:
288,192,52984,1,0,0:0:0:0:
352,192,53174,1,0,0:0:0:0:
224,192,53364,1,0,0:0:0:0:
480,192,53554,1,0,0:0:0:0:
288,192,53744,1,0,0:0:0:0:
96,192,53933,1,0,0:0:0:0:
416,192,54123,1,0,0:0:0:0:
288,192,54313,1,0,0:0:0:0:
160,192,54503,1,0,0:0:0:0:
224,192,54693,1,0,0:0:0:0:
352,192,54883,1,0,0:0:0:0:
32,192,55073,1,0,0:0:0:0:
288,192,55073,1,0,0:0:0:0:
96,192,55452,1,0,0:0:0:0:
224,192,55642,1,0,0:0:0:0:
352,192,55832,1,0,0:0:0:0:
160,192,56022,1,0,0:0:0:0:
288,192,56212,1,0,0:0:0:0:
416,192,56402,1,0,0:0:0:0:
480,192,56592,1,0,0:0:0:0:
224,192,56782,1,0,0:0:0:0:
160,192,56971,1,0,0:0:0:0:
416,192,57161,1,0,0:0:0:0:
352,192,57351,1,0,0:0:0:0:
96,192,57541,1,0,0:0:0:0:
160,192,57731,1,0,0:0:0:0:
416,192,57921,1,0,0:0:0:0:
288,192,58111,1,0,0:0:0:0:
32,192,58111,1,0,0:0:0:0:
32,192,58490,1,0,0:0:0:0:
480,192,58490,1,0,0:0:0:0:
96,192,58490,1,0,0:0:0:0:
224,192,58680,1,0,0:0:0:0:
416,192,58870,1,0,0:0:0:0:
288,192,59060,1,0,0:0:0:0:
224,192,59250,1,0,0:0:0:0:
352,192,59440,1,0,0:0:0:0:
480,192,59630,1,0,0:0:0:0:
416,192,59820,1,0,0:0:0:0:
288,192,60009,1,0,0:0:0:0:
352,192,60199,1,0,0:0:0:0:
224,192,60389,1,0,0:0:0:0:
416,192,60579,1,0,0:0:0:0:
160,192,60769,1,0,0:0:0:0:
480,192,60959,1,0,0:0:0:0:
96,192,61149,1,0,0:0:0:0:
32,192,61149,1,0,0:0:0:0:
96,192,61528,1,0,0:0:0:0:
160,192,61718,1,0,0:0:0:0:
288,192,61908,1,0,0:0:0:0:
416,192,62098,1,0,0:0:0:0:
480,192,62288,1,0,0:0:0:0:
352,192,62478,1,0,0:0:0:0:
480,192,62668,1,0,0:0:0:0:
224,192,62858,1,0,0:0:0:0:
96,192,63047,1,0,0:0:0:0:
480,192,63237,1,0,0:0:0:0:
416,192,63427,1,0,0:0:0:0:
160,192,63617,1,0,0:0:0:0:
288,192,63807,1,0,0:0:0:0:
96,192,63997,1,0,0:0:0:0:
480,192,64187,1,0,0:0:0:0:
32,192,64187,1,0,0:0:0:0:
352,192,64187,1,0,0:0:0:0:
32,192,64566,1,0,0:0:0:0:
96,192,64566,1,0,0:0:0:0:
480,192,64566,1,0,0:0:0:0:
288,192,64756,1,0,0:0:0:0:
480,192,64946,1,0,0:0:0:0:
96,192,65136,1,0,0:0:0:0:
160,192,65326,1,0,0:0:0:0:
224,192,65516,1,0,0:0:0:0:
480,192,65706,1,0,0:0:0:0:
416,192,65896,1,0,0:0:0:0:
352,192,66085,1,0,0:0:0:0:
96,192,66275,1,0,0:0:0:0:
224,192,66465,1,0,0:0:0:0:
480,192,66655,1,0,0:0:0:0:
416,192,66845,1,0,0:0:0:0:
160,192,67035,1,0,0:0:0:0:
96,192,67225,1,0,0:0:0:0:
480,192,67225,1,0,0:0:0:0:
32,192,67225,1,0,0:0:0:0:
96,192,67604,1,0,0:0:0:0:
480,192,67604,1,0,0:0:0:0:
32,192,67604,1,0,0:0:0:0:
352,192,67794,1,0,0:0:0:0:
224,192,67984,1,0,0:0:0:0:
160,192,68174,1,0,0:0:0:0:
416,192,68364,1,0,0:0:0:0:
288,192,68554,1,0,0:0:0:0:
480,192,68744,1,0,0:0:0:0:
352,192,68933,1,0,0:0:0:0:
96,192,69123,1,0,0:0:0:0:
224,192,69313,1,0,0:0:0:0:
416,192,69503,1,0,0:0:0:0:
160,192,69693,1,0,0:0:0:0:
224,192,69883,1,0,0:0:0:0:
352,192,70073,1,0,0:0:0:0:
480,192,70263,1,0,0:0:0:0:
96,192,70263,1,0,0:0:0:0:
32,192,70263,1,0,0:0:0:0:
32,192,70642,1,0,0:0:0:0:
96,192,70642,1,0,0:0:0:0:
480,192,70642,1,0,0:0:0:0:
352,192,70832,1,0,0:0:0:0:
160,192,71022,1,0,0:0:0:0:
288,192,71212,1,0,0:0:0:0:
416,192,71402,1,0,0:0:0:0:
96,192,71592,1,0,0:0:0:0:
288,192,71782,1,0,0:0:0:0:
480,192,71971,1,0,0:0:0:0:
224,192,72161,1,0,0:0:0:0:
416,192,72351,1,0,0:0:0:0:
160,192,72541,1,0,0:0:0:0:
352,192,72731,1,0,0:0:0:0:
96,192,72921,1,0,0:0:0:0:
288,192,73111,1,0,0:0:0:0:
480,192,73301,1,0,0:0:0:0:
32,192,73301,1,0,0:0:0:0:
96,192,73301,1,0,0:0:0:0:
288,192,73490,1,0,0:0:0:0:
96,192,73680,1,0,0:0:0:0:
32,192,73680,1,0,0:0:0:0:
480,192,73680,1,0,0:0:0:0:
352,192,73870,1,0,0:0:0:0:
224,192,74060,1,0,0:0:0:0:
416,192,74250,1,0,0:0:0:0:
288,192,74440,1,0,0:0:0:0:
160,192,74630,1,0,0:0:0:0:
96,192,74820,1,0,0:0:0:0:
224,192,75009,1,0,0:0:0:0:
352,192,75199,1,0,0:0:0:0:
480,192,75389,1,0,0:0:0:0:
288,192,75579,1,0,0:0:0:0:
416,192,75769,1,0,0:0:0:0:
224,192,75959,1,0,0:0:0:0:
352,192,76149,1,0,0:0:0:0:
160,192,76339,1,0,0:0:0:0:
288,192,76528,1,0,0:0:0:0:
480,192,76718,1,0,0:0:0:0:
96,192,76718,1,0,0:0:0:0:
32,192,76718,1,0,0:0:0:0:
160,192,76908,1,0,0:0:0:0:
480,192,77098,1,0,0:0:0:0:
416,192,77098,1,0,0:0:0:0:
96,192,77288,1,0,0:0:0:0:
32,192,77478,1,0,0:0:0:0:
352,192,77478,1,0,0:0:0:0:
480,192,77478,1,0,0:0:0:0:
96,192,77668,1,0,0:0:0:0:
480,192,77858,1,0,0:0:0:0:
416,192,77858,1,0,0:0:0:0:
160,192,78047,1,0,0:0:0:0:
32,192,78237,1,0,0:0:0:0:
96,192,78237,1,0,0:0:0:0:
352,192,78237,1,0,0:0:0:0:
224,192,78427,1,0,0:0:0:0:
32,192,78617,1,0,0:0:0:0:
416,192,78617,1,0,0:0:0:0:
96,192,78617,1,0,0:0:0:0:
288,192,78807,1,0,0:0:0:0:
32,192,78997,1,0,0:0:0:0:
480,192,78997,1,0,0:0:0:0:
96,192,78997,1,0,0:0:0:0:
352,192,79187,1,0,0:0:0:0:
96,192,79377,1,0,0:0:0:0:
480,192,79377,1,0,0:0:0:0:
224,192,79566,1,0,0:0:0:0:
32,192,79756,1,0,0:0:0:0:
96,192,79756,1,0,0:0:0:0:
480,192,79756,1,0,0:0:0:0:
352,192,79756,128,0,80516:0:0:0:0:
96,192,80136,1,0,0:0:0:0:
224,192,80516,128,0,81275:0:0:0:0:
480,192,80896,1,0,0:0:0:0:
416,192,81275,128,0,81655:0:0:0:0:
288,192,81655,128,0,82035:0:0:0:0:
96,192,81655,1,0,0:0:0:0:
160,192,82035,128,0,82415:0:0:0:0:
352,192,82415,128,0,82794:0:0:0:0:
480,192,82415,1,0,0:0:0:0:
288,192,82794,128,0,83364:0:0:0:0:
96,192,83174,1,0,0:0:0:0:
224,192,83364,128,0,84503:0:0:0:0:
480,192,83933,1,0,0:0:0:0:
160,192,84693,128,0,85073:0:0:0:0:
96,192,84693,1,0,0:0:0:0:
288,192,85073,128,0,85452:0:0:0:0:
352,192,85452,128,0,85832:0:0:0:0:
480,192,85452,1,0,0:0:0:0:
416,192,85832,128,0,86971:0:0:0:0:
96,192,86212,1,0,0:0:0:0:
352,192,86971,128,0,87351:0:0:0:0:
96,192,86971,1,0,0:0:0:0:
288,192,87351,128,0,87731:0:0:0:0:
160,192,87731,128,0,88111:0:0:0:0:
480,192,87731,1,0,0:0:0:0:
352,192,88111,128,0,88490:0:0:0:0:
224,192,88490,128,0,88870:0:0:0:0:
480,192,88490,1,0,0:0:0:0:
416,192,88870,128,0,89440:0:0:0:0:
96,192,89250,1,0,0:0:0:0:
288,192,89440,128,0,90009:0:0:0:0:
160,192,90009,128,0,90389:0:0:0:0:
480,192,90009,1,0,0:0:0:0:
352,192,90389,128,0,90769:0:0:0:0:
32,192,90389,1,0,0:0:0:0:
480,192,90389,1,0,0:0:0:0:
224,192,90769,128,0,91149:0:0:0:0:
96,192,90769,1,0,0:0:0:0:
480,192,91149,1,0,0:0:0:0:
416,192,91149,1,0,0:0:0:0:
288,192,91339,1,0,0:0:0:0:
96,192,91528,1,0,0:0:0:0:
160,192,91528,1,0,0:0:0:0:
288,192,91718,1,0,0:0:0:0:
32,192,91908,1,0,0:0:0:0:
480,192,91908,1,0,0:0:0:0:
96,192,91908,1,0,0:0:0:0:
224,192,92098,1,0,0:0:0:0:
480,192,92288,1,0,0:0:0:0:
288,192,92288,1,0,0:0:0:0:
352,192,92478,1,0,0:0:0:0:
96,192,92668,1,0,0:0:0:0:
224,192,92668,1,0,0:0:0:0:
352,192,92858,1,0,0:0:0:0:
480,192,93047,1,0,0:0:0:0:
288,192,93047,1,0,0:0:0:0:
224,192,93237,1,0,0:0:0:0:
416,192,93427,1,0,0:0:0:0:
96,192,93427,1,0,0:0:0:0:
352,192,93617,1,0,0:0:0:0:
288,192,93807,1,0,0:0:0:0:
480,192,93807,1,0,0:0:0:0:
224,192,93997,1,0,0:0:0:0:
160,192,94187,1,0,0:0:0:0:
96,192,94187,1,0,0:0:0:0:
288,192,94377,1,0,0:0:0:0:
352,192,94566,1,0,0:0:0:0:
480,192,94566,1,0,0:0:0:0:
224,192,94756,1,0,0:0:0:0:
288,192,94946,1,0,0:0:0:0:
96,192,94946,1,0,0:0:0:0:
224,192,95136,1,0,0:0:0:0:
480,192,95326,1,0,0:0:0:0:
160,192,95326,1,0,0:0:0:0:
224,192,95516,1,0,0:0:0:0:
352,192,95516,1,0,0:0:0:0:
96,192,95706,1,0,0:0:0:0:
416,192,95706,1,0,0:0:0:0:
160,192,95896,1,0,0:0:0:0:
480,192,96085,1,0,0:0:0:0:
224,192,96085,1,0,0:0:0:0:
288,192,96275,1,0,0:0:0:0:
96,192,96465,1,0,0:0:0:0:
352,192,96465,1,0,0:0:0:0:
416,192,96655,1,0,0:0:0:0:
160,192,96845,1,0,0:0:0:0:
480,192,96845,1,0,0:0:0:0:
224,192,97035,1,0,0:0:0:0:
288,192,97225,1,0,0:0:0:0:
96,192,97225,1,0,0:0:0:0:
224,192,97415,1,0,0:0:0:0:
352,192,97604,1,0,0:0:0:0:
480,192,97604,1,0,0:0:0:0:
288,192,97794,1,0,0:0:0:0:
416,192,97984,1,0,0:0:0:0:
96,192,97984,1,0,0:0:0:0:
352,192,98174,1,0,0:0:0:0:
480,192,98364,1,0,0:0:0:0:
224,192,98364,1,0,0:0:0:0:
352,192,98554,1,0,0:0:0:0:
96,192,98744,1,0,0:0:0:0:
288,192,98744,1,0,0:0:0:0:
224,192,98933,1,0,0:0:0:0:
352,192,99123,1,0,0:0:0:0:
480,192,99123,1,0,0:0:0:0:
224,192,99313,1,0,0:0:0:0:
288,192,99503,1,0,0:0:0:0:
96,192,99503,1,0,0:0:0:0:
416,192,99693,1,0,0:0:0:0:
160,192,99883,1,0,0:0:0:0:
480,192,99883,1,0,0:0:0:0:
288,192,100073,1,0,0:0:0:0:
352,192,100263,1,0,0:0:0:0:
96,192,100263,1,0,0:0:0:0:
288,192,100452,1,0,0:0:0:0:
224,192,100642,1,0,0:0:0:0:
480,192,100642,1,0,0:0:0:0:
288,192,100832,1,0,0:0:0:0:
416,192,101022,1,0,0:0:0:0:
96,192,101022,1,0,0:0:0:0:
160,192,101212,1,0,0:0:0:0:
480,192,101402,1,0,0:0:0:0:
224,192,101402,1,0,0:0:0:0:
288,192,101592,1,0,0:0:0:0:
416,192,101592,1,0,0:0:0:0:
96,192,101782,1,0,0:0:0:0:
352,192,101782,1,0,0:0:0:0:
224,192,101971,1,0,0:0:0:0:
160,192,102161,1,0,0:0:0:0:
480,192,102161,1,0,0:0:0:0:
288,192,102351,1,0,0:0:0:0:
352,192,102541,1,0,0:0:0:0:
96,192,102541,1,0,0:0:0:0:
288,192,102731,1,0,0:0:0:0:
224,192,102921,1,0,0:0:0:0:
480,192,102921,1,0,0:0:0:0:
352,192,103111,1,0,0:0:0:0:
96,192,103301,1,0,0:0:0:0:
480,192,103301,1,0,0:0:0:0:
288,192,103490,1,0,0:0:0:0:
224,192,103680,1,0,0:0:0:0:
352,192,103680,1,0,0:0:0:0:
160,192,103870,1,0,0:0:0:0:
416,192,103870,1,0,0:0:0:0:
96,192,104060,1,0,0:0:0:0:
480,192,104060,1,0,0:0:0:0:
32,192,104060,1,0,0:0:0:0:
480,192,104440,1,0,0:0:0:0:
160,192,104440,1,0,0:0:0:0:
416,192,104820,1,0,0:0:0:0:
96,192,104820,1,0,0:0:0:0:
160,192,105009,1,0,0:0:0:0:
288,192,105199,1,0,0:0:0:0:
480,192,105199,1,0,0:0:0:0:
352,192,105389,1,0,0:0:0:0:
480,192,105579,1,0,0:0:0:0:
96,192,105579,1,0,0:0:0:0:
224,192,105769,1,0,0:0:0:0:
96,192,105959,1,0,0:0:0:0:
480,192,105959,1,0,0:0:0:0:
352,192,106149,1,0,0:0:0:0:
416,192,106339,1,0,0:0:0:0:
96,192,106339,1,0,0:0:0:0:
224,192,106528,1,0,0:0:0:0:
160,192,106718,1,0,0:0:0:0:
480,192,106718,1,0,0:0:0:0:
352,192,106908,1,0,0:0:0:0:
480,192,107098,1,0,0:0:0:0:
96,192,107098,1,0,0:0:0:0:
288,192,107288,1,0,0:0:0:0:
416,192,107478,1,0,0:0:0:0:
480,192,107478,1,0,0:0:0:0:
224,192,107668,1,0,0:0:0:0:
352,192,107858,1,0,0:0:0:0:
96,192,107858,1,0,0:0:0:0:
160,192,108047,1,0,0:0:0:0:
96,192,108237,1,0,0:0:0:0:
480,192,108237,1,0,0:0:0:0:
288,192,108427,1,0,0:0:0:0:
96,192,108617,1,0,0:0:0:0:
416,192,108617,1,0,0:0:0:0:
224,192,108807,1,0,0:0:0:0:
160,192,108997,1,0,0:0:0:0:
480,192,108997,1,0,0:0:0:0:
288,192,109187,1,0,0:0:0:0:
224,192,109377,1,0,0:0:0:0:
96,192,109377,1,0,0:0:0:0:
352,192,109566,1,0,0:0:0:0:
288,192,109756,1,0,0:0:0:0:
480,192,109756,1,0,0:0:0:0:
416,192,109946,1,0,0:0:0:0:
160,192,110136,1,0,0:0:0:0:
96,192,110136,1,0,0:0:0:0:
288,192,110326,1,0,0:0:0:0:
224,192,110516,1,0,0:0:0:0:
480,192,110516,1,0,0:0:0:0:
352,192,110706,1,0,0:0:0:0:
416,192,110896,1,0,0:0:0:0:
96,192,110896,1,0,0:0:0:0:
288,192,111085,1,0,0:0:0:0:
352,192,111275,1,0,0:0:0:0:
480,192,111275,1,0,0:0:0:0:
224,192,111465,1,0,0:0:0:0:
288,192,111655,1,0,0:0:0:0:
96,192,111655,1,0,0:0:0:0:
96,192,112035,1,0,0:0:0:0:
416,192,112035,1,0,0:0:0:0:
480,192,112415,1,0,0:0:0:0:
352,192,112415,1,0,0:0:0:0:
224,192,112794,1,0,0:0:0:0:
480,192,112794,1,0,0:0:0:0:
96,192,113174,1,0,0:0:0:0:
352,192,113174,1,0,0:0:0:0:
288,192,113554,1,0,0:0:0:0:
480,192,113554,1,0,0:0:0:0:
224,192,113933,1,0,0:0:0:0:
96,192,113933,1,0,0:0:0:0:
160,192,114313,1,0,0:0:0:0:
480,192,114313,1,0,0:0:0:0:
416,192,114503,1,0,0:0:0:0:
96,192,114693,1,0,0:0:0:0:
352,192,114693,1,0,0:0:0:0:
160,192,114883,1,0,0:0:0:0:
224,192,115073,1,0,0:0:0:0:
480,192,115073,1,0,0:0:0:0:
288,192,115263,1,0,0:0:0:0:
352,192,115452,1,0,0:0:0:0:
96,192,115452,1,0,0:0:0:0:
32,192,115452,1,0,0:0:0:0:
224,192,115642,1,0,0:0:0:0:
288,192,115832,1,0,0:0:0:0:
480,192,115832,1,0,0:0:0:0:
352,192,116022,1,0,0:0:0:0:
96,192,116212,1,0,0:0:0:0:
416,192,116212,1,0,0:0:0:0:
288,192,116402,1,0,0:0:0:0:
480,192,116592,1,0,0:0:0:0:
160,192,116592,1,0,0:0:0:0:
352,192,116782,1,0,0:0:0:0:
416,192,116971,1,0,0:0:0:0:
96,192,116971,1,0,0:0:0:0:
288,192,117161,1,0,0:0:0:0:
480,192,117351,1,0,0:0:0:0:
160,192,117351,1,0,0:0:0:0:
352,192,117541,1,0,0:0:0:0:
288,192,117731,1,0,0:0:0:0:
96,192,117731,1,0,0:0:0:0:
160,192,117921,1,0,0:0:0:0:
352,192,118111,1,0,0:0:0:0:
480,192,118111,1,0,0:0:0:0:
224,192,118301,1,0,0:0:0:0:
160,192,118490,1,0,0:0:0:0:
96,192,118490,1,0,0:0:0:0:
288,192,118680,1,0,0:0:0:0:
416,192,118870,1,0,0:0:0:0:
480,192,118870,1,0,0:0:0:0:
288,192,119060,1,0,0:0:0:0:
160,192,119250,1,0,0:0:0:0:
96,192,119250,1,0,0:0:0:0:
416,192,119440,1,0,0:0:0:0:
288,192,119630,1,0,0:0:0:0:
480,192,119630,1,0,0:0:0:0:
352,192,119820,1,0,0:0:0:0:
224,192,120009,1,0,0:0:0:0:
96,192,120009,1,0,0:0:0:0:
288,192,120199,1,0,0:0:0:0:
160,192,120389,1,0,0:0:0:0:
480,192,120389,1,0,0:0:0:0:
416,192,120579,1,0,0:0:0:0:
224,192,120769,1,0,0:0:0:0:
96,192,120769,1,0,0:0:0:0:
352,192,120959,1,0,0:0:0:0:
416,192,121149,1,0,0:0:0:0:
480,192,121149,1,0,0:0:0:0:
288,192,121339,1,0,0:0:0:0:
160,192,121528,1,0,0:0:0:0:
96,192,121528,1,0,0:0:0:0:
224,192,121813,1,0,0:0:0:0:
480,192,121908,1,0,0:0:0:0:
416,192,121908,1,0,0:0:0:0:
288,192,122098,1,0,0:0:0:0:
352,192,122288,1,0,0:0:0:0:
96,192,122288,1,0,0:0:0:0:
288,192,122478,1,0,0:0:0:0:
224,192,122668,1,0,0:0:0:0:
480,192,122668,1,0,0:0:0:0:
288,192,122858,1,0,0:0:0:0:
352,192,122952,1,0,0:0:0:0:
96,192,123047,1,0,0:0:0:0:
416,192,123047,1,0,0:0:0:0:
288,192,123237,1,0,0:0:0:0:
160,192,123427,1,0,0:0:0:0:
480,192,123427,1,0,0:0:0:0:
352,192,123617,1,0,0:0:0:0:
416,192,123807,1,0,0:0:0:0:
96,192,123807,1,0,0:0:0:0:
288,192,124092,1,0,0:0:0:0:
480,192,124187,1,0,0:0:0:0:
160,192,124187,1,0,0:0:0:0:
352,192,124377,1,0,0:0:0:0:
224,192,124566,1,0,0:0:0:0:
96,192,124566,1,0,0:0:0:0:
288,192,124851,1,0,0:0:0:0:
416,192,124946,1,0,0:0:0:0:
480,192,124946,1,0,0:0:0:0:
352,192,125136,1,0,0:0:0:0:
288,192,125326,1,0,0:0:0:0:
96,192,125326,1,0,0:0:0:0:
224,192,125516,1,0,0:0:0:0:
480,192,125706,1,0,0:0:0:0:
160,192,125706,1,0,0:0:0:0:
416,192,125896,1,0,0:0:0:0:
96,192,126085,1,0,0:0:0:0:
352,192,126085,1,0,0:0:0:0:
288,192,126275,1,0,0:0:0:0:
480,192,126465,1,0,0:0:0:0:
224,192,126465,1,0,0:0:0:0:
416,192,126655,1,0,0:0:0:0:
352,192,126845,1,0,0:0:0:0:
96,192,126845,1,0,0:0:0:0:
160,192,127035,1,0,0:0:0:0:
224,192,127225,1,0,0:0:0:0:
480,192,127225,1,0,0:0:0:0:
288,192,127415,1,0,0:0:0:0:
416,192,127604,1,0,0:0:0:0:
480,192,127604,1,0,0:0:0:0:
160,192,127794,1,0,0:0:0:0:
96,192,127794,1,0,0:0:0:0:
480,192,127984,1,0,0:0:0:0:
416,192,127984,1,0,0:0:0:0:
96,192,128174,1,0,0:0:0:0:
160,192,128174,1,0,0:0:0:0:
32,192,128364,1,0,0:0:0:0:
480,192,128364,1,0,0:0:0:0:
96,192,128364,1,0,0:0:0:0:
288,192,128554,1,0,0:0:0:0:
352,192,128744,1,0,0:0:0:0:
160,192,128933,1,0,0:0:0:0:
96,192,129123,1,0,0:0:0:0:
160,192,129313,1,0,0:0:0:0:
224,192,129503,1,0,0:0:0:0:
288,192,129693,1,0,0:0:0:0:
352,192,129883,1,0,0:0:0:0:
224,192,130073,1,0,0:0:0:0:
416,192,130263,1,0,0:0:0:0:
288,192,130452,1,0,0:0:0:0:
480,192,130642,1,0,0:0:0:0:
224,192,130832,1,0,0:0:0:0:
416,192,131022,1,0,0:0:0:0:
160,192,131212,1,0,0:0:0:0:
480,192,131402,1,0,0:0:0:0:
352,192,131592,1,0,0:0:0:0:
224,192,131782,1,0,0:0:0:0:
416,192,131971,1,0,0:0:0:0:
288,192,132161,1,0,0:0:0:0:
160,192,132351,1,0,0:0:0:0:
96,192,132541,1,0,0:0:0:0:
224,192,132731,1,0,0:0:0:0:
288,192,132921,1,0,0:0:0:0:
96,192,133111,1,0,0:0:0:0:
352,192,133301,1,0,0:0:0:0:
160,192,133490,1,0,0:0:0:0:
416,192,133680,1,0,0:0:0:0:
224,192,133870,1,0,0:0:0:0:
480,192,134060,1,0,0:0:0:0:
288,192,134250,1,0,0:0:0:0:
96,192,134440,1,0,0:0:0:0:
160,192,134630,1,0,0:0:0:0:
224,192,134820,1,0,0:0:0:0:
352,192,135009,1,0,0:0:0:0:
480,192,135199,1,0,0:0:0:0:
416,192,135389,1,0,0:0:0:0:
352,192,135579,1,0,0:0:0:0:
224,192,135769,1,0,0:0:0:0:
288,192,135959,1,0,0:0:0:0:
352,192,136149,1,0,0:0:0:0:
416,192,136339,1,0,0:0:0:0:
224,192,136528,1,0,0:0:0:0:
288,192,136718,1,0,0:0:0:0:
352,192,136908,1,0,0:0:0:0:
160,192,137098,1,0,0:0:0:0:
288,192,137288,1,0,0:0:0:0:
480,192,137478,1,0,0:0:0:0:
224,192,137668,1,0,0:0:0:0:
416,192,137858,1,0,0:0:0:0:
160,192,138047,1,0,0:0:0:0:
352,192,138237,1,0,0:0:0:0:
96,192,138427,1,0,0:0:0:0:
160,192,138617,1,0,0:0:0:0:
224,192,138807,1,0,0:0:0:0:
288,192,138997,1,0,0:0:0:0:
32,192,138997,1,0,0:0:0:0:
160,192,139187,1,0,0:0:0:0:
224,192,139377,1,0,0:0:0:0:
288,192,139566,1,0,0:0:0:0:
352,192,139756,1,0,0:0:0:0:
288,192,139946,1,0,0:0:0:0:
352,192,140136,1,0,0:0:0:0:
416,192,140326,1,0,0:0:0:0:
480,192,140516,1,0,0:0:0:0:
352,192,140706,1,0,0:0:0:0:
480,192,140896,1,0,0:0:0:0:
288,192,141085,1,0,0:0:0:0:
480,192,141275,1,0,0:0:0:0:
224,192,141465,1,0,0:0:0:0:
480,192,141655,1,0,0:0:0:0:
160,192,141845,1,0,0:0:0:0:
416,192,142035,1,0,0:0:0:0:
288,192,142225,1,0,0:0:0:0:
416,192,142415,1,0,0:0:0:0:
224,192,142604,1,0,0:0:0:0:
416,192,142794,1,0,0:0:0:0:
160,192,142984,1,0,0:0:0:0:
416,192,143174,1,0,0:0:0:0:
96,192,143364,1,0,0:0:0:0:
352,192,143554,1,0,0:0:0:0:
224,192,143744,1,0,0:0:0:0:
96,192,143933,1,0,0:0:0:0:
288,192,144123,1,0,0:0:0:0:
480,192,144313,1,0,0:0:0:0:
352,192,144503,1,0,0:0:0:0:
96,192,144693,1,0,0:0:0:0:
224,192,144883,1,0,0:0:0:0:
480,192,145073,1,0,0:0:0:0:
288,192,145263,1,0,0:0:0:0:
416,192,145452,1,0,0:0:0:0:
224,192,145642,1,0,0:0:0:0:
352,192,145832,1,0,0:0:0:0:
160,192,146022,1,0,0:0:0:0:
288,192,146212,1,0,0:0:0:0:
96,192,146402,1,0,0:0:0:0:
480,192,146592,1,0,0:0:0:0:
352,192,146782,1,0,0:0:0:0:
96,192,146971,1,0,0:0:0:0:
224,192,147161,1,0,0:0:0:0:
480,192,147351,1,0,0:0:0:0:
352,192,147541,1,0,0:0:0:0:
96,192,147731,1,0,0:0:0:0:
224,192,147921,1,0,0:0:0:0:
352,192,148111,1,0,0:0:0:0:
480,192,148301,1,0,0:0:0:0:
224,192,148490,1,0,0:0:0:0:
96,192,148680,1,0,0:0:0:0:
352,192,148870,1,0,0:0:0:0:
480,192,149060,1,0,0:0:0:0:
224,192,149250,1,0,0:0:0:0:
96,192,149440,1,0,0:0:0:0:
480,192,149630,1,0,0:0:0:0:
288,192,149820,1,0,0:0:0:0:
96,192,150009,1,0,0:0:0:0:
224,192,150199,1,0,0:0:0:0:
416,192,150389,1,0,0:0:0:0:
288,192,150579,1,0,0:0:0:0:
160,192,150769,1,0,0:0:0:0:
224,192,150959,1,0,0:0:0:0:
352,192,151149,1,0,0:0:0:0:
32,192,151149,1,0,0:0:0:0:
288,192,151339,1,0,0:0:0:0:
224,192,151528,1,0,0:0:0:0:
352,192,151718,1,0,0:0:0:0:
288,192,151908,1,0,0:0:0:0:
352,192,152098,128,0,152288:0:0:0:0:
224,192,152288,128,0,152478:0:0:0:0:
416,192,152478,128,0,152668:0:0:0:0:
288,192,152668,128,0,153047:0:0:0:0:
96,192,152668,1,0,0:0:0:0:
32,192,152668,1,0,0:0:0:0:
480,192,152668,1,0,0:0:0:0:
416,192,153047,128,0,153237:0:0:0:0:
224,192,153237,128,0,153807:0:0:0:0:
96,192,153237,1,0,0:0:0:0:
352,192,153807,128,0,154187:0:0:0:0:
480,192,154187,128,0,154566:0:0:0:0:
96,192,154187,1,0,0:0:0:0:
416,192,154566,128,0,154756:0:0:0:0:
288,192,154756,128,0,155326:0:0:0:0:
352,192,155326,128,0,155706:0:0:0:0:
416,192,155516,1,0,0:0:0:0:
480,192,155706,1,0,0:0:0:0:
224,192,155706,128,0,156085:0:0:0:0:
96,192,155706,1,0,0:0:0:0:
288,192,156085,128,0,156275:0:0:0:0:
480,192,156275,1,0,0:0:0:0:
160,192,156275,128,0,156845:0:0:0:0:
352,192,156845,128,0,157225:0:0:0:0:
224,192,157225,128,0,157604:0:0:0:0:
480,192,157225,1,0,0:0:0:0:
96,192,157604,128,0,157984:0:0:0:0:
160,192,157984,128,0,158364:0:0:0:0:
224,192,158364,128,0,158744:0:0:0:0:
288,192,158744,128,0,161782:0:0:0:0:
480,192,158744,1,0,0:0:0:0:
96,192,158744,1,0,0:0:0:0:
96,192,159313,1,0,0:0:0:0:
96,192,160263,1,0,0:0:0:0:
480,192,161402,1,0,0:0:0:0:
352,192,161782,128,0,164250:0:0:0:0:
96,192,161782,1,0,0:0:0:0:
224,192,161782,1,0,0:0:0:0:
96,192,162351,1,0,0:0:0:0:
480,192,163301,1,0,0:0:0:0:
32,192,164060,1,0,0:0:0:0:
96,192,164250,128,0,164440:0:0:0:0:
160,192,164440,128,0,164630:0:0:0:0:
224,192,164630,128,0,164820:0:0:0:0:
288,192,164820,128,0,165199:0:0:0:0:
480,192,164820,1,0,0:0:0:0:
96,192,164820,1,0,0:0:0:0:
32,192,164820,1,0,0:0:0:0:
352,192,165199,128,0,165389:0:0:0:0:
224,192,165389,128,0,165959:0:0:0:0:
480,192,165389,1,0,0:0:0:0:
288,192,165959,128,0,166339:0:0:0:0:
96,192,166339,1,0,0:0:0:0:
416,192,166339,128,0,166718:0:0:0:0:
352,192,166718,128,0,166908:0:0:0:0:
224,192,166908,128,0,167478:0:0:0:0:
288,192,167478,128,0,167858:0:0:0:0:
352,192,167668,1,0,0:0:0:0:
160,192,167858,128,0,168237:0:0:0:0:
480,192,167858,1,0,0:0:0:0:
96,192,167858,1,0,0:0:0:0:
352,192,168237,128,0,168427:0:0:0:0:
224,192,168427,128,0,168997:0:0:0:0:
480,192,168427,1,0,0:0:0:0:
416,192,168997,128,0,169377:0:0:0:0:
352,192,169377,128,0,169756:0:0:0:0:
96,192,169377,1,0,0:0:0:0:
288,192,169756,128,0,170136:0:0:0:0:
160,192,170136,128,0,170516:0:0:0:0:
224,192,170516,128,0,170896:0:0:0:0:
288,192,170896,128,0,173933:0:0:0:0:
32,192,170896,1,0,0:0:0:0:
96,192,170896,1,0,0:0:0:0:
480,192,170896,1,0,0:0:0:0:
96,192,171465,1,0,0:0:0:0:
480,192,172415,1,0,0:0:0:0:
96,192,173554,1,0,0:0:0:0:
416,192,173933,128,0,175452:0:0:0:0:
96,192,173933,1,0,0:0:0:0:
480,192,173933,1,0,0:0:0:0:
96,192,174503,1,0,0:0:0:0:
160,192,175452,128,0,178301:0:0:0:0:
480,192,178396,1,0,0:0:0:0:
96,192,178585,1,0,0:0:0:0:
288,192,178680,1,0,0:0:0:0:
480,192,178775,1,0,0:0:0:0:
96,192,178965,1,0,0:0:0:0:
288,192,179060,1,0,0:0:0:0:
480,192,179155,1,0,0:0:0:0:
32,192,179250,1,0,0:0:0:0:
32,192,179440,1,0,0:0:0:0:
32,192,179630,1,0,0:0:0:0:
224,192,179820,1,0,0:0:0:0:
352,192,179820,1,0,0:0:0:0:
32,192,180009,1,0,0:0:0:0:
96,192,180009,1,0,0:0:0:0:
