osu file format v14

[General]
AudioFilename: The Sacred Story.mp3
AudioLeadIn: 0
PreviewTime: 25073
Countdown: 0
SampleSet: Soft
StackLeniency: 0.7
Mode: 3
LetterboxInBreaks: 0
SpecialStyle: 1
WidescreenStoryboard: 1

[Editor]
Bookmarks: 25832,79756,152668
DistanceSpacing: 1
BeatDivisor: 4
GridSize: 8
TimelineZoom: 1.7

[Metadata]
Title:The Sacred Story
TitleUnicode:The Sacred Story
Artist:VILA
ArtistUnicode:VILA
Creator:Rayz141
Version:Hyper
Source:Cytus
Tags:chapter m million cranky pico rabpit sanctity sacred saika
BeatmapID:732809
BeatmapSetID:330709

[Difficulty]
HPDrainRate:7.5
CircleSize:8
OverallDifficulty:7.5
ApproachRate:5
SliderMultiplier:1.4
SliderTickRate:1

[Events]
//Background and Video events
0,0,"mainbg.png",0,0
//Break Periods
//Storyboard Layer 0 (Background)
//Storyboard Layer 1 (Fail)
//Storyboard Layer 2 (Pass)
//Storyboard Layer 3 (Foreground)
//Storyboard Sound Samples

[TimingPoints]
1529,379.746835443038,4,2,0,100,1,0
25832,-100,4,2,0,100,0,1
37604,-100,4,2,0,100,0,0
37984,-100,4,2,0,100,0,1
50136,-100,4,2,0,100,0,0
52415,379.746835443038,4,2,0,100,1,0
91908,-100,4,2,0,100,0,1
104060,-100,4,2,0,100,0,0
116212,-100,4,2,0,100,0,1
128364,-100,4,2,0,100,0,0
180009,-100,4,2,0,100,0,1
203933,-100,4,2,0,100,0,0
204313,-100,4,2,0,100,0,1
216465,-100,4,2,0,100,0,0

[HitObjects]
96,192,1529,5,0,0:0:0:0:
480,192,1529,1,0,0:0:0:0:
352,192,1529,1,0,0:0:0:0:
32,192,1529,1,0,0:0:0:0:
224,192,1718,1,0,0:0:0:0:
480,192,1908,1,0,0:0:0:0:
416,192,1908,1,0,0:0:0:0:
96,192,2098,1,0,0:0:0:0:
480,192,2098,1,0,0:0:0:0:
288,192,2098,1,0,0:0:0:0:
32,192,2098,1,0,0:0:0:0:
96,192,2288,1,0,0:0:0:0:
160,192,2288,1,0,0:0:0:0:
288,192,2478,1,0,0:0:0:0:
32,192,2478,1,0,0:0:0:0:
480,192,2668,1,0,0:0:0:0:
416,192,2668,1,0,0:0:0:0:
288,192,2858,1,0,0:0:0:0:
96,192,3047,1,0,0:0:0:0:
160,192,3047,1,0,0:0:0:0:
32,192,3047,1,0,0:0:0:0:
224,192,3237,1,0,0:0:0:0:
480,192,3427,1,0,0:0:0:0:
288,192,3427,1,0,0:0:0:0:
416,192,3617,1,0,0:0:0:0:
96,192,3712,1,0,0:0:0:0:
160,192,3712,1,0,0:0:0:0:
224,192,3807,1,0,0:0:0:0:
352,192,3902,1,0,0:0:0:0:
288,192,3997,1,0,0:0:0:0:
96,192,3997,1,0,0:0:0:0:
480,192,4187,1,0,0:0:0:0:
416,192,4187,1,0,0:0:0:0:
352,192,4377,1,0,0:0:0:0:
96,192,4566,1,0,0:0:0:0:
288,192,4566,1,0,0:0:0:0:
480,192,4566,1,0,0:0:0:0:
32,192,4566,1,0,0:0:0:0:
224,192,4756,1,0,0:0:0:0:
352,192,4946,1,0,0:0:0:0:
480,192,4946,1,0,0:0:0:0:
32,192,5136,1,0,0:0:0:0:
288,192,5136,1,0,0:0:0:0:
96,192,5231,1,0,0:0:0:0:
160,192,5231,1,0,0:0:0:0:
416,192,5326,1,0,0:0:0:0:
32,192,5516,1,0,0:0:0:0:
224,192,5516,1,0,0:0:0:0:
96,192,5516,1,0,0:0:0:0:
352,192,5706,1,0,0:0:0:0:
480,192,5706,1,0,0:0:0:0:
224,192,5896,1,0,0:0:0:0:
288,192,6085,1,0,0:0:0:0:
96,192,6085,1,0,0:0:0:0:
32,192,6085,1,0,0:0:0:0:
160,192,6275,1,0,0:0:0:0:
480,192,6465,1,0,0:0:0:0:
416,192,6465,1,0,0:0:0:0:
288,192,6655,1,0,0:0:0:0:
96,192,6750,1,0,0:0:0:0:
224,192,6750,1,0,0:0:0:0:
352,192,6845,1,0,0:0:0:0:
160,192,7035,1,0,0:0:0:0:
96,192,7035,1,0,0:0:0:0:
480,192,7225,1,0,0:0:0:0:
416,192,7225,1,0,0:0:0:0:
352,192,7415,1,0,0:0:0:0:
288,192,7510,1,0,0:0:0:0:
224,192,7604,1,0,0:0:0:0:
96,192,7604,1,0,0:0:0:0:
480,192,7604,1,0,0:0:0:0:
32,192,7604,1,0,0:0:0:0:
288,192,7794,1,0,0:0:0:0:
416,192,7984,1,0,0:0:0:0:
480,192,7984,1,0,0:0:0:0:
352,192,8174,1,0,0:0:0:0:
480,192,8174,1,0,0:0:0:0:
96,192,8174,1,0,0:0:0:0:
32,192,8174,1,0,0:0:0:0:
96,192,8364,1,0,0:0:0:0:
160,192,8364,1,0,0:0:0:0:
32,192,8554,1,0,0:0:0:0:
288,192,8554,1,0,0:0:0:0:
480,192,8744,1,0,0:0:0:0:
416,192,8744,1,0,0:0:0:0:
288,192,8934,1,0,0:0:0:0:
96,192,9123,1,0,0:0:0:0:
352,192,9123,1,0,0:0:0:0:
32,192,9123,1,0,0:0:0:0:
288,192,9313,1,0,0:0:0:0:
480,192,9503,1,0,0:0:0:0:
224,192,9503,1,0,0:0:0:0:
416,192,9693,1,0,0:0:0:0:
160,192,9788,1,0,0:0:0:0:
96,192,9788,1,0,0:0:0:0:
288,192,9883,1,0,0:0:0:0:
352,192,9978,1,0,0:0:0:0:
224,192,10073,1,0,0:0:0:0:
96,192,10073,1,0,0:0:0:0:
288,192,10263,1,0,0:0:0:0:
480,192,10263,1,0,0:0:0:0:
96,192,10263,1,0,0:0:0:0:
416,192,10453,1,0,0:0:0:0:
352,192,10547,1,0,0:0:0:0:
96,192,10642,1,0,0:0:0:0:
288,192,10642,1,0,0:0:0:0:
480,192,10642,1,0,0:0:0:0:
32,192,10642,1,0,0:0:0:0:
224,192,10832,1,0,0:0:0:0:
352,192,11022,1,0,0:0:0:0:
480,192,11022,1,0,0:0:0:0:
288,192,11212,1,0,0:0:0:0:
32,192,11212,1,0,0:0:0:0:
224,192,11402,1,0,0:0:0:0:
96,192,11402,1,0,0:0:0:0:
352,192,11592,1,0,0:0:0:0:
32,192,11592,1,0,0:0:0:0:
480,192,11782,1,0,0:0:0:0:
288,192,11782,1,0,0:0:0:0:
352,192,11972,1,0,0:0:0:0:
416,192,12066,1,0,0:0:0:0:
96,192,12161,1,0,0:0:0:0:
160,192,12161,1,0,0:0:0:0:
32,192,12161,1,0,0:0:0:0:
224,192,12351,1,0,0:0:0:0:
480,192,12541,1,0,0:0:0:0:
288,192,12541,1,0,0:0:0:0:
96,192,12731,1,0,0:0:0:0:
160,192,12731,1,0,0:0:0:0:
32,192,12921,1,0,0:0:0:0:
32,192,13111,1,0,0:0:0:0:
32,192,13301,1,0,0:0:0:0:
32,192,13396,1,0,0:0:0:0:
224,192,13491,1,0,0:0:0:0:
352,192,13491,1,0,0:0:0:0:
32,192,13585,1,0,0:0:0:0:
32,192,13680,1,0,0:0:0:0:
96,192,13680,1,0,0:0:0:0:
288,192,13680,1,0,0:0:0:0:
480,192,13680,1,0,0:0:0:0:
416,192,13870,1,0,0:0:0:0:
288,192,13965,1,0,0:0:0:0:
224,192,14060,1,0,0:0:0:0:
480,192,14060,1,0,0:0:0:0:
32,192,14250,1,0,0:0:0:0:
416,192,14250,1,0,0:0:0:0:
288,192,14345,1,0,0:0:0:0:
96,192,14440,1,0,0:0:0:0:
352,192,14440,1,0,0:0:0:0:
32,192,14630,1,0,0:0:0:0:
416,192,14630,1,0,0:0:0:0:
288,192,14725,1,0,0:0:0:0:
224,192,14820,1,0,0:0:0:0:
480,192,14820,1,0,0:0:0:0:
416,192,15010,1,0,0:0:0:0:
288,192,15104,1,0,0:0:0:0:
352,192,15199,1,0,0:0:0:0:
96,192,15199,1,0,0:0:0:0:
32,192,15199,1,0,0:0:0:0:
160,192,15389,1,0,0:0:0:0:
288,192,15484,1,0,0:0:0:0:
224,192,15579,1,0,0:0:0:0:
480,192,15579,1,0,0:0:0:0:
160,192,15769,1,0,0:0:0:0:
288,192,15864,1,0,0:0:0:0:
96,192,15959,1,0,0:0:0:0:
352,192,15959,1,0,0:0:0:0:
160,192,16149,1,0,0:0:0:0:
288,192,16244,1,0,0:0:0:0:
224,192,16339,1,0,0:0:0:0:
480,192,16339,1,0,0:0:0:0:
160,192,16529,1,0,0:0:0:0:
288,192,16623,1,0,0:0:0:0:
96,192,16718,1,0,0:0:0:0:
224,192,16718,1,0,0:0:0:0:
480,192,16718,1,0,0:0:0:0:
32,192,16718,1,0,0:0:0:0:
288,192,16908,1,0,0:0:0:0:
160,192,17003,1,0,0:0:0:0:
352,192,17098,1,0,0:0:0:0:
480,192,17098,1,0,0:0:0:0:
32,192,17288,1,0,0:0:0:0:
288,192,17288,1,0,0:0:0:0:
416,192,17383,1,0,0:0:0:0:
224,192,17478,1,0,0:0:0:0:
96,192,17478,1,0,0:0:0:0:
288,192,17668,1,0,0:0:0:0:
32,192,17668,1,0,0:0:0:0:
160,192,17763,1,0,0:0:0:0:
352,192,17858,1,0,0:0:0:0:
480,192,17858,1,0,0:0:0:0:
288,192,18047,1,0,0:0:0:0:
416,192,18142,1,0,0:0:0:0:
96,192,18237,1,0,0:0:0:0:
224,192,18237,1,0,0:0:0:0:
32,192,18237,1,0,0:0:0:0:
160,192,18427,1,0,0:0:0:0:
288,192,18522,1,0,0:0:0:0:
352,192,18617,1,0,0:0:0:0:
480,192,18617,1,0,0:0:0:0:
416,192,18807,1,0,0:0:0:0:
288,192,18902,1,0,0:0:0:0:
224,192,18997,1,0,0:0:0:0:
96,192,18997,1,0,0:0:0:0:
160,192,19187,1,0,0:0:0:0:
288,192,19282,1,0,0:0:0:0:
352,192,19377,1,0,0:0:0:0:
480,192,19377,1,0,0:0:0:0:
416,192,19566,1,0,0:0:0:0:
288,192,19661,1,0,0:0:0:0:
160,192,19756,1,0,0:0:0:0:
96,192,19756,1,0,0:0:0:0:
480,192,19756,1,0,0:0:0:0:
32,192,19756,1,0,0:0:0:0:
288,192,19946,1,0,0:0:0:0:
352,192,20041,1,0,0:0:0:0:
416,192,20136,1,0,0:0:0:0:
480,192,20136,1,0,0:0:0:0:
288,192,20326,1,0,0:0:0:0:
32,192,20326,1,0,0:0:0:0:
352,192,20421,1,0,0:0:0:0:
160,192,20516,1,0,0:0:0:0:
96,192,20516,1,0,0:0:0:0:
288,192,20706,1,0,0:0:0:0:
32,192,20706,1,0,0:0:0:0:
352,192,20801,1,0,0:0:0:0:
416,192,20896,1,0,0:0:0:0:
480,192,20896,1,0,0:0:0:0:
288,192,21085,1,0,0:0:0:0:
480,192,21085,1,0,0:0:0:0:
352,192,21180,1,0,0:0:0:0:
160,192,21275,1,0,0:0:0:0:
96,192,21275,1,0,0:0:0:0:
32,192,21275,1,0,0:0:0:0:
288,192,21465,1,0,0:0:0:0:
224,192,21560,1,0,0:0:0:0:
416,192,21655,1,0,0:0:0:0:
480,192,21655,1,0,0:0:0:0:
288,192,21845,1,0,0:0:0:0:
224,192,21940,1,0,0:0:0:0:
160,192,22035,1,0,0:0:0:0:
96,192,22035,1,0,0:0:0:0:
288,192,22225,1,0,0:0:0:0:
224,192,22320,1,0,0:0:0:0:
480,192,22415,1,0,0:0:0:0:
416,192,22415,1,0,0:0:0:0:
288,192,22604,1,0,0:0:0:0:
224,192,22699,1,0,0:0:0:0:
416,192,22699,1,0,0:0:0:0:
480,192,22794,1,0,0:0:0:0:
96,192,22794,1,0,0:0:0:0:
160,192,22794,1,0,0:0:0:0:
32,192,22794,1,0,0:0:0:0:
224,192,22889,1,0,0:0:0:0:
288,192,22984,1,0,0:0:0:0:
352,192,23079,1,0,0:0:0:0:
480,192,23174,1,0,0:0:0:0:
416,192,23174,1,0,0:0:0:0:
288,192,23364,1,0,0:0:0:0:
352,192,23459,1,0,0:0:0:0:
416,192,23554,1,0,0:0:0:0:
480,192,23554,1,0,0:0:0:0:
96,192,23554,1,0,0:0:0:0:
32,192,23554,1,0,0:0:0:0:
352,192,23649,1,0,0:0:0:0:
288,192,23744,1,0,0:0:0:0:
224,192,23839,1,0,0:0:0:0:
160,192,23934,1,0,0:0:0:0:
96,192,23934,1,0,0:0:0:0:
352,192,24123,1,0,0:0:0:0:
288,192,24218,1,0,0:0:0:0:
96,192,24313,1,0,0:0:0:0:
224,192,24313,1,0,0:0:0:0:
96,192,24503,1,0,0:0:0:0:
224,192,24503,1,0,0:0:0:0:
352,192,24693,1,0,0:0:0:0:
480,192,24693,1,0,0:0:0:0:
480,192,24883,1,0,0:0:0:0:
352,192,24883,1,0,0:0:0:0:
96,192,25073,1,0,0:0:0:0:
32,192,25073,1,0,0:0:0:0:
224,192,25073,1,0,0:0:0:0:
480,192,25073,1,0,0:0:0:0:
96,192,25263,1,0,0:0:0:0:
224,192,25263,1,0,0:0:0:0:
32,192,25453,1,0,0:0:0:0:
352,192,25453,1,0,0:0:0:0:
480,192,25453,1,0,0:0:0:0:
96,192,25453,1,0,0:0:0:0:
352,192,25642,1,0,0:0:0:0:
480,192,25642,1,0,0:0:0:0:
96,192,25832,1,0,0:0:0:0:
480,192,25832,1,0,0:0:0:0:
32,192,25832,1,0,0:0:0:0:
288,192,25832,1,0,0:0:0:0:
160,192,25927,1,0,0:0:0:0:
224,192,26022,1,0,0:0:0:0:
288,192,26117,1,0,0:0:0:0:
480,192,26212,1,0,0:0:0:0:
352,192,26212,1,0,0:0:0:0:
416,192,26402,1,0,0:0:0:0:
288,192,26497,1,0,0:0:0:0:
96,192,26592,1,0,0:0:0:0:
224,192,26592,1,0,0:0:0:0:
160,192,26782,1,0,0:0:0:0:
288,192,26877,1,0,0:0:0:0:
480,192,26972,1,0,0:0:0:0:
352,192,26972,1,0,0:0:0:0:
288,192,27161,1,0,0:0:0:0:
352,192,27256,1,0,0:0:0:0:
96,192,27351,1,0,0:0:0:0:
416,192,27351,1,0,0:0:0:0:
224,192,27541,1,0,0:0:0:0:
288,192,27636,1,0,0:0:0:0:
352,192,27731,1,0,0:0:0:0:
480,192,27731,1,0,0:0:0:0:
416,192,27921,1,0,0:0:0:0:
288,192,28016,1,0,0:0:0:0:
96,192,28111,1,0,0:0:0:0:
160,192,28111,1,0,0:0:0:0:
352,192,28301,1,0,0:0:0:0:
416,192,28396,1,0,0:0:0:0:
224,192,28491,1,0,0:0:0:0:
480,192,28491,1,0,0:0:0:0:
416,192,28680,1,0,0:0:0:0:
352,192,28775,1,0,0:0:0:0:
96,192,28870,1,0,0:0:0:0:
288,192,28870,1,0,0:0:0:0:
160,192,28965,1,0,0:0:0:0:
224,192,29060,1,0,0:0:0:0:
480,192,29250,1,0,0:0:0:0:
416,192,29250,1,0,0:0:0:0:
288,192,29440,1,0,0:0:0:0:
224,192,29535,1,0,0:0:0:0:
96,192,29630,1,0,0:0:0:0:
160,192,29630,1,0,0:0:0:0:
288,192,29820,1,0,0:0:0:0:
352,192,29915,1,0,0:0:0:0:
480,192,30010,1,0,0:0:0:0:
416,192,30010,1,0,0:0:0:0:
160,192,30199,1,0,0:0:0:0:
288,192,30294,1,0,0:0:0:0:
96,192,30389,1,0,0:0:0:0:
416,192,30389,1,0,0:0:0:0:
352,192,30516,1,0,0:0:0:0:
224,192,30642,1,0,0:0:0:0:
480,192,30769,1,0,0:0:0:0:
160,192,30769,1,0,0:0:0:0:
288,192,30959,1,0,0:0:0:0:
224,192,31054,1,0,0:0:0:0:
96,192,31149,1,0,0:0:0:0:
352,192,31149,1,0,0:0:0:0:
416,192,31339,1,0,0:0:0:0:
288,192,31434,1,0,0:0:0:0:
480,192,31529,1,0,0:0:0:0:
224,192,31529,1,0,0:0:0:0:
160,192,31718,1,0,0:0:0:0:
288,192,31718,1,0,0:0:0:0:
352,192,31908,1,0,0:0:0:0:
96,192,31908,1,0,0:0:0:0:
416,192,32098,1,0,0:0:0:0:
288,192,32193,1,0,0:0:0:0:
224,192,32288,1,0,0:0:0:0:
480,192,32288,1,0,0:0:0:0:
160,192,32478,1,0,0:0:0:0:
288,192,32573,1,0,0:0:0:0:
96,192,32668,1,0,0:0:0:0:
352,192,32668,1,0,0:0:0:0:
288,192,32858,1,0,0:0:0:0:
352,192,32953,1,0,0:0:0:0:
480,192,33047,1,0,0:0:0:0:
416,192,33047,1,0,0:0:0:0:
288,192,33237,1,0,0:0:0:0:
224,192,33332,1,0,0:0:0:0:
96,192,33427,1,0,0:0:0:0:
160,192,33427,1,0,0:0:0:0:
352,192,33617,1,0,0:0:0:0:
416,192,33712,1,0,0:0:0:0:
224,192,33807,1,0,0:0:0:0:
480,192,33807,1,0,0:0:0:0:
416,192,33997,1,0,0:0:0:0:
288,192,33997,1,0,0:0:0:0:
96,192,34187,1,0,0:0:0:0:
352,192,34187,1,0,0:0:0:0:
160,192,34377,1,0,0:0:0:0:
224,192,34472,1,0,0:0:0:0:
480,192,34566,1,0,0:0:0:0:
288,192,34566,1,0,0:0:0:0:
352,192,34756,1,0,0:0:0:0:
160,192,34756,1,0,0:0:0:0:
416,192,34946,1,0,0:0:0:0:
96,192,34946,1,0,0:0:0:0:
224,192,35073,1,0,0:0:0:0:
352,192,35199,1,0,0:0:0:0:
160,192,35326,1,0,0:0:0:0:
480,192,35326,1,0,0:0:0:0:
224,192,35453,1,0,0:0:0:0:
288,192,35579,1,0,0:0:0:0:
352,192,35706,1,0,0:0:0:0:
96,192,35706,1,0,0:0:0:0:
416,192,35832,1,0,0:0:0:0:
160,192,35959,1,0,0:0:0:0:
224,192,36085,1,0,0:0:0:0:
480,192,36085,1,0,0:0:0:0:
288,192,36212,1,0,0:0:0:0:
416,192,36339,1,0,0:0:0:0:
160,192,36465,1,0,0:0:0:0:
96,192,36465,1,0,0:0:0:0:
352,192,36592,1,0,0:0:0:0:
224,192,36718,1,0,0:0:0:0:
416,192,36845,1,0,0:0:0:0:
480,192,36845,1,0,0:0:0:0:
352,192,36972,1,0,0:0:0:0:
288,192,37098,1,0,0:0:0:0:
224,192,37225,1,0,0:0:0:0:
96,192,37225,1,0,0:0:0:0:
416,192,37351,1,0,0:0:0:0:
160,192,37478,1,0,0:0:0:0:
352,192,37604,1,0,0:0:0:0:
480,192,37604,1,0,0:0:0:0:
224,192,37731,1,0,0:0:0:0:
288,192,37858,1,0,0:0:0:0:
480,192,37984,1,0,0:0:0:0:
96,192,37984,1,0,0:0:0:0:
32,192,37984,1,0,0:0:0:0:
224,192,38079,1,0,0:0:0:0:
288,192,38174,1,0,0:0:0:0:
352,192,38269,1,0,0:0:0:0:
480,192,38364,1,0,0:0:0:0:
416,192,38364,1,0,0:0:0:0:
288,192,38554,1,0,0:0:0:0:
224,192,38649,1,0,0:0:0:0:
96,192,38744,1,0,0:0:0:0:
160,192,38744,1,0,0:0:0:0:
352,192,38934,1,0,0:0:0:0:
416,192,39029,1,0,0:0:0:0:
480,192,39123,1,0,0:0:0:0:
224,192,39123,1,0,0:0:0:0:
160,192,39313,1,0,0:0:0:0:
288,192,39408,1,0,0:0:0:0:
96,192,39503,1,0,0:0:0:0:
352,192,39503,1,0,0:0:0:0:
416,192,39693,1,0,0:0:0:0:
288,192,39788,1,0,0:0:0:0:
480,192,39883,1,0,0:0:0:0:
160,192,39883,1,0,0:0:0:0:
224,192,40073,1,0,0:0:0:0:
352,192,40168,1,0,0:0:0:0:
96,192,40263,1,0,0:0:0:0:
416,192,40263,1,0,0:0:0:0:
288,192,40453,1,0,0:0:0:0:
416,192,40547,1,0,0:0:0:0:
480,192,40642,1,0,0:0:0:0:
224,192,40642,1,0,0:0:0:0:
288,192,40832,1,0,0:0:0:0:
352,192,40927,1,0,0:0:0:0:
96,192,41022,1,0,0:0:0:0:
416,192,41022,1,0,0:0:0:0:
160,192,41117,1,0,0:0:0:0:
224,192,41212,1,0,0:0:0:0:
480,192,41402,1,0,0:0:0:0:
352,192,41402,1,0,0:0:0:0:
416,192,41592,1,0,0:0:0:0:
288,192,41687,1,0,0:0:0:0:
96,192,41782,1,0,0:0:0:0:
224,192,41782,1,0,0:0:0:0:
352,192,41972,1,0,0:0:0:0:
416,192,42066,1,0,0:0:0:0:
480,192,42161,1,0,0:0:0:0:
160,192,42161,1,0,0:0:0:0:
288,192,42351,1,0,0:0:0:0:
352,192,42446,1,0,0:0:0:0:
96,192,42541,1,0,0:0:0:0:
416,192,42541,1,0,0:0:0:0:
352,192,42668,1,0,0:0:0:0:
224,192,42794,1,0,0:0:0:0:
480,192,42921,1,0,0:0:0:0:
160,192,42921,1,0,0:0:0:0:
288,192,43111,1,0,0:0:0:0:
224,192,43206,1,0,0:0:0:0:
96,192,43301,1,0,0:0:0:0:
352,192,43301,1,0,0:0:0:0:
416,192,43491,1,0,0:0:0:0:
288,192,43585,1,0,0:0:0:0:
480,192,43680,1,0,0:0:0:0:
224,192,43680,1,0,0:0:0:0:
288,192,43870,1,0,0:0:0:0:
160,192,43870,1,0,0:0:0:0:
96,192,44060,1,0,0:0:0:0:
352,192,44060,1,0,0:0:0:0:
416,192,44250,1,0,0:0:0:0:
288,192,44345,1,0,0:0:0:0:
224,192,44440,1,0,0:0:0:0:
480,192,44440,1,0,0:0:0:0:
160,192,44630,1,0,0:0:0:0:
288,192,44725,1,0,0:0:0:0:
352,192,44820,1,0,0:0:0:0:
96,192,44820,1,0,0:0:0:0:
160,192,45010,1,0,0:0:0:0:
288,192,45104,1,0,0:0:0:0:
480,192,45199,1,0,0:0:0:0:
416,192,45199,1,0,0:0:0:0:
416,192,45389,1,0,0:0:0:0:
288,192,45484,1,0,0:0:0:0:
160,192,45579,1,0,0:0:0:0:
96,192,45579,1,0,0:0:0:0:
224,192,45769,1,0,0:0:0:0:
288,192,45864,1,0,0:0:0:0:
480,192,45959,1,0,0:0:0:0:
352,192,45959,1,0,0:0:0:0:
288,192,46149,1,0,0:0:0:0:
416,192,46149,1,0,0:0:0:0:
96,192,46339,1,0,0:0:0:0:
224,192,46339,1,0,0:0:0:0:
352,192,46529,1,0,0:0:0:0:
416,192,46623,1,0,0:0:0:0:
480,192,46718,1,0,0:0:0:0:
160,192,46718,1,0,0:0:0:0:
416,192,46908,1,0,0:0:0:0:
224,192,46908,1,0,0:0:0:0:
96,192,47098,1,0,0:0:0:0:
480,192,47098,1,0,0:0:0:0:
416,192,47193,1,0,0:0:0:0:
288,192,47288,1,0,0:0:0:0:
160,192,47383,1,0,0:0:0:0:
480,192,47478,1,0,0:0:0:0:
96,192,47478,1,0,0:0:0:0:
352,192,47573,1,0,0:0:0:0:
288,192,47668,1,0,0:0:0:0:
224,192,47763,1,0,0:0:0:0:
96,192,47858,1,0,0:0:0:0:
480,192,47858,1,0,0:0:0:0:
416,192,47953,1,0,0:0:0:0:
288,192,48047,1,0,0:0:0:0:
160,192,48142,1,0,0:0:0:0:
480,192,48237,1,0,0:0:0:0:
96,192,48237,1,0,0:0:0:0:
352,192,48332,1,0,0:0:0:0:
288,192,48427,1,0,0:0:0:0:
224,192,48522,1,0,0:0:0:0:
96,192,48617,1,0,0:0:0:0:
352,192,48617,1,0,0:0:0:0:
416,192,48712,1,0,0:0:0:0:
288,192,48807,1,0,0:0:0:0:
160,192,48902,1,0,0:0:0:0:
480,192,48997,1,0,0:0:0:0:
224,192,48997,1,0,0:0:0:0:
416,192,49092,1,0,0:0:0:0:
288,192,49187,1,0,0:0:0:0:
160,192,49282,1,0,0:0:0:0:
96,192,49377,1,0,0:0:0:0:
416,192,49377,1,0,0:0:0:0:
32,192,49377,1,0,0:0:0:0:
352,192,49472,1,0,0:0:0:0:
288,192,49566,1,0,0:0:0:0:
224,192,49661,1,0,0:0:0:0:
480,192,49756,1,0,0:0:0:0:
160,192,49756,1,0,0:0:0:0:
224,192,49946,1,0,0:0:0:0:
352,192,49946,1,0,0:0:0:0:
32,192,50136,1,0,0:0:0:0:
96,192,50136,1,0,0:0:0:0:
480,192,50136,1,0,0:0:0:0:
480,192,50516,1,0,0:0:0:0:
416,192,50516,1,0,0:0:0:0:
160,192,50706,1,0,0:0:0:0:
96,192,50706,1,0,0:0:0:0:
352,192,51085,1,0,0:0:0:0:
480,192,51085,1,0,0:0:0:0:
96,192,51275,1,0,0:0:0:0:
224,192,51275,1,0,0:0:0:0:
32,192,52415,1,0,0:0:0:0:
96,192,52415,1,0,0:0:0:0:
480,192,52415,1,0,0:0:0:0:
224,192,52415,1,0,0:0:0:0:
288,192,52604,1,0,0:0:0:0:
416,192,52699,1,0,0:0:0:0:
480,192,52794,1,0,0:0:0:0:
352,192,52889,1,0,0:0:0:0:
288,192,52984,1,0,0:0:0:0:
160,192,53079,1,0,0:0:0:0:
96,192,53174,1,0,0:0:0:0:
160,192,53269,1,0,0:0:0:0:
224,192,53364,1,0,0:0:0:0:
288,192,53459,1,0,0:0:0:0:
480,192,53554,1,0,0:0:0:0:
416,192,53649,1,0,0:0:0:0:
352,192,53744,1,0,0:0:0:0:
288,192,53839,1,0,0:0:0:0:
96,192,53933,1,0,0:0:0:0:
352,192,54028,1,0,0:0:0:0:
288,192,54123,1,0,0:0:0:0:
160,192,54218,1,0,0:0:0:0:
480,192,54313,1,0,0:0:0:0:
224,192,54408,1,0,0:0:0:0:
288,192,54503,1,0,0:0:0:0:
416,192,54598,1,0,0:0:0:0:
96,192,54693,1,0,0:0:0:0:
160,192,54788,1,0,0:0:0:0:
288,192,54883,1,0,0:0:0:0:
32,192,55073,1,0,0:0:0:0:
480,192,55073,1,0,0:0:0:0:
96,192,55073,1,0,0:0:0:0:
416,192,55263,1,0,0:0:0:0:
288,192,55358,1,0,0:0:0:0:
96,192,55452,1,0,0:0:0:0:
416,192,55547,1,0,0:0:0:0:
288,192,55642,1,0,0:0:0:0:
160,192,55737,1,0,0:0:0:0:
480,192,55832,1,0,0:0:0:0:
160,192,55927,1,0,0:0:0:0:
288,192,56022,1,0,0:0:0:0:
416,192,56117,1,0,0:0:0:0:
96,192,56212,1,0,0:0:0:0:
416,192,56307,1,0,0:0:0:0:
288,192,56402,1,0,0:0:0:0:
160,192,56497,1,0,0:0:0:0:
480,192,56592,1,0,0:0:0:0:
416,192,56687,1,0,0:0:0:0:
288,192,56782,1,0,0:0:0:0:
160,192,56877,1,0,0:0:0:0:
96,192,56971,1,0,0:0:0:0:
416,192,57066,1,0,0:0:0:0:
352,192,57161,1,0,0:0:0:0:
288,192,57256,1,0,0:0:0:0:
480,192,57351,1,0,0:0:0:0:
352,192,57446,1,0,0:0:0:0:
288,192,57541,1,0,0:0:0:0:
224,192,57636,1,0,0:0:0:0:
96,192,57731,1,0,0:0:0:0:
160,192,57826,1,0,0:0:0:0:
224,192,57921,1,0,0:0:0:0:
32,192,58111,1,0,0:0:0:0:
480,192,58111,1,0,0:0:0:0:
96,192,58111,1,0,0:0:0:0:
224,192,58301,1,0,0:0:0:0:
288,192,58396,1,0,0:0:0:0:
32,192,58490,1,0,0:0:0:0:
96,192,58490,1,0,0:0:0:0:
480,192,58490,1,0,0:0:0:0:
352,192,58490,1,0,0:0:0:0:
224,192,58680,1,0,0:0:0:0:
160,192,58775,1,0,0:0:0:0:
480,192,58870,1,0,0:0:0:0:
288,192,58965,1,0,0:0:0:0:
352,192,59060,1,0,0:0:0:0:
416,192,59155,1,0,0:0:0:0:
96,192,59250,1,0,0:0:0:0:
288,192,59345,1,0,0:0:0:0:
224,192,59440,1,0,0:0:0:0:
160,192,59535,1,0,0:0:0:0:
480,192,59630,1,0,0:0:0:0:
352,192,59725,1,0,0:0:0:0:
288,192,59820,1,0,0:0:0:0:
224,192,59915,1,0,0:0:0:0:
96,192,60009,1,0,0:0:0:0:
416,192,60104,1,0,0:0:0:0:
288,192,60199,1,0,0:0:0:0:
160,192,60294,1,0,0:0:0:0:
480,192,60389,1,0,0:0:0:0:
224,192,60484,1,0,0:0:0:0:
288,192,60579,1,0,0:0:0:0:
352,192,60674,1,0,0:0:0:0:
96,192,60769,1,0,0:0:0:0:
416,192,60864,1,0,0:0:0:0:
288,192,60959,1,0,0:0:0:0:
160,192,61054,1,0,0:0:0:0:
32,192,61149,1,0,0:0:0:0:
96,192,61149,1,0,0:0:0:0:
480,192,61149,1,0,0:0:0:0:
352,192,61339,1,0,0:0:0:0:
224,192,61433,1,0,0:0:0:0:
96,192,61528,1,0,0:0:0:0:
352,192,61718,1,0,0:0:0:0:
416,192,61813,1,0,0:0:0:0:
480,192,61908,1,0,0:0:0:0:
224,192,62003,1,0,0:0:0:0:
288,192,62098,1,0,0:0:0:0:
352,192,62193,1,0,0:0:0:0:
96,192,62288,1,0,0:0:0:0:
160,192,62383,1,0,0:0:0:0:
224,192,62478,1,0,0:0:0:0:
352,192,62573,1,0,0:0:0:0:
480,192,62668,1,0,0:0:0:0:
416,192,62763,1,0,0:0:0:0:
288,192,62858,1,0,0:0:0:0:
160,192,62952,1,0,0:0:0:0:
96,192,63047,1,0,0:0:0:0:
224,192,63142,1,0,0:0:0:0:
288,192,63237,1,0,0:0:0:0:
352,192,63332,1,0,0:0:0:0:
480,192,63427,1,0,0:0:0:0:
352,192,63522,1,0,0:0:0:0:
288,192,63617,1,0,0:0:0:0:
224,192,63712,1,0,0:0:0:0:
96,192,63807,1,0,0:0:0:0:
288,192,63902,1,0,0:0:0:0:
224,192,63997,1,0,0:0:0:0:
352,192,64092,1,0,0:0:0:0:
96,192,64187,1,0,0:0:0:0:
480,192,64187,1,0,0:0:0:0:
32,192,64187,1,0,0:0:0:0:
352,192,64377,1,0,0:0:0:0:
224,192,64471,1,0,0:0:0:0:
32,192,64566,1,0,0:0:0:0:
96,192,64566,1,0,0:0:0:0:
480,192,64566,1,0,0:0:0:0:
416,192,64566,1,0,0:0:0:0:
224,192,64756,1,0,0:0:0:0:
352,192,64851,1,0,0:0:0:0:
480,192,64946,1,0,0:0:0:0:
416,192,65041,1,0,0:0:0:0:
288,192,65136,1,0,0:0:0:0:
160,192,65231,1,0,0:0:0:0:
96,192,65326,1,0,0:0:0:0:
160,192,65421,1,0,0:0:0:0:
224,192,65516,1,0,0:0:0:0:
288,192,65611,1,0,0:0:0:0:
480,192,65706,1,0,0:0:0:0:
416,192,65801,1,0,0:0:0:0:
352,192,65896,1,0,0:0:0:0:
288,192,65990,1,0,0:0:0:0:
96,192,66085,1,0,0:0:0:0:
160,192,66180,1,0,0:0:0:0:
224,192,66275,1,0,0:0:0:0:
288,192,66370,1,0,0:0:0:0:
480,192,66465,1,0,0:0:0:0:
416,192,66560,1,0,0:0:0:0:
352,192,66655,1,0,0:0:0:0:
288,192,66750,1,0,0:0:0:0:
96,192,66845,1,0,0:0:0:0:
160,192,66940,1,0,0:0:0:0:
224,192,67035,1,0,0:0:0:0:
352,192,67130,1,0,0:0:0:0:
96,192,67225,1,0,0:0:0:0:
32,192,67225,1,0,0:0:0:0:
480,192,67225,1,0,0:0:0:0:
224,192,67415,1,0,0:0:0:0:
352,192,67509,1,0,0:0:0:0:
32,192,67604,1,0,0:0:0:0:
96,192,67604,1,0,0:0:0:0:
480,192,67604,1,0,0:0:0:0:
416,192,67604,1,0,0:0:0:0:
224,192,67794,1,0,0:0:0:0:
352,192,67889,1,0,0:0:0:0:
480,192,67984,1,0,0:0:0:0:
416,192,68079,1,0,0:0:0:0:
288,192,68174,1,0,0:0:0:0:
160,192,68269,1,0,0:0:0:0:
96,192,68364,1,0,0:0:0:0:
224,192,68459,1,0,0:0:0:0:
288,192,68554,1,0,0:0:0:0:
352,192,68649,1,0,0:0:0:0:
480,192,68744,1,0,0:0:0:0:
416,192,68839,1,0,0:0:0:0:
288,192,68933,1,0,0:0:0:0:
160,192,69028,1,0,0:0:0:0:
96,192,69123,1,0,0:0:0:0:
288,192,69218,1,0,0:0:0:0:
224,192,69313,1,0,0:0:0:0:
160,192,69408,1,0,0:0:0:0:
480,192,69503,1,0,0:0:0:0:
352,192,69598,1,0,0:0:0:0:
288,192,69693,1,0,0:0:0:0:
224,192,69788,1,0,0:0:0:0:
96,192,69883,1,0,0:0:0:0:
416,192,69978,1,0,0:0:0:0:
352,192,70073,1,0,0:0:0:0:
288,192,70168,1,0,0:0:0:0:
96,192,70263,1,0,0:0:0:0:
32,192,70263,1,0,0:0:0:0:
480,192,70263,1,0,0:0:0:0:
352,192,70452,1,0,0:0:0:0:
224,192,70547,1,0,0:0:0:0:
96,192,70642,1,0,0:0:0:0:
32,192,70642,1,0,0:0:0:0:
480,192,70642,1,0,0:0:0:0:
416,192,70642,1,0,0:0:0:0:
224,192,70832,1,0,0:0:0:0:
352,192,70927,1,0,0:0:0:0:
480,192,71022,1,0,0:0:0:0:
416,192,71117,1,0,0:0:0:0:
288,192,71212,1,0,0:0:0:0:
224,192,71307,1,0,0:0:0:0:
96,192,71402,1,0,0:0:0:0:
160,192,71497,1,0,0:0:0:0:
288,192,71592,1,0,0:0:0:0:
416,192,71687,1,0,0:0:0:0:
480,192,71782,1,0,0:0:0:0:
416,192,71877,1,0,0:0:0:0:
288,192,71971,1,0,0:0:0:0:
160,192,72066,1,0,0:0:0:0:
96,192,72161,1,0,0:0:0:0:
416,192,72256,1,0,0:0:0:0:
288,192,72351,1,0,0:0:0:0:
160,192,72446,1,0,0:0:0:0:
480,192,72541,1,0,0:0:0:0:
352,192,72636,1,0,0:0:0:0:
224,192,72731,1,0,0:0:0:0:
288,192,72826,1,0,0:0:0:0:
96,192,72921,1,0,0:0:0:0:
224,192,73016,1,0,0:0:0:0:
416,192,73111,1,0,0:0:0:0:
288,192,73206,1,0,0:0:0:0:
480,192,73301,1,0,0:0:0:0:
32,192,73301,1,0,0:0:0:0:
96,192,73301,1,0,0:0:0:0:
352,192,73396,1,0,0:0:0:0:
160,192,73490,1,0,0:0:0:0:
288,192,73585,1,0,0:0:0:0:
96,192,73680,1,0,0:0:0:0:
32,192,73680,1,0,0:0:0:0:
480,192,73680,1,0,0:0:0:0:
416,192,73775,1,0,0:0:0:0:
352,192,73870,1,0,0:0:0:0:
288,192,73965,1,0,0:0:0:0:
480,192,74060,1,0,0:0:0:0:
352,192,74155,1,0,0:0:0:0:
288,192,74250,1,0,0:0:0:0:
224,192,74345,1,0,0:0:0:0:
96,192,74440,1,0,0:0:0:0:
352,192,74535,1,0,0:0:0:0:
288,192,74630,1,0,0:0:0:0:
160,192,74725,1,0,0:0:0:0:
480,192,74820,1,0,0:0:0:0:
224,192,74915,1,0,0:0:0:0:
288,192,75009,1,0,0:0:0:0:
416,192,75104,1,0,0:0:0:0:
96,192,75199,1,0,0:0:0:0:
160,192,75294,1,0,0:0:0:0:
288,192,75389,1,0,0:0:0:0:
352,192,75484,1,0,0:0:0:0:
480,192,75579,1,0,0:0:0:0:
160,192,75674,1,0,0:0:0:0:
288,192,75769,1,0,0:0:0:0:
416,192,75864,1,0,0:0:0:0:
96,192,75959,1,0,0:0:0:0:
160,192,76054,1,0,0:0:0:0:
288,192,76149,1,0,0:0:0:0:
352,192,76244,1,0,0:0:0:0:
480,192,76339,1,0,0:0:0:0:
160,192,76433,1,0,0:0:0:0:
288,192,76528,1,0,0:0:0:0:
416,192,76623,1,0,0:0:0:0:
96,192,76718,1,0,0:0:0:0:
480,192,76718,1,0,0:0:0:0:
32,192,76718,1,0,0:0:0:0:
352,192,76813,1,0,0:0:0:0:
288,192,76908,1,0,0:0:0:0:
224,192,77003,1,0,0:0:0:0:
96,192,77098,1,0,0:0:0:0:
480,192,77098,1,0,0:0:0:0:
480,192,77288,1,0,0:0:0:0:
352,192,77383,1,0,0:0:0:0:
96,192,77478,1,0,0:0:0:0:
32,192,77478,1,0,0:0:0:0:
224,192,77478,1,0,0:0:0:0:
416,192,77668,1,0,0:0:0:0:
288,192,77763,1,0,0:0:0:0:
96,192,77858,1,0,0:0:0:0:
160,192,77858,1,0,0:0:0:0:
224,192,78047,1,0,0:0:0:0:
288,192,78142,1,0,0:0:0:0:
352,192,78237,1,0,0:0:0:0:
96,192,78237,1,0,0:0:0:0:
32,192,78237,1,0,0:0:0:0:
288,192,78427,1,0,0:0:0:0:
352,192,78522,1,0,0:0:0:0:
416,192,78617,1,0,0:0:0:0:
96,192,78617,1,0,0:0:0:0:
32,192,78617,1,0,0:0:0:0:
352,192,78807,1,0,0:0:0:0:
416,192,78902,1,0,0:0:0:0:
480,192,78997,1,0,0:0:0:0:
96,192,78997,1,0,0:0:0:0:
32,192,78997,1,0,0:0:0:0:
416,192,79092,1,0,0:0:0:0:
288,192,79187,1,0,0:0:0:0:
160,192,79282,1,0,0:0:0:0:
96,192,79377,1,0,0:0:0:0:
480,192,79377,1,0,0:0:0:0:
352,192,79471,1,0,0:0:0:0:
288,192,79566,1,0,0:0:0:0:
224,192,79661,1,0,0:0:0:0:
96,192,79756,1,0,0:0:0:0:
32,192,79756,1,0,0:0:0:0:
480,192,79756,1,0,0:0:0:0:
160,192,79756,128,0,80516:0:0:0:0:
96,192,80136,1,0,0:0:0:0:
480,192,80136,1,0,0:0:0:0:
96,192,80516,1,0,0:0:0:0:
416,192,80516,128,0,81275:0:0:0:0:
96,192,80896,1,0,0:0:0:0:
480,192,80896,1,0,0:0:0:0:
480,192,81275,1,0,0:0:0:0:
288,192,81275,128,0,81655:0:0:0:0:
480,192,81655,1,0,0:0:0:0:
96,192,81655,1,0,0:0:0:0:
224,192,81655,128,0,82035:0:0:0:0:
480,192,82035,1,0,0:0:0:0:
160,192,82035,128,0,82415:0:0:0:0:
480,192,82415,1,0,0:0:0:0:
96,192,82415,1,0,0:0:0:0:
352,192,82415,128,0,82794:0:0:0:0:
96,192,82794,1,0,0:0:0:0:
288,192,82794,128,0,83364:0:0:0:0:
96,192,83174,1,0,0:0:0:0:
416,192,83174,1,0,0:0:0:0:
224,192,83364,128,0,84503:0:0:0:0:
96,192,83554,1,0,0:0:0:0:
416,192,83933,1,0,0:0:0:0:
96,192,83933,1,0,0:0:0:0:
480,192,84313,1,0,0:0:0:0:
480,192,84693,1,0,0:0:0:0:
160,192,84693,1,0,0:0:0:0:
224,192,84693,128,0,85073:0:0:0:0:
480,192,85073,1,0,0:0:0:0:
288,192,85073,128,0,85452:0:0:0:0:
480,192,85452,1,0,0:0:0:0:
160,192,85452,1,0,0:0:0:0:
352,192,85452,128,0,85832:0:0:0:0:
96,192,85832,1,0,0:0:0:0:
416,192,85832,128,0,86971:0:0:0:0:
96,192,86212,1,0,0:0:0:0:
352,192,86212,1,0,0:0:0:0:
96,192,86592,1,0,0:0:0:0:
96,192,86971,1,0,0:0:0:0:
352,192,86971,1,0,0:0:0:0:
160,192,86971,128,0,87351:0:0:0:0:
480,192,87351,1,0,0:0:0:0:
288,192,87351,128,0,87731:0:0:0:0:
480,192,87731,1,0,0:0:0:0:
224,192,87731,1,0,0:0:0:0:
160,192,87731,128,0,88111:0:0:0:0:
480,192,88111,1,0,0:0:0:0:
352,192,88111,128,0,88490:0:0:0:0:
480,192,88490,1,0,0:0:0:0:
224,192,88490,1,0,0:0:0:0:
160,192,88490,128,0,88870:0:0:0:0:
416,192,88870,128,0,89440:0:0:0:0:
96,192,88870,1,0,0:0:0:0:
96,192,89250,1,0,0:0:0:0:
352,192,89250,1,0,0:0:0:0:
288,192,89440,128,0,90009:0:0:0:0:
96,192,89630,1,0,0:0:0:0:
160,192,90009,128,0,90389:0:0:0:0:
96,192,90009,1,0,0:0:0:0:
352,192,90009,1,0,0:0:0:0:
352,192,90389,128,0,90769:0:0:0:0:
96,192,90389,1,0,0:0:0:0:
480,192,90389,1,0,0:0:0:0:
32,192,90389,1,0,0:0:0:0:
224,192,90769,128,0,91149:0:0:0:0:
480,192,90769,1,0,0:0:0:0:
96,192,90769,1,0,0:0:0:0:
96,192,91149,1,0,0:0:0:0:
480,192,91149,1,0,0:0:0:0:
288,192,91244,1,0,0:0:0:0:
352,192,91339,1,0,0:0:0:0:
416,192,91433,1,0,0:0:0:0:
96,192,91528,1,0,0:0:0:0:
480,192,91528,1,0,0:0:0:0:
160,192,91623,1,0,0:0:0:0:
224,192,91718,1,0,0:0:0:0:
288,192,91813,1,0,0:0:0:0:
96,192,91908,1,0,0:0:0:0:
480,192,91908,1,0,0:0:0:0:
352,192,91908,1,0,0:0:0:0:
32,192,91908,1,0,0:0:0:0:
160,192,92098,1,0,0:0:0:0:
480,192,92288,1,0,0:0:0:0:
224,192,92288,1,0,0:0:0:0:
416,192,92478,1,0,0:0:0:0:
96,192,92668,1,0,0:0:0:0:
352,192,92668,1,0,0:0:0:0:
224,192,92668,1,0,0:0:0:0:
160,192,92858,1,0,0:0:0:0:
224,192,93047,1,0,0:0:0:0:
480,192,93047,1,0,0:0:0:0:
416,192,93237,1,0,0:0:0:0:
96,192,93427,1,0,0:0:0:0:
480,192,93427,1,0,0:0:0:0:
352,192,93427,1,0,0:0:0:0:
288,192,93617,1,0,0:0:0:0:
480,192,93807,1,0,0:0:0:0:
224,192,93807,1,0,0:0:0:0:
96,192,93807,1,0,0:0:0:0:
352,192,93997,1,0,0:0:0:0:
480,192,94187,1,0,0:0:0:0:
96,192,94187,1,0,0:0:0:0:
160,192,94187,1,0,0:0:0:0:
288,192,94377,1,0,0:0:0:0:
96,192,94566,1,0,0:0:0:0:
416,192,94566,1,0,0:0:0:0:
480,192,94566,1,0,0:0:0:0:
224,192,94756,1,0,0:0:0:0:
96,192,94946,1,0,0:0:0:0:
480,192,94946,1,0,0:0:0:0:
352,192,94946,1,0,0:0:0:0:
288,192,95136,1,0,0:0:0:0:
160,192,95326,1,0,0:0:0:0:
96,192,95326,1,0,0:0:0:0:
224,192,95516,1,0,0:0:0:0:
352,192,95516,1,0,0:0:0:0:
480,192,95706,1,0,0:0:0:0:
96,192,95706,1,0,0:0:0:0:
160,192,95896,1,0,0:0:0:0:
224,192,96085,1,0,0:0:0:0:
480,192,96085,1,0,0:0:0:0:
288,192,96275,1,0,0:0:0:0:
96,192,96465,1,0,0:0:0:0:
480,192,96465,1,0,0:0:0:0:
160,192,96465,1,0,0:0:0:0:
352,192,96655,1,0,0:0:0:0:
224,192,96845,1,0,0:0:0:0:
96,192,96845,1,0,0:0:0:0:
416,192,96845,1,0,0:0:0:0:
352,192,97035,1,0,0:0:0:0:
96,192,97225,1,0,0:0:0:0:
288,192,97225,1,0,0:0:0:0:
480,192,97225,1,0,0:0:0:0:
224,192,97415,1,0,0:0:0:0:
352,192,97604,1,0,0:0:0:0:
480,192,97604,1,0,0:0:0:0:
160,192,97604,1,0,0:0:0:0:
224,192,97794,1,0,0:0:0:0:
96,192,97984,1,0,0:0:0:0:
480,192,97984,1,0,0:0:0:0:
416,192,97984,1,0,0:0:0:0:
288,192,98174,1,0,0:0:0:0:
160,192,98364,1,0,0:0:0:0:
96,192,98364,1,0,0:0:0:0:
288,192,98554,1,0,0:0:0:0:
224,192,98744,1,0,0:0:0:0:
480,192,98744,1,0,0:0:0:0:
96,192,98744,1,0,0:0:0:0:
352,192,98933,1,0,0:0:0:0:
288,192,99123,1,0,0:0:0:0:
480,192,99123,1,0,0:0:0:0:
416,192,99123,1,0,0:0:0:0:
160,192,99313,1,0,0:0:0:0:
96,192,99503,1,0,0:0:0:0:
480,192,99503,1,0,0:0:0:0:
416,192,99503,1,0,0:0:0:0:
288,192,99693,1,0,0:0:0:0:
160,192,99883,1,0,0:0:0:0:
480,192,99883,1,0,0:0:0:0:
352,192,99883,1,0,0:0:0:0:
224,192,100073,1,0,0:0:0:0:
352,192,100263,1,0,0:0:0:0:
96,192,100263,1,0,0:0:0:0:
160,192,100263,1,0,0:0:0:0:
288,192,100452,1,0,0:0:0:0:
224,192,100642,1,0,0:0:0:0:
96,192,100642,1,0,0:0:0:0:
416,192,100642,1,0,0:0:0:0:
352,192,100832,1,0,0:0:0:0:
96,192,101022,1,0,0:0:0:0:
480,192,101022,1,0,0:0:0:0:
288,192,101022,1,0,0:0:0:0:
224,192,101212,1,0,0:0:0:0:
480,192,101402,1,0,0:0:0:0:
352,192,101402,1,0,0:0:0:0:
416,192,101592,1,0,0:0:0:0:
288,192,101592,1,0,0:0:0:0:
96,192,101782,1,0,0:0:0:0:
224,192,101782,1,0,0:0:0:0:
352,192,101971,1,0,0:0:0:0:
160,192,102161,1,0,0:0:0:0:
96,192,102161,1,0,0:0:0:0:
288,192,102161,1,0,0:0:0:0:
416,192,102351,1,0,0:0:0:0:
96,192,102541,1,0,0:0:0:0:
480,192,102541,1,0,0:0:0:0:
352,192,102541,1,0,0:0:0:0:
288,192,102731,1,0,0:0:0:0:
480,192,102921,1,0,0:0:0:0:
224,192,102921,1,0,0:0:0:0:
96,192,102921,1,0,0:0:0:0:
352,192,103111,1,0,0:0:0:0:
96,192,103301,1,0,0:0:0:0:
480,192,103301,1,0,0:0:0:0:
224,192,103490,1,0,0:0:0:0:
352,192,103490,1,0,0:0:0:0:
96,192,103680,1,0,0:0:0:0:
160,192,103680,1,0,0:0:0:0:
416,192,103775,1,0,0:0:0:0:
480,192,103775,1,0,0:0:0:0:
160,192,103870,1,0,0:0:0:0:
224,192,103870,1,0,0:0:0:0:
352,192,103965,1,0,0:0:0:0:
416,192,103965,1,0,0:0:0:0:
480,192,104060,1,0,0:0:0:0:
288,192,104060,1,0,0:0:0:0:
96,192,104060,1,0,0:0:0:0:
32,192,104060,1,0,0:0:0:0:
160,192,104250,1,0,0:0:0:0:
224,192,104345,1,0,0:0:0:0:
480,192,104440,1,0,0:0:0:0:
288,192,104440,1,0,0:0:0:0:
416,192,104630,1,0,0:0:0:0:
352,192,104725,1,0,0:0:0:0:
96,192,104820,1,0,0:0:0:0:
288,192,104820,1,0,0:0:0:0:
224,192,104915,1,0,0:0:0:0:
288,192,105009,1,0,0:0:0:0:
352,192,105104,1,0,0:0:0:0:
480,192,105199,1,0,0:0:0:0:
416,192,105199,1,0,0:0:0:0:
160,192,105294,1,0,0:0:0:0:
224,192,105389,1,0,0:0:0:0:
288,192,105484,1,0,0:0:0:0:
96,192,105579,1,0,0:0:0:0:
352,192,105579,1,0,0:0:0:0:
288,192,105674,1,0,0:0:0:0:
224,192,105769,1,0,0:0:0:0:
160,192,105864,1,0,0:0:0:0:
480,192,105959,1,0,0:0:0:0:
416,192,105959,1,0,0:0:0:0:
288,192,106054,1,0,0:0:0:0:
224,192,106149,1,0,0:0:0:0:
160,192,106244,1,0,0:0:0:0:
96,192,106339,1,0,0:0:0:0:
352,192,106339,1,0,0:0:0:0:
160,192,106433,1,0,0:0:0:0:
224,192,106528,1,0,0:0:0:0:
288,192,106623,1,0,0:0:0:0:
480,192,106718,1,0,0:0:0:0:
416,192,106718,1,0,0:0:0:0:
160,192,106908,1,0,0:0:0:0:
288,192,107003,1,0,0:0:0:0:
96,192,107098,1,0,0:0:0:0:
416,192,107098,1,0,0:0:0:0:
352,192,107288,1,0,0:0:0:0:
96,192,107478,1,0,0:0:0:0:
288,192,107478,1,0,0:0:0:0:
224,192,107668,1,0,0:0:0:0:
480,192,107858,1,0,0:0:0:0:
160,192,107858,1,0,0:0:0:0:
352,192,108047,1,0,0:0:0:0:
480,192,108237,1,0,0:0:0:0:
224,192,108237,1,0,0:0:0:0:
416,192,108427,1,0,0:0:0:0:
96,192,108617,1,0,0:0:0:0:
288,192,108617,1,0,0:0:0:0:
160,192,108712,1,0,0:0:0:0:
224,192,108807,1,0,0:0:0:0:
288,192,108902,1,0,0:0:0:0:
480,192,108997,1,0,0:0:0:0:
416,192,108997,1,0,0:0:0:0:
352,192,109092,1,0,0:0:0:0:
288,192,109187,1,0,0:0:0:0:
224,192,109282,1,0,0:0:0:0:
96,192,109377,1,0,0:0:0:0:
160,192,109377,1,0,0:0:0:0:
288,192,109471,1,0,0:0:0:0:
352,192,109566,1,0,0:0:0:0:
416,192,109661,1,0,0:0:0:0:
480,192,109756,1,0,0:0:0:0:
288,192,109756,1,0,0:0:0:0:
224,192,109851,1,0,0:0:0:0:
160,192,109946,1,0,0:0:0:0:
416,192,110041,1,0,0:0:0:0:
96,192,110136,1,0,0:0:0:0:
288,192,110136,1,0,0:0:0:0:
160,192,110231,1,0,0:0:0:0:
224,192,110326,1,0,0:0:0:0:
288,192,110421,1,0,0:0:0:0:
96,192,110516,1,0,0:0:0:0:
352,192,110516,1,0,0:0:0:0:
224,192,110611,1,0,0:0:0:0:
288,192,110706,1,0,0:0:0:0:
352,192,110801,1,0,0:0:0:0:
480,192,110896,1,0,0:0:0:0:
416,192,110896,1,0,0:0:0:0:
352,192,110990,1,0,0:0:0:0:
288,192,111085,1,0,0:0:0:0:
224,192,111180,1,0,0:0:0:0:
480,192,111275,1,0,0:0:0:0:
160,192,111275,1,0,0:0:0:0:
288,192,111370,1,0,0:0:0:0:
352,192,111465,1,0,0:0:0:0:
416,192,111560,1,0,0:0:0:0:
224,192,111655,1,0,0:0:0:0:
96,192,111655,1,0,0:0:0:0:
96,192,112035,1,0,0:0:0:0:
416,192,112035,1,0,0:0:0:0:
480,192,112415,1,0,0:0:0:0:
160,192,112415,1,0,0:0:0:0:
224,192,112604,1,0,0:0:0:0:
480,192,112794,1,0,0:0:0:0:
352,192,112794,1,0,0:0:0:0:
160,192,112984,1,0,0:0:0:0:
96,192,113174,1,0,0:0:0:0:
416,192,113174,1,0,0:0:0:0:
480,192,113554,1,0,0:0:0:0:
160,192,113554,1,0,0:0:0:0:
96,192,113933,1,0,0:0:0:0:
224,192,113933,1,0,0:0:0:0:
480,192,114313,1,0,0:0:0:0:
352,192,114313,1,0,0:0:0:0:
224,192,114503,1,0,0:0:0:0:
416,192,114503,1,0,0:0:0:0:
160,192,114598,1,0,0:0:0:0:
96,192,114693,1,0,0:0:0:0:
480,192,114693,1,0,0:0:0:0:
160,192,114883,1,0,0:0:0:0:
352,192,114883,1,0,0:0:0:0:
416,192,114978,1,0,0:0:0:0:
480,192,115073,1,0,0:0:0:0:
224,192,115073,1,0,0:0:0:0:
288,192,115263,1,0,0:0:0:0:
160,192,115263,1,0,0:0:0:0:
352,192,115358,1,0,0:0:0:0:
96,192,115452,1,0,0:0:0:0:
416,192,115452,1,0,0:0:0:0:
32,192,115452,1,0,0:0:0:0:
288,192,115642,1,0,0:0:0:0:
352,192,115642,1,0,0:0:0:0:
224,192,115737,1,0,0:0:0:0:
480,192,115832,1,0,0:0:0:0:
160,192,115832,1,0,0:0:0:0:
288,192,116022,1,0,0:0:0:0:
224,192,116022,1,0,0:0:0:0:
352,192,116117,1,0,0:0:0:0:
96,192,116212,1,0,0:0:0:0:
32,192,116212,1,0,0:0:0:0:
416,192,116212,1,0,0:0:0:0:
288,192,116307,1,0,0:0:0:0:
224,192,116402,1,0,0:0:0:0:
160,192,116497,1,0,0:0:0:0:
96,192,116592,1,0,0:0:0:0:
480,192,116592,1,0,0:0:0:0:
352,192,116687,1,0,0:0:0:0:
288,192,116782,1,0,0:0:0:0:
224,192,116877,1,0,0:0:0:0:
96,192,116971,1,0,0:0:0:0:
416,192,116971,1,0,0:0:0:0:
288,192,117066,1,0,0:0:0:0:
224,192,117161,1,0,0:0:0:0:
160,192,117256,1,0,0:0:0:0:
96,192,117351,1,0,0:0:0:0:
480,192,117351,1,0,0:0:0:0:
352,192,117446,1,0,0:0:0:0:
288,192,117541,1,0,0:0:0:0:
224,192,117636,1,0,0:0:0:0:
480,192,117731,1,0,0:0:0:0:
96,192,117731,1,0,0:0:0:0:
160,192,117826,1,0,0:0:0:0:
416,192,117921,1,0,0:0:0:0:
288,192,118016,1,0,0:0:0:0:
480,192,118111,1,0,0:0:0:0:
96,192,118111,1,0,0:0:0:0:
352,192,118206,1,0,0:0:0:0:
288,192,118301,1,0,0:0:0:0:
224,192,118396,1,0,0:0:0:0:
96,192,118490,1,0,0:0:0:0:
160,192,118490,1,0,0:0:0:0:
288,192,118585,1,0,0:0:0:0:
352,192,118680,1,0,0:0:0:0:
224,192,118775,1,0,0:0:0:0:
416,192,118870,1,0,0:0:0:0:
480,192,118870,1,0,0:0:0:0:
288,192,118965,1,0,0:0:0:0:
224,192,119060,1,0,0:0:0:0:
352,192,119155,1,0,0:0:0:0:
96,192,119250,1,0,0:0:0:0:
160,192,119250,1,0,0:0:0:0:
352,192,119440,1,0,0:0:0:0:
416,192,119535,1,0,0:0:0:0:
480,192,119630,1,0,0:0:0:0:
96,192,119630,1,0,0:0:0:0:
352,192,119820,1,0,0:0:0:0:
288,192,119915,1,0,0:0:0:0:
224,192,120009,1,0,0:0:0:0:
96,192,120009,1,0,0:0:0:0:
288,192,120199,1,0,0:0:0:0:
352,192,120294,1,0,0:0:0:0:
416,192,120389,1,0,0:0:0:0:
96,192,120389,1,0,0:0:0:0:
352,192,120579,1,0,0:0:0:0:
288,192,120769,1,0,0:0:0:0:
480,192,120769,1,0,0:0:0:0:
224,192,120864,1,0,0:0:0:0:
160,192,120959,1,0,0:0:0:0:
96,192,121054,1,0,0:0:0:0:
160,192,121149,1,0,0:0:0:0:
480,192,121149,1,0,0:0:0:0:
224,192,121244,1,0,0:0:0:0:
288,192,121339,1,0,0:0:0:0:
352,192,121433,1,0,0:0:0:0:
224,192,121528,1,0,0:0:0:0:
96,192,121528,1,0,0:0:0:0:
288,192,121813,1,0,0:0:0:0:
96,192,121908,1,0,0:0:0:0:
480,192,121908,1,0,0:0:0:0:
352,192,122098,1,0,0:0:0:0:
416,192,122288,1,0,0:0:0:0:
96,192,122288,1,0,0:0:0:0:
96,192,122668,1,0,0:0:0:0:
224,192,122668,1,0,0:0:0:0:
480,192,122810,1,0,0:0:0:0:
416,192,122905,1,0,0:0:0:0:
352,192,122952,1,0,0:0:0:0:
288,192,123047,1,0,0:0:0:0:
96,192,123047,1,0,0:0:0:0:
160,192,123237,1,0,0:0:0:0:
224,192,123427,1,0,0:0:0:0:
480,192,123427,1,0,0:0:0:0:
288,192,123617,1,0,0:0:0:0:
416,192,123807,1,0,0:0:0:0:
96,192,123807,1,0,0:0:0:0:
352,192,124092,1,0,0:0:0:0:
480,192,124187,1,0,0:0:0:0:
224,192,124187,1,0,0:0:0:0:
416,192,124377,1,0,0:0:0:0:
352,192,124471,1,0,0:0:0:0:
96,192,124566,1,0,0:0:0:0:
288,192,124566,1,0,0:0:0:0:
416,192,124614,1,0,0:0:0:0:
288,192,124851,1,0,0:0:0:0:
480,192,124946,1,0,0:0:0:0:
416,192,124946,1,0,0:0:0:0:
160,192,125136,1,0,0:0:0:0:
96,192,125326,1,0,0:0:0:0:
224,192,125326,1,0,0:0:0:0:
288,192,125516,1,0,0:0:0:0:
96,192,125706,1,0,0:0:0:0:
352,192,125706,1,0,0:0:0:0:
224,192,125896,1,0,0:0:0:0:
480,192,126085,1,0,0:0:0:0:
416,192,126085,1,0,0:0:0:0:
288,192,126275,1,0,0:0:0:0:
160,192,126465,1,0,0:0:0:0:
480,192,126465,1,0,0:0:0:0:
224,192,126560,1,0,0:0:0:0:
288,192,126655,1,0,0:0:0:0:
352,192,126750,1,0,0:0:0:0:
416,192,126845,1,0,0:0:0:0:
96,192,126845,1,0,0:0:0:0:
352,192,126940,1,0,0:0:0:0:
288,192,127035,1,0,0:0:0:0:
224,192,127130,1,0,0:0:0:0:
480,192,127225,1,0,0:0:0:0:
160,192,127225,1,0,0:0:0:0:
224,192,127320,1,0,0:0:0:0:
288,192,127415,1,0,0:0:0:0:
352,192,127509,1,0,0:0:0:0:
96,192,127604,1,0,0:0:0:0:
416,192,127604,1,0,0:0:0:0:
352,192,127699,1,0,0:0:0:0:
96,192,127794,1,0,0:0:0:0:
288,192,127794,1,0,0:0:0:0:
160,192,127889,1,0,0:0:0:0:
96,192,127984,1,0,0:0:0:0:
352,192,127984,1,0,0:0:0:0:
224,192,128079,1,0,0:0:0:0:
96,192,128174,1,0,0:0:0:0:
416,192,128174,1,0,0:0:0:0:
288,192,128269,1,0,0:0:0:0:
480,192,128364,1,0,0:0:0:0:
96,192,128364,1,0,0:0:0:0:
32,192,128364,1,0,0:0:0:0:
416,192,128459,1,0,0:0:0:0:
352,192,128554,1,0,0:0:0:0:
288,192,128649,1,0,0:0:0:0:
352,192,128744,1,0,0:0:0:0:
288,192,128839,1,0,0:0:0:0:
224,192,128933,1,0,0:0:0:0:
160,192,129028,1,0,0:0:0:0:
96,192,129123,1,0,0:0:0:0:
160,192,129218,1,0,0:0:0:0:
224,192,129313,1,0,0:0:0:0:
288,192,129408,1,0,0:0:0:0:
224,192,129503,1,0,0:0:0:0:
288,192,129598,1,0,0:0:0:0:
352,192,129693,1,0,0:0:0:0:
416,192,129788,1,0,0:0:0:0:
480,192,129883,1,0,0:0:0:0:
160,192,129978,1,0,0:0:0:0:
224,192,130073,1,0,0:0:0:0:
288,192,130168,1,0,0:0:0:0:
352,192,130263,1,0,0:0:0:0:
224,192,130358,1,0,0:0:0:0:
288,192,130452,1,0,0:0:0:0:
352,192,130547,1,0,0:0:0:0:
416,192,130642,1,0,0:0:0:0:
96,192,130737,1,0,0:0:0:0:
160,192,130832,1,0,0:0:0:0:
224,192,130927,1,0,0:0:0:0:
288,192,131022,1,0,0:0:0:0:
416,192,131117,1,0,0:0:0:0:
224,192,131212,1,0,0:0:0:0:
96,192,131307,1,0,0:0:0:0:
480,192,131402,1,0,0:0:0:0:
224,192,131592,1,0,0:0:0:0:
416,192,131782,1,0,0:0:0:0:
160,192,131971,1,0,0:0:0:0:
352,192,132161,1,0,0:0:0:0:
96,192,132351,1,0,0:0:0:0:
224,192,132541,1,0,0:0:0:0:
352,192,132731,1,0,0:0:0:0:
480,192,132921,1,0,0:0:0:0:
96,192,133016,1,0,0:0:0:0:
160,192,133111,1,0,0:0:0:0:
224,192,133206,1,0,0:0:0:0:
416,192,133301,1,0,0:0:0:0:
352,192,133396,1,0,0:0:0:0:
288,192,133490,1,0,0:0:0:0:
224,192,133585,1,0,0:0:0:0:
160,192,133680,1,0,0:0:0:0:
224,192,133775,1,0,0:0:0:0:
288,192,133870,1,0,0:0:0:0:
352,192,133965,1,0,0:0:0:0:
224,192,134060,1,0,0:0:0:0:
288,192,134155,1,0,0:0:0:0:
352,192,134250,1,0,0:0:0:0:
416,192,134345,1,0,0:0:0:0:
352,192,134440,1,0,0:0:0:0:
224,192,134535,1,0,0:0:0:0:
96,192,134630,1,0,0:0:0:0:
224,192,134725,1,0,0:0:0:0:
416,192,134820,1,0,0:0:0:0:
96,192,134915,1,0,0:0:0:0:
224,192,135009,1,0,0:0:0:0:
96,192,135104,1,0,0:0:0:0:
480,192,135199,1,0,0:0:0:0:
224,192,135294,1,0,0:0:0:0:
96,192,135389,1,0,0:0:0:0:
224,192,135484,1,0,0:0:0:0:
416,192,135579,1,0,0:0:0:0:
96,192,135674,1,0,0:0:0:0:
224,192,135769,1,0,0:0:0:0:
96,192,135864,1,0,0:0:0:0:
224,192,135959,1,0,0:0:0:0:
480,192,136054,1,0,0:0:0:0:
352,192,136149,1,0,0:0:0:0:
480,192,136244,1,0,0:0:0:0:
96,192,136339,1,0,0:0:0:0:
352,192,136433,1,0,0:0:0:0:
480,192,136528,1,0,0:0:0:0:
352,192,136623,1,0,0:0:0:0:
160,192,136718,1,0,0:0:0:0:
480,192,136813,1,0,0:0:0:0:
352,192,136908,1,0,0:0:0:0:
480,192,137003,1,0,0:0:0:0:
224,192,137098,1,0,0:0:0:0:
352,192,137193,1,0,0:0:0:0:
480,192,137288,1,0,0:0:0:0:
352,192,137383,1,0,0:0:0:0:
416,192,137478,1,0,0:0:0:0:
288,192,137573,1,0,0:0:0:0:
224,192,137668,1,0,0:0:0:0:
96,192,137763,1,0,0:0:0:0:
416,192,137858,1,0,0:0:0:0:
288,192,137952,1,0,0:0:0:0:
224,192,138047,1,0,0:0:0:0:
96,192,138142,1,0,0:0:0:0:
480,192,138237,1,0,0:0:0:0:
352,192,138332,1,0,0:0:0:0:
224,192,138427,1,0,0:0:0:0:
96,192,138522,1,0,0:0:0:0:
288,192,138617,1,0,0:0:0:0:
160,192,138712,1,0,0:0:0:0:
352,192,138807,1,0,0:0:0:0:
224,192,138902,1,0,0:0:0:0:
416,192,138997,1,0,0:0:0:0:
32,192,138997,1,0,0:0:0:0:
160,192,139187,1,0,0:0:0:0:
224,192,139377,1,0,0:0:0:0:
352,192,139566,1,0,0:0:0:0:
96,192,139756,1,0,0:0:0:0:
160,192,139946,1,0,0:0:0:0:
288,192,140136,1,0,0:0:0:0:
416,192,140326,1,0,0:0:0:0:
480,192,140516,1,0,0:0:0:0:
32,192,140516,1,0,0:0:0:0:
288,192,140611,1,0,0:0:0:0:
160,192,140706,1,0,0:0:0:0:
352,192,140801,1,0,0:0:0:0:
480,192,140896,1,0,0:0:0:0:
288,192,140990,1,0,0:0:0:0:
160,192,141085,1,0,0:0:0:0:
352,192,141180,1,0,0:0:0:0:
480,192,141275,1,0,0:0:0:0:
288,192,141370,1,0,0:0:0:0:
160,192,141465,1,0,0:0:0:0:
352,192,141560,1,0,0:0:0:0:
480,192,141655,1,0,0:0:0:0:
288,192,141750,1,0,0:0:0:0:
160,192,141845,1,0,0:0:0:0:
352,192,141940,1,0,0:0:0:0:
416,192,142035,1,0,0:0:0:0:
224,192,142130,1,0,0:0:0:0:
96,192,142225,1,0,0:0:0:0:
288,192,142320,1,0,0:0:0:0:
416,192,142415,1,0,0:0:0:0:
224,192,142509,1,0,0:0:0:0:
96,192,142604,1,0,0:0:0:0:
288,192,142699,1,0,0:0:0:0:
416,192,142794,1,0,0:0:0:0:
224,192,142889,1,0,0:0:0:0:
96,192,142984,1,0,0:0:0:0:
288,192,143079,1,0,0:0:0:0:
416,192,143174,1,0,0:0:0:0:
224,192,143269,1,0,0:0:0:0:
96,192,143364,1,0,0:0:0:0:
288,192,143459,1,0,0:0:0:0:
416,192,143554,1,0,0:0:0:0:
224,192,143649,1,0,0:0:0:0:
480,192,143744,1,0,0:0:0:0:
288,192,143839,1,0,0:0:0:0:
96,192,143933,1,0,0:0:0:0:
224,192,144028,1,0,0:0:0:0:
288,192,144123,1,0,0:0:0:0:
352,192,144218,1,0,0:0:0:0:
480,192,144313,1,0,0:0:0:0:
288,192,144408,1,0,0:0:0:0:
416,192,144503,1,0,0:0:0:0:
224,192,144598,1,0,0:0:0:0:
96,192,144693,1,0,0:0:0:0:
160,192,144788,1,0,0:0:0:0:
288,192,144883,1,0,0:0:0:0:
416,192,144978,1,0,0:0:0:0:
480,192,145073,1,0,0:0:0:0:
288,192,145168,1,0,0:0:0:0:
96,192,145263,1,0,0:0:0:0:
224,192,145358,1,0,0:0:0:0:
352,192,145452,1,0,0:0:0:0:
96,192,145547,1,0,0:0:0:0:
160,192,145642,1,0,0:0:0:0:
288,192,145737,1,0,0:0:0:0:
416,192,145832,1,0,0:0:0:0:
96,192,145927,1,0,0:0:0:0:
224,192,146022,1,0,0:0:0:0:
352,192,146117,1,0,0:0:0:0:
480,192,146212,1,0,0:0:0:0:
352,192,146307,1,0,0:0:0:0:
224,192,146402,1,0,0:0:0:0:
96,192,146497,1,0,0:0:0:0:
480,192,146592,1,0,0:0:0:0:
416,192,146687,1,0,0:0:0:0:
352,192,146782,1,0,0:0:0:0:
288,192,146877,1,0,0:0:0:0:
416,192,146971,1,0,0:0:0:0:
352,192,147066,1,0,0:0:0:0:
288,192,147161,1,0,0:0:0:0:
224,192,147256,1,0,0:0:0:0:
352,192,147351,1,0,0:0:0:0:
288,192,147446,1,0,0:0:0:0:
224,192,147541,1,0,0:0:0:0:
160,192,147636,1,0,0:0:0:0:
288,192,147731,1,0,0:0:0:0:
352,192,147826,1,0,0:0:0:0:
416,192,147921,1,0,0:0:0:0:
480,192,148016,1,0,0:0:0:0:
96,192,148111,1,0,0:0:0:0:
160,192,148206,1,0,0:0:0:0:
224,192,148301,1,0,0:0:0:0:
288,192,148396,1,0,0:0:0:0:
160,192,148490,1,0,0:0:0:0:
224,192,148585,1,0,0:0:0:0:
288,192,148680,1,0,0:0:0:0:
352,192,148775,1,0,0:0:0:0:
224,192,148870,1,0,0:0:0:0:
288,192,148965,1,0,0:0:0:0:
352,192,149060,1,0,0:0:0:0:
416,192,149155,1,0,0:0:0:0:
288,192,149250,1,0,0:0:0:0:
224,192,149345,1,0,0:0:0:0:
160,192,149440,1,0,0:0:0:0:
96,192,149535,1,0,0:0:0:0:
480,192,149630,1,0,0:0:0:0:
160,192,149725,1,0,0:0:0:0:
224,192,149820,1,0,0:0:0:0:
288,192,149915,1,0,0:0:0:0:
96,192,150009,1,0,0:0:0:0:
416,192,150104,1,0,0:0:0:0:
352,192,150199,1,0,0:0:0:0:
288,192,150294,1,0,0:0:0:0:
480,192,150389,1,0,0:0:0:0:
160,192,150484,1,0,0:0:0:0:
224,192,150579,1,0,0:0:0:0:
288,192,150674,1,0,0:0:0:0:
96,192,150769,1,0,0:0:0:0:
416,192,150864,1,0,0:0:0:0:
352,192,150959,1,0,0:0:0:0:
288,192,151054,1,0,0:0:0:0:
480,192,151149,1,0,0:0:0:0:
32,192,151149,1,0,0:0:0:0:
96,192,151339,1,0,0:0:0:0:
160,192,151528,1,0,0:0:0:0:
416,192,151718,1,0,0:0:0:0:
288,192,151908,1,0,0:0:0:0:
352,192,152098,128,0,152288:0:0:0:0:
224,192,152288,128,0,152478:0:0:0:0:
416,192,152478,128,0,152668:0:0:0:0:
32,192,152668,1,0,0:0:0:0:
160,192,152668,128,0,153047:0:0:0:0:
480,192,152668,1,0,0:0:0:0:
288,192,152668,1,0,0:0:0:0:
96,192,152668,1,0,0:0:0:0:
352,192,153047,128,0,153237:0:0:0:0:
224,192,153237,128,0,153807:0:0:0:0:
480,192,153237,1,0,0:0:0:0:
96,192,153237,1,0,0:0:0:0:
288,192,153807,128,0,154187:0:0:0:0:
96,192,153807,1,0,0:0:0:0:
416,192,154187,128,0,154566:0:0:0:0:
480,192,154187,1,0,0:0:0:0:
352,192,154566,128,0,154756:0:0:0:0:
224,192,154756,128,0,155326:0:0:0:0:
96,192,154756,1,0,0:0:0:0:
160,192,155136,1,0,0:0:0:0:
352,192,155326,128,0,155706:0:0:0:0:
416,192,155326,1,0,0:0:0:0:
288,192,155516,1,0,0:0:0:0:
160,192,155706,128,0,156085:0:0:0:0:
96,192,155706,1,0,0:0:0:0:
480,192,155706,1,0,0:0:0:0:
288,192,156085,128,0,156275:0:0:0:0:
224,192,156275,128,0,156845:0:0:0:0:
96,192,156275,1,0,0:0:0:0:
416,192,156845,128,0,157225:0:0:0:0:
480,192,156845,1,0,0:0:0:0:
288,192,157225,128,0,157604:0:0:0:0:
96,192,157225,1,0,0:0:0:0:
160,192,157604,128,0,157984:0:0:0:0:
480,192,157794,1,0,0:0:0:0:
352,192,157984,128,0,158364:0:0:0:0:
96,192,158174,1,0,0:0:0:0:
224,192,158364,128,0,158744:0:0:0:0:
288,192,158364,1,0,0:0:0:0:
352,192,158554,1,0,0:0:0:0:
416,192,158649,1,0,0:0:0:0:
288,192,158744,128,0,161782:0:0:0:0:
96,192,158744,1,0,0:0:0:0:
480,192,158744,1,0,0:0:0:0:
96,192,159313,1,0,0:0:0:0:
480,192,159313,1,0,0:0:0:0:
224,192,159503,128,0,161782:0:0:0:0:
160,192,159883,1,0,0:0:0:0:
416,192,160263,1,0,0:0:0:0:
480,192,160832,1,0,0:0:0:0:
352,192,161022,128,0,164820:0:0:0:0:
96,192,161212,1,0,0:0:0:0:
416,192,161402,1,0,0:0:0:0:
160,192,161592,1,0,0:0:0:0:
96,192,161782,1,0,0:0:0:0:
480,192,161782,1,0,0:0:0:0:
480,192,162351,1,0,0:0:0:0:
96,192,162921,1,0,0:0:0:0:
480,192,163301,1,0,0:0:0:0:
160,192,163870,1,0,0:0:0:0:
32,192,164060,1,0,0:0:0:0:
288,192,164250,128,0,164440:0:0:0:0:
224,192,164440,128,0,164630:0:0:0:0:
160,192,164630,128,0,164820:0:0:0:0:
416,192,164820,128,0,165199:0:0:0:0:
96,192,164820,1,0,0:0:0:0:
288,192,164820,1,0,0:0:0:0:
480,192,164820,1,0,0:0:0:0:
32,192,164820,1,0,0:0:0:0:
352,192,165199,128,0,165389:0:0:0:0:
224,192,165199,1,0,0:0:0:0:
288,192,165389,128,0,165959:0:0:0:0:
96,192,165389,1,0,0:0:0:0:
480,192,165389,1,0,0:0:0:0:
160,192,165959,128,0,166339:0:0:0:0:
480,192,165959,1,0,0:0:0:0:
352,192,166339,128,0,166718:0:0:0:0:
96,192,166339,1,0,0:0:0:0:
288,192,166718,128,0,166908:0:0:0:0:
224,192,166908,128,0,167478:0:0:0:0:
480,192,166908,1,0,0:0:0:0:
96,192,167288,1,0,0:0:0:0:
288,192,167478,128,0,167858:0:0:0:0:
416,192,167478,1,0,0:0:0:0:
160,192,167668,1,0,0:0:0:0:
352,192,167858,128,0,168237:0:0:0:0:
480,192,167858,1,0,0:0:0:0:
96,192,167858,1,0,0:0:0:0:
224,192,168237,128,0,168427:0:0:0:0:
416,192,168427,128,0,168997:0:0:0:0:
96,192,168427,1,0,0:0:0:0:
160,192,168997,128,0,169377:0:0:0:0:
480,192,168997,1,0,0:0:0:0:
288,192,169377,128,0,169756:0:0:0:0:
96,192,169377,1,0,0:0:0:0:
416,192,169756,128,0,170136:0:0:0:0:
224,192,169946,1,0,0:0:0:0:
352,192,170136,128,0,170516:0:0:0:0:
96,192,170326,1,0,0:0:0:0:
224,192,170516,128,0,170896:0:0:0:0:
288,192,170516,1,0,0:0:0:0:
352,192,170706,1,0,0:0:0:0:
416,192,170801,1,0,0:0:0:0:
288,192,170896,128,0,173933:0:0:0:0:
32,192,170896,1,0,0:0:0:0:
480,192,170896,1,0,0:0:0:0:
96,192,170896,1,0,0:0:0:0:
352,192,171465,128,0,173933:0:0:0:0:
480,192,171465,1,0,0:0:0:0:
96,192,171465,1,0,0:0:0:0:
96,192,172035,1,0,0:0:0:0:
480,192,172415,1,0,0:0:0:0:
416,192,172984,1,0,0:0:0:0:
160,192,173364,1,0,0:0:0:0:
416,192,173554,128,0,175452:0:0:0:0:
480,192,173554,1,0,0:0:0:0:
96,192,173554,1,0,0:0:0:0:
224,192,173744,1,0,0:0:0:0:
160,192,173839,1,0,0:0:0:0:
96,192,173933,1,0,0:0:0:0:
480,192,173933,1,0,0:0:0:0:
96,192,174503,1,0,0:0:0:0:
480,192,175452,1,0,0:0:0:0:
224,192,175642,128,0,178301:0:0:0:0:
32,192,175642,1,0,0:0:0:0:
32,192,175927,1,0,0:0:0:0:
32,192,176212,1,0,0:0:0:0:
32,192,176592,1,0,0:0:0:0:
32,192,176782,1,0,0:0:0:0:
480,192,178396,1,0,0:0:0:0:
224,192,178490,1,0,0:0:0:0:
96,192,178585,1,0,0:0:0:0:
288,192,178680,1,0,0:0:0:0:
480,192,178775,1,0,0:0:0:0:
352,192,178870,1,0,0:0:0:0:
224,192,178965,1,0,0:0:0:0:
96,192,179060,1,0,0:0:0:0:
480,192,179155,1,0,0:0:0:0:
32,192,179250,1,0,0:0:0:0:
32,192,179440,1,0,0:0:0:0:
352,192,179440,128,0,179630:0:0:0:0:
32,192,179630,1,0,0:0:0:0:
288,192,179630,128,0,179820:0:0:0:0:
32,192,179725,1,0,0:0:0:0:
224,192,179820,128,0,180009:0:0:0:0:
32,192,179915,1,0,0:0:0:0:
32,192,180009,1,0,0:0:0:0:
96,192,180009,1,0,0:0:0:0:
480,192,180009,1,0,0:0:0:0:
160,192,180009,128,0,180389:0:0:0:0:
416,192,180009,1,0,0:0:0:0:
288,192,180199,1,0,0:0:0:0:
352,192,180294,1,0,0:0:0:0:
480,192,180389,1,0,0:0:0:0:
416,192,180389,1,0,0:0:0:0:
288,192,180579,1,0,0:0:0:0:
352,192,180579,128,0,181149:0:0:0:0:
224,192,180674,1,0,0:0:0:0:
96,192,180769,1,0,0:0:0:0:
160,192,180769,1,0,0:0:0:0:
224,192,180959,1,0,0:0:0:0:
288,192,181054,1,0,0:0:0:0:
480,192,181149,1,0,0:0:0:0:
416,192,181149,1,0,0:0:0:0:
352,192,181339,1,0,0:0:0:0:
288,192,181433,1,0,0:0:0:0:
96,192,181528,1,0,0:0:0:0:
416,192,181528,128,0,181908:0:0:0:0:
480,192,181528,1,0,0:0:0:0:
160,192,181718,1,0,0:0:0:0:
224,192,181813,1,0,0:0:0:0:
480,192,181908,1,0,0:0:0:0:
288,192,181908,1,0,0:0:0:0:
352,192,182098,1,0,0:0:0:0:
224,192,182098,128,0,182668:0:0:0:0:
288,192,182193,1,0,0:0:0:0:
96,192,182288,1,0,0:0:0:0:
160,192,182288,1,0,0:0:0:0:
288,192,182478,1,0,0:0:0:0:
352,192,182573,1,0,0:0:0:0:
480,192,182668,1,0,0:0:0:0:
416,192,182668,1,0,0:0:0:0:
352,192,182858,1,0,0:0:0:0:
288,192,182952,1,0,0:0:0:0:
96,192,183047,1,0,0:0:0:0:
224,192,183047,128,0,183427:0:0:0:0:
480,192,183047,1,0,0:0:0:0:
288,192,183237,1,0,0:0:0:0:
352,192,183332,1,0,0:0:0:0:
480,192,183427,1,0,0:0:0:0:
416,192,183427,1,0,0:0:0:0:
288,192,183617,1,0,0:0:0:0:
352,192,183617,128,0,184187:0:0:0:0:
224,192,183712,1,0,0:0:0:0:
96,192,183807,1,0,0:0:0:0:
160,192,183807,1,0,0:0:0:0:
224,192,183997,1,0,0:0:0:0:
288,192,184092,1,0,0:0:0:0:
480,192,184187,1,0,0:0:0:0:
416,192,184187,1,0,0:0:0:0:
416,192,184377,1,0,0:0:0:0:
288,192,184471,1,0,0:0:0:0:
96,192,184566,1,0,0:0:0:0:
160,192,184566,128,0,184946:0:0:0:0:
224,192,184566,1,0,0:0:0:0:
288,192,184756,1,0,0:0:0:0:
480,192,184946,1,0,0:0:0:0:
416,192,184946,128,0,185326:0:0:0:0:
352,192,184946,1,0,0:0:0:0:
288,192,185136,1,0,0:0:0:0:
96,192,185326,1,0,0:0:0:0:
224,192,185326,128,0,185706:0:0:0:0:
160,192,185326,1,0,0:0:0:0:
288,192,185516,1,0,0:0:0:0:
480,192,185706,1,0,0:0:0:0:
352,192,185706,128,0,186085:0:0:0:0:
416,192,185706,1,0,0:0:0:0:
160,192,185896,1,0,0:0:0:0:
224,192,185990,1,0,0:0:0:0:
96,192,186085,1,0,0:0:0:0:
480,192,186085,1,0,0:0:0:0:
288,192,186085,128,0,187035:0:0:0:0:
224,192,186275,1,0,0:0:0:0:
352,192,186370,1,0,0:0:0:0:
480,192,186465,1,0,0:0:0:0:
416,192,186465,1,0,0:0:0:0:
352,192,186655,1,0,0:0:0:0:
224,192,186750,1,0,0:0:0:0:
96,192,186845,1,0,0:0:0:0:
160,192,186845,1,0,0:0:0:0:
224,192,187035,1,0,0:0:0:0:
352,192,187130,1,0,0:0:0:0:
96,192,187225,1,0,0:0:0:0:
480,192,187225,1,0,0:0:0:0:
352,192,187415,1,0,0:0:0:0:
288,192,187509,1,0,0:0:0:0:
224,192,187604,128,0,188174:0:0:0:0:
480,192,187604,1,0,0:0:0:0:
96,192,187604,1,0,0:0:0:0:
288,192,187794,1,0,0:0:0:0:
352,192,187889,1,0,0:0:0:0:
480,192,187984,1,0,0:0:0:0:
416,192,187984,1,0,0:0:0:0:
288,192,188174,1,0,0:0:0:0:
160,192,188269,1,0,0:0:0:0:
480,192,188364,1,0,0:0:0:0:
96,192,188364,1,0,0:0:0:0:
288,192,188554,1,0,0:0:0:0:
416,192,188649,1,0,0:0:0:0:
480,192,188744,1,0,0:0:0:0:
160,192,188744,1,0,0:0:0:0:
352,192,188933,128,0,190642:0:0:0:0:
224,192,188933,1,0,0:0:0:0:
160,192,189028,1,0,0:0:0:0:
96,192,189123,1,0,0:0:0:0:
288,192,189123,1,0,0:0:0:0:
480,192,189123,1,0,0:0:0:0:
32,192,189123,1,0,0:0:0:0:
96,192,189503,1,0,0:0:0:0:
224,192,189503,1,0,0:0:0:0:
96,192,189883,1,0,0:0:0:0:
288,192,189883,1,0,0:0:0:0:
480,192,189883,1,0,0:0:0:0:
32,192,189883,1,0,0:0:0:0:
96,192,190263,1,0,0:0:0:0:
224,192,190263,1,0,0:0:0:0:
96,192,190642,1,0,0:0:0:0:
480,192,190642,1,0,0:0:0:0:
416,192,190737,1,0,0:0:0:0:
288,192,190832,1,0,0:0:0:0:
224,192,190927,1,0,0:0:0:0:
96,192,191022,1,0,0:0:0:0:
480,192,191022,1,0,0:0:0:0:
352,192,191117,1,0,0:0:0:0:
288,192,191212,1,0,0:0:0:0:
160,192,191307,1,0,0:0:0:0:
96,192,191402,1,0,0:0:0:0:
480,192,191402,1,0,0:0:0:0:
416,192,191497,1,0,0:0:0:0:
352,192,191592,1,0,0:0:0:0:
224,192,191592,1,0,0:0:0:0:
160,192,191687,1,0,0:0:0:0:
480,192,191782,1,0,0:0:0:0:
96,192,191782,1,0,0:0:0:0:
224,192,191971,1,0,0:0:0:0:
352,192,191971,1,0,0:0:0:0:
288,192,192066,1,0,0:0:0:0:
96,192,192161,1,0,0:0:0:0:
480,192,192161,1,0,0:0:0:0:
160,192,192161,1,0,0:0:0:0:
352,192,192351,1,0,0:0:0:0:
480,192,192541,1,0,0:0:0:0:
224,192,192541,1,0,0:0:0:0:
416,192,192541,1,0,0:0:0:0:
160,192,192731,1,0,0:0:0:0:
352,192,192731,1,0,0:0:0:0:
96,192,192921,1,0,0:0:0:0:
416,192,192921,1,0,0:0:0:0:
352,192,193111,1,0,0:0:0:0:
480,192,193301,1,0,0:0:0:0:
288,192,193301,1,0,0:0:0:0:
160,192,193301,1,0,0:0:0:0:
224,192,193490,1,0,0:0:0:0:
96,192,193680,1,0,0:0:0:0:
416,192,193680,1,0,0:0:0:0:
288,192,193680,1,0,0:0:0:0:
160,192,193870,1,0,0:0:0:0:
480,192,194060,1,0,0:0:0:0:
224,192,194060,1,0,0:0:0:0:
416,192,194060,1,0,0:0:0:0:
160,192,194250,1,0,0:0:0:0:
352,192,194250,1,0,0:0:0:0:
96,192,194440,1,0,0:0:0:0:
416,192,194440,1,0,0:0:0:0:
352,192,194630,1,0,0:0:0:0:
160,192,194820,1,0,0:0:0:0:
288,192,194820,1,0,0:0:0:0:
480,192,194820,1,0,0:0:0:0:
224,192,195009,1,0,0:0:0:0:
160,192,195104,1,0,0:0:0:0:
96,192,195199,1,0,0:0:0:0:
416,192,195199,1,0,0:0:0:0:
288,192,195199,1,0,0:0:0:0:
160,192,195389,1,0,0:0:0:0:
480,192,195579,1,0,0:0:0:0:
224,192,195579,1,0,0:0:0:0:
352,192,195579,1,0,0:0:0:0:
416,192,195769,1,0,0:0:0:0:
160,192,195769,1,0,0:0:0:0:
352,192,195959,1,0,0:0:0:0:
96,192,195959,1,0,0:0:0:0:
224,192,196149,1,0,0:0:0:0:
480,192,196339,1,0,0:0:0:0:
416,192,196339,1,0,0:0:0:0:
288,192,196339,1,0,0:0:0:0:
160,192,196528,1,0,0:0:0:0:
96,192,196718,1,0,0:0:0:0:
224,192,196718,1,0,0:0:0:0:
352,192,196718,1,0,0:0:0:0:
416,192,196908,1,0,0:0:0:0:
480,192,197098,1,0,0:0:0:0:
160,192,197098,1,0,0:0:0:0:
288,192,197098,1,0,0:0:0:0:
416,192,197288,1,0,0:0:0:0:
96,192,197478,1,0,0:0:0:0:
352,192,197478,1,0,0:0:0:0:
160,192,197478,1,0,0:0:0:0:
288,192,197668,1,0,0:0:0:0:
480,192,197858,1,0,0:0:0:0:
224,192,197858,1,0,0:0:0:0:
416,192,197858,1,0,0:0:0:0:
160,192,198047,1,0,0:0:0:0:
224,192,198142,1,0,0:0:0:0:
288,192,198237,1,0,0:0:0:0:
352,192,198237,1,0,0:0:0:0:
96,192,198237,1,0,0:0:0:0:
416,192,198427,1,0,0:0:0:0:
480,192,198617,1,0,0:0:0:0:
224,192,198617,1,0,0:0:0:0:
160,192,198807,1,0,0:0:0:0:
96,192,198997,1,0,0:0:0:0:
352,192,198997,1,0,0:0:0:0:
416,192,199187,1,0,0:0:0:0:
160,192,199377,1,0,0:0:0:0:
480,192,199377,1,0,0:0:0:0:
352,192,199377,1,0,0:0:0:0:
288,192,199566,1,0,0:0:0:0:
416,192,199756,1,0,0:0:0:0:
96,192,199756,1,0,0:0:0:0:
224,192,199756,1,0,0:0:0:0:
352,192,199946,1,0,0:0:0:0:
416,192,200041,1,0,0:0:0:0:
480,192,200136,1,0,0:0:0:0:
288,192,200136,1,0,0:0:0:0:
416,192,200326,1,0,0:0:0:0:
224,192,200326,1,0,0:0:0:0:
96,192,200516,1,0,0:0:0:0:
288,192,200516,1,0,0:0:0:0:
160,192,200706,1,0,0:0:0:0:
352,192,200706,1,0,0:0:0:0:
480,192,200896,1,0,0:0:0:0:
416,192,200896,1,0,0:0:0:0:
224,192,201085,1,0,0:0:0:0:
288,192,201085,1,0,0:0:0:0:
352,192,201180,1,0,0:0:0:0:
416,192,201275,1,0,0:0:0:0:
480,192,201275,1,0,0:0:0:0:
96,192,201275,1,0,0:0:0:0:
32,192,201275,1,0,0:0:0:0:
288,192,201465,1,0,0:0:0:0:
352,192,201655,1,0,0:0:0:0:
96,192,201655,1,0,0:0:0:0:
288,192,201845,1,0,0:0:0:0:
224,192,201940,1,0,0:0:0:0:
160,192,202035,1,0,0:0:0:0:
96,192,202035,1,0,0:0:0:0:
480,192,202035,1,0,0:0:0:0:
32,192,202035,1,0,0:0:0:0:
288,192,202225,1,0,0:0:0:0:
224,192,202415,1,0,0:0:0:0:
480,192,202415,1,0,0:0:0:0:
288,192,202604,1,0,0:0:0:0:
416,192,202699,1,0,0:0:0:0:
96,192,202794,1,0,0:0:0:0:
352,192,202794,1,0,0:0:0:0:
288,192,202889,1,0,0:0:0:0:
224,192,202984,1,0,0:0:0:0:
160,192,203079,1,0,0:0:0:0:
416,192,203174,1,0,0:0:0:0:
96,192,203174,1,0,0:0:0:0:
352,192,203269,1,0,0:0:0:0:
288,192,203364,1,0,0:0:0:0:
224,192,203459,1,0,0:0:0:0:
480,192,203554,1,0,0:0:0:0:
160,192,203554,1,0,0:0:0:0:
416,192,203649,1,0,0:0:0:0:
352,192,203744,1,0,0:0:0:0:
288,192,203839,1,0,0:0:0:0:
480,192,203933,1,0,0:0:0:0:
224,192,203933,1,0,0:0:0:0:
288,192,204123,1,0,0:0:0:0:
224,192,204218,1,0,0:0:0:0:
160,192,204313,128,0,204693:0:0:0:0:
96,192,204313,1,0,0:0:0:0:
352,192,204313,1,0,0:0:0:0:
480,192,204313,1,0,0:0:0:0:
32,192,204313,1,0,0:0:0:0:
288,192,204503,1,0,0:0:0:0:
416,192,204693,128,0,205073:0:0:0:0:
480,192,204693,1,0,0:0:0:0:
224,192,204693,1,0,0:0:0:0:
288,192,204883,1,0,0:0:0:0:
224,192,205073,128,0,205452:0:0:0:0:
96,192,205073,1,0,0:0:0:0:
480,192,205073,1,0,0:0:0:0:
288,192,205263,1,0,0:0:0:0:
352,192,205452,128,0,205832:0:0:0:0:
480,192,205452,1,0,0:0:0:0:
160,192,205452,1,0,0:0:0:0:
288,192,205642,1,0,0:0:0:0:
160,192,205832,128,0,206212:0:0:0:0:
96,192,205832,1,0,0:0:0:0:
416,192,205832,1,0,0:0:0:0:
288,192,206022,1,0,0:0:0:0:
416,192,206212,128,0,206402:0:0:0:0:
480,192,206212,1,0,0:0:0:0:
96,192,206212,1,0,0:0:0:0:
224,192,206402,128,0,206971:0:0:0:0:
288,192,206402,1,0,0:0:0:0:
96,192,206592,1,0,0:0:0:0:
352,192,206592,1,0,0:0:0:0:
416,192,206782,1,0,0:0:0:0:
288,192,206971,128,0,207351:0:0:0:0:
480,192,206971,1,0,0:0:0:0:
96,192,206971,1,0,0:0:0:0:
160,192,207161,1,0,0:0:0:0:
352,192,207351,128,0,207731:0:0:0:0:
480,192,207351,1,0,0:0:0:0:
96,192,207351,1,0,0:0:0:0:
160,192,207541,1,0,0:0:0:0:
224,192,207731,128,0,208111:0:0:0:0:
480,192,207731,1,0,0:0:0:0:
288,192,207731,1,0,0:0:0:0:
416,192,207921,1,0,0:0:0:0:
160,192,208111,128,0,208490:0:0:0:0:
96,192,208111,1,0,0:0:0:0:
288,192,208111,1,0,0:0:0:0:
352,192,208301,1,0,0:0:0:0:
416,192,208490,128,0,208870:0:0:0:0:
96,192,208490,1,0,0:0:0:0:
480,192,208490,1,0,0:0:0:0:
352,192,208680,1,0,0:0:0:0:
288,192,208870,128,0,209630:0:0:0:0:
96,192,208870,1,0,0:0:0:0:
224,192,208870,1,0,0:0:0:0:
352,192,209060,1,0,0:0:0:0:
480,192,209250,1,0,0:0:0:0:
416,192,209250,1,0,0:0:0:0:
160,192,209440,1,0,0:0:0:0:
96,192,209630,1,0,0:0:0:0:
480,192,209630,1,0,0:0:0:0:
352,192,209820,128,0,210009:0:0:0:0:
160,192,209820,1,0,0:0:0:0:
288,192,210009,128,0,210199:0:0:0:0:
480,192,210009,1,0,0:0:0:0:
96,192,210009,1,0,0:0:0:0:
224,192,210199,128,0,210389:0:0:0:0:
352,192,210199,1,0,0:0:0:0:
160,192,210389,128,0,210769:0:0:0:0:
480,192,210389,1,0,0:0:0:0:
96,192,210389,1,0,0:0:0:0:
288,192,210579,1,0,0:0:0:0:
352,192,210769,128,0,210959:0:0:0:0:
480,192,210769,1,0,0:0:0:0:
416,192,210769,1,0,0:0:0:0:
224,192,210959,128,0,211528:0:0:0:0:
288,192,210959,1,0,0:0:0:0:
96,192,211149,1,0,0:0:0:0:
160,192,211149,1,0,0:0:0:0:
416,192,211339,1,0,0:0:0:0:
288,192,211528,128,0,211908:0:0:0:0:
480,192,211528,1,0,0:0:0:0:
352,192,211528,1,0,0:0:0:0:
160,192,211718,1,0,0:0:0:0:
416,192,211908,128,0,212288:0:0:0:0:
96,192,211908,1,0,0:0:0:0:
480,192,211908,1,0,0:0:0:0:
224,192,212098,1,0,0:0:0:0:
352,192,212288,128,0,212478:0:0:0:0:
480,192,212288,1,0,0:0:0:0:
160,192,212288,1,0,0:0:0:0:
224,192,212478,128,0,213047:0:0:0:0:
288,192,212478,1,0,0:0:0:0:
96,192,212668,1,0,0:0:0:0:
416,192,212668,1,0,0:0:0:0:
352,192,212858,1,0,0:0:0:0:
288,192,213047,128,0,213427:0:0:0:0:
480,192,213047,1,0,0:0:0:0:
96,192,213047,1,0,0:0:0:0:
416,192,213237,1,0,0:0:0:0:
160,192,213427,128,0,214187:0:0:0:0:
480,192,213427,1,0,0:0:0:0:
96,192,213427,1,0,0:0:0:0:
224,192,213427,1,0,0:0:0:0:
32,192,213427,1,0,0:0:0:0:
352,192,213617,1,0,0:0:0:0:
224,192,213807,1,0,0:0:0:0:
480,192,213807,1,0,0:0:0:0:
288,192,213997,1,0,0:0:0:0:
416,192,214187,128,0,214946:0:0:0:0:
352,192,214187,1,0,0:0:0:0:
480,192,214187,1,0,0:0:0:0:
96,192,214187,1,0,0:0:0:0:
32,192,214187,1,0,0:0:0:0:
224,192,214377,1,0,0:0:0:0:
352,192,214566,1,0,0:0:0:0:
96,192,214566,1,0,0:0:0:0:
288,192,214756,1,0,0:0:0:0:
96,192,214946,1,0,0:0:0:0:
224,192,214946,1,0,0:0:0:0:
480,192,214946,1,0,0:0:0:0:
32,192,214946,1,0,0:0:0:0:
96,192,215136,1,0,0:0:0:0:
224,192,215136,1,0,0:0:0:0:
352,192,215326,1,0,0:0:0:0:
480,192,215326,1,0,0:0:0:0:
352,192,215516,1,0,0:0:0:0:
480,192,215516,1,0,0:0:0:0:
480,192,215706,1,0,0:0:0:0:
96,192,215706,1,0,0:0:0:0:
32,192,215706,1,0,0:0:0:0:
224,192,215706,1,0,0:0:0:0:
96,192,215896,1,0,0:0:0:0:
224,192,215896,1,0,0:0:0:0:
96,192,216085,1,0,0:0:0:0:
480,192,216085,1,0,0:0:0:0:
32,192,216085,1,0,0:0:0:0:
352,192,216085,1,0,0:0:0:0:
480,192,216275,1,0,0:0:0:0:
352,192,216275,1,0,0:0:0:0:
480,192,216465,1,0,0:0:0:0:
96,192,216465,1,0,0:0:0:0:
32,192,216465,1,0,0:0:0:0:
352,192,216465,1,0,0:0:0:0:
160,192,216465,128,0,216845:0:0:0:0:
416,192,216845,128,0,217225:0:0:0:0:
96,192,217035,1,0,0:0:0:0:
480,192,217035,1,0,0:0:0:0:
224,192,217225,128,0,217604:0:0:0:0:
352,192,217604,128,0,217984:0:0:0:0:
480,192,217604,1,0,0:0:0:0:
288,192,217984,128,0,218364:0:0:0:0:
96,192,217984,1,0,0:0:0:0:
416,192,218364,128,0,218554:0:0:0:0:
160,192,218554,128,0,219123:0:0:0:0:
480,192,218554,1,0,0:0:0:0:
224,192,218933,1,0,0:0:0:0:
352,192,219123,128,0,219503:0:0:0:0:
288,192,219123,1,0,0:0:0:0:
224,192,219313,1,0,0:0:0:0:
416,192,219503,128,0,219883:0:0:0:0:
96,192,219503,1,0,0:0:0:0:
480,192,219503,1,0,0:0:0:0:
224,192,219883,128,0,220263:0:0:0:0:
96,192,220073,1,0,0:0:0:0:
160,192,220263,128,0,220642:0:0:0:0:
352,192,220642,128,0,221022:0:0:0:0:
480,192,220642,1,0,0:0:0:0:
288,192,221022,128,0,221782:0:0:0:0:
96,192,221022,1,0,0:0:0:0:
480,192,221592,1,0,0:0:0:0:
224,192,221971,128,0,222161:0:0:0:0:
96,192,221971,1,0,0:0:0:0:
288,192,222161,128,0,222351:0:0:0:0:
480,192,222161,1,0,0:0:0:0:
352,192,222351,128,0,222541:0:0:0:0:
160,192,222541,128,0,222921:0:0:0:0:
480,192,222541,1,0,0:0:0:0:
96,192,222541,1,0,0:0:0:0:
288,192,222541,1,0,0:0:0:0:
32,192,222541,1,0,0:0:0:0:
416,192,222921,128,0,223111:0:0:0:0:
224,192,223111,128,0,223680:0:0:0:0:
480,192,223111,1,0,0:0:0:0:
96,192,223111,1,0,0:0:0:0:
352,192,223680,128,0,224060:0:0:0:0:
480,192,223680,1,0,0:0:0:0:
416,192,224060,128,0,224440:0:0:0:0:
96,192,224060,1,0,0:0:0:0:
288,192,224440,128,0,224630:0:0:0:0:
160,192,224630,128,0,225199:0:0:0:0:
480,192,224630,1,0,0:0:0:0:
224,192,225009,1,0,0:0:0:0:
352,192,225199,128,0,225579:0:0:0:0:
480,192,225199,1,0,0:0:0:0:
96,192,225199,1,0,0:0:0:0:
288,192,225389,1,0,0:0:0:0:
224,192,225579,128,0,225959:0:0:0:0:
480,192,225579,1,0,0:0:0:0:
288,192,225579,1,0,0:0:0:0:
96,192,225579,1,0,0:0:0:0:
32,192,225579,1,0,0:0:0:0:
416,192,225959,128,0,226149:0:0:0:0:
160,192,226149,128,0,226718:0:0:0:0:
96,192,226149,1,0,0:0:0:0:
224,192,226718,128,0,227098:0:0:0:0:
480,192,226718,1,0,0:0:0:0:
352,192,227098,128,0,227478:0:0:0:0:
96,192,227098,1,0,0:0:0:0:
160,192,227478,128,0,227858:0:0:0:0:
224,192,227668,1,0,0:0:0:0:
416,192,227858,128,0,228237:0:0:0:0:
288,192,228237,128,0,228617:0:0:0:0:
352,192,228237,1,0,0:0:0:0:
224,192,228997,128,0,232035:0:0:0:0:
352,192,228997,128,0,232035:0:0:0:0:
96,192,232035,1,0,0:0:0:0:
32,192,232035,1,0,0:0:0:0:
480,192,232035,1,0,0:0:0:0:
