osu file format v7

[General]
AudioFilename: 1.mp3
AudioLeadIn: 0
PreviewTime: -1
Countdown: 1
SampleSet: Normal
StackLeniency: 0.7
Mode: 0
LetterboxInBreaks: 1

[Editor]
DistanceSpacing: 0.800000011920929
BeatDivisor: 4
GridSize: 8

[Metadata]
Title:Feel Your Heart
Artist:VELVET GARDEN
Creator:jmaeshawn
Version:Normal
Source:Detective Conan
Tags:Anime

[Difficulty]
HPDrainRate:5
CircleSize:5
OverallDifficulty:5
SliderMultiplier:1.4
SliderTickRate:1

[Events]
//Background and Video events
Video,0,"1.avi"
//Break Periods
2,74636,76404
//Storyboard Layer 0 (Background)
//Storyboard Layer 1 (Fail)
//Storyboard Layer 2 (Pass)
//Storyboard Layer 3 (Foreground)
//Storyboard Sound Samples
//Background Colour Transformations
3,100,163,162,255

[TimingPoints]
15590,375,4,1,0,60,1,0
72480,372.670807453416,4,1,0,60,1,0

[HitObjects]
216,208,15777,1,0
264,176,15964,1,0
320,160,16152,1,0
224,96,16527,1,0
168,88,16714,1,0
144,144,16902,1,0
264,264,17652,1,0
368,224,18027,1,0
384,272,18214,1,0
432,296,18402,1,0
336,232,18964,1,0
296,192,19152,1,0
216,112,19527,1,0
176,72,19714,1,0
96,336,20652,1,0
152,336,20839,1,0
208,336,21027,1,0
264,336,21214,1,0
168,200,21777,1,0
224,192,21965,1,0
280,200,22152,1,0
336,144,22527,1,0
336,88,22715,1,0
112,96,23652,1,0
56,96,23840,1,0
56,152,24027,1,0
56,208,24215,1,0
168,328,24777,1,0
232,200,26277,1,0
288,192,26652,1,0
264,80,27027,1,0
152,88,27402,1,0
144,256,27965,1,0
256,256,28340,1,0
368,256,28527,1,0
368,200,28715,1,0
368,144,28902,1,0
192,160,29465,1,0
328,64,30027,1,0
216,72,30402,1,0
176,224,33215,1,0
232,224,33402,1,0
400,240,33965,1,0
408,184,34152,1,0
288,168,34527,1,0
232,160,34715,1,0
176,144,34902,1,0
56,144,35277,1,0
144,184,35652,1,0
224,256,36027,1,0
336,272,36402,1,0
80,168,37340,1,0
336,232,37715,1,0
64,224,39027,1,0
176,232,39402,1,0
400,224,40152,1,0
240,64,40902,1,0
184,64,41090,1,0
129,74,41465,1,0
128,128,41652,1,0
128,184,41840,1,0
128,304,42215,1,0
184,304,42402,1,0
192,192,45215,1,0
160,144,45402,1,0
376,216,46152,1,0
208,200,46715,1,0
184,152,46902,1,0
128,32,47277,1,0
72,32,47465,1,0
72,200,48027,1,0
72,256,48215,1,0
200,232,49715,1,0
112,160,50090,1,0
168,144,50277,1,0
280,128,50652,1,0
336,120,50840,1,0
376,224,51215,1,0
96,208,52152,1,0
200,248,52527,1,0
256,248,52715,1,0
328,168,53090,1,0
272,72,53465,1,0
160,56,53840,1,0
112,120,54027,1,0
112,176,54215,1,0
112,232,54402,1,0
112,288,54590,1,0
152,320,54777,1,0
208,328,54965,1,0
264,328,55152,1,0
264,216,55527,1,0
264,104,55902,1,0
320,104,56090,1,0
432,104,56465,1,0
440,216,56840,1,0
440,272,57027,1,0
440,328,57215,1,0
384,328,57402,1,0
208,192,58152,1,0
104,152,58527,1,0
104,96,58715,1,0
208,48,59090,1,0
232,152,59465,1,0
288,56,59840,1,0
296,112,60027,1,0
328,160,60215,1,0
336,224,60402,1,0
280,248,60590,1,0
280,248,60777,1,0
240,200,60965,1,0
136,168,61340,1,0
80,152,61527,1,0
48,104,61715,1,0
24,216,62090,1,0
80,224,62277,1,0
80,280,62465,1,0
192,280,62840,1,0
248,280,63027,1,0
464,104,63965,1,0
408,104,64340,1,0
352,112,64527,1,0
296,120,64715,1,0
240,128,64902,1,0
184,136,65090,1,0
128,136,65277,1,0
72,144,65465,1,0
72,200,65652,1,0
72,312,66027,1,0
128,312,66215,1,0
240,312,66590,1,0
240,256,66777,1,0
240,200,66965,1,0
352,192,67340,1,0
352,248,67527,1,0
352,304,67715,1,0
240,312,68090,1,0
184,312,68277,1,0
128,312,68465,1,0
72,312,68840,1,0
16,312,69027,1,0
248,152,69965,1,0
248,264,70340,1,0
192,264,70527,1,0
136,256,70715,1,0
136,256,70902,1,0
40,192,71277,1,0
104,192,71465,1,0
256,192,71652,12,0,72215
440,184,72573,5,0
384,192,72948,1,0
272,192,73318,1,0
216,192,73504,1,0
160,192,73691,1,0
104,192,73877,1,0
40,176,74063,1,0
48,120,74250,1,0
96,120,74436,1,0
232,216,77604,5,0
128,160,77976,1,0
128,160,78163,1,0
256,144,78535,1,0
344,144,78908,1,0
392,240,79281,1,0
392,240,79468,1,0
328,240,79656,1,0
280,240,79843,1,0
256,192,79840,12,0,83566
320,128,85150,5,0
160,184,86635,5,2
272,184,87010,1,2
328,184,87198,1,2
280,80,87573,1,2
