osu file format v7

[General]
AudioFilename: CRAWL.mp3
AudioLeadIn: 2000
PreviewTime: 54616
Countdown: 1
SampleSet: Normal
StackLeniency: 0.7
Mode: 0
LetterboxInBreaks: 1

[Editor]
DistanceSpacing: 1.39999997615814
BeatDivisor: 4
GridSize: 8

[Metadata]
Title:CRAWL (TV Size)
Artist:VELTPUNCH
Creator:tmokb93
Version:Mok no Jutsu
Source:Nabari No Ou
Tags:Yuhki Kamatani Kuroneko-sHerald Armin

[Difficulty]
HPDrainRate:3
CircleSize:3
OverallDifficulty:5
SliderMultiplier:0.7
SliderTickRate:1

[Events]
//Background and Video events
0,0,"Senza titolo-3.jpg"
Video,0,"02 Nabari no Ou - Arriva Raimei - DVDnux By Lain.avi"
//Break Periods
//Storyboard Layer 0 (Background)
//Storyboard Layer 1 (Fail)
//Storyboard Layer 2 (Pass)
//Storyboard Layer 3 (Foreground)
//Storyboard Sound Samples
//Background Colour Transformations
3,100,255,255,255

[TimingPoints]
322,337.647720877884,4,1,0,80,1,0
10789,-100,4,2,0,80,0,0
31301,-100,4,1,0,80,0,0
32375,337.078651685393,4,1,0,80,1,0
32375,-100,4,1,0,80,0,0
32712,337.078651685393,4,1,0,80,1,0
33386,-100,4,1,0,80,0,0
37768,-100,4,1,0,80,0,0
38779,-100,4,1,0,80,0,0
39439,336.889387984279,4,1,0,80,1,0
43144,-100,4,1,0,80,0,0
44155,-100,4,1,0,80,0,0
54283,336.889387984279,4,1,0,80,1,0
54283,-100,4,1,0,80,0,1
70537,-100,4,1,0,0,0,1
70727,-100,4,1,0,80,0,1
71908,-100,4,1,0,0,0,1
72076,-100,4,1,0,80,0,1
74496,-100,4,1,0,80,0,1
74580,-100,4,2,0,80,0,0
75870,337.078651685393,4,2,0,80,1,0
75870,-100,4,2,0,80,0,0
82611,-100,4,1,0,80,0,0
82695,-100,4,2,0,80,0,0
83600,337.078651685393,4,1,0,80,1,0
89330,-100,4,1,0,0,0,0

[Colours]
Combo1 : 222,206,181
Combo2 : 74,74,74
Combo3 : 0,64,128
Combo4 : 203,164,109

[HitObjects]
256,192,322,1,4
256,96,659,1,8
256,192,997,1,0
256,192,1334,1,8
256,192,1672,6,0,B|256:280,2,70,0|8|0
256,192,2685,1,8
256,192,3023,5,4
192,120,3360,1,8
320,120,3698,1,0
256,192,4036,1,8
256,192,4373,5,4
320,264,4711,1,8
192,264,5049,1,0
256,192,5386,1,8
168,152,5724,6,0,B|136:120|168:88,1,70,4|8
256,48,6399,1,0
344,152,6737,6,0,B|376:120|344:88,1,70,8|0
256,48,7412,1,8
256,48,7750,1,0
256,144,8087,1,8
192,232,8425,6,0,B|256:296|320:232,2,140,0|0|2
256,160,10113,1,2
256,160,10451,1,2
256,64,10789,5,4
256,64,11126,1,2
256,160,11464,1,0
256,264,11802,6,0,B|320:328|384:264,1,140,2|0
256,264,13152,2,0,B|192:328|128:264,1,140,2|4
192,192,14165,5,2
256,112,14503,1,0
328,192,14840,1,2
256,112,15178,1,0
192,192,15516,1,2
256,112,15853,1,0
160,96,16191,6,0,B|128:64|96:64,2,70,2|0|2
256,112,17204,1,0
352,96,17542,2,0,B|384:64|416:64,2,70,2|0|2
256,112,18554,1,0
256,112,18892,1,2
192,184,19230,6,0,B|128:248|192:312,1,140,0|2
256,256,20243,1,0
320,184,20580,2,0,B|384:248|320:312,1,140,2|0
256,256,21593,5,6
256,256,21931,1,2
256,256,22269,5,0
256,256,22606,1,4
72,192,23282,6,0,B|72:96|168:96,2,140,2|0|2
168,192,24970,1,2
264,192,25307,2,0,B|264:288|168:288,2,140,2|0|2
280,96,26996,6,8,B|344:32|416:104,1,140,4|0
344,168,28009,1,2
344,264,28346,1,0
408,336,28684,2,8,B|344:400|272:328,1,140,2|2
344,264,29697,6,0,B|280:200|208:272,1,140,2|2
280,336,30710,2,0,B|216:400|144:328,1,140,2|4
152,240,31723,1,4
152,240,32060,1,4
88,160,32375,6,0,B|152:96|216:160,1,140,2|0
256,240,33386,1,4
256,240,33723,1,8
304,152,34060,2,0,B|368:88|432:152,2,140,0|0|2
368,224,35745,5,0
304,304,36082,1,2
208,304,36419,1,2
152,224,36756,1,0
256,192,37094,1,0
256,192,37431,1,0
320,120,37768,6,0,B|256:56|184:128,2,140,2|0|8
256,192,39439,1,0
256,192,39775,1,8
200,272,40112,1,0
312,272,40449,1,8
256,192,40786,6,0,B|320:128|384:192,2,140,2|2|2
312,272,42471,1,8
256,192,42807,1,0
192,272,43144,5,2
256,344,43481,1,2
312,272,43818,1,8
256,192,44155,2,0,B|200:136|304:136|232:64,2,140,0|8|0
256,192,45839,1,8
160,192,46176,5,2
200,280,46513,1,0
312,280,46850,1,2
352,192,47187,1,0
256,192,47524,2,0,B|256:104,2,70,8|0|0
200,280,48535,6,0,B|264:344|328:280,1,140,2|0
320,184,49545,2,0,B|256:120|192:184,2,140,8|0|8
256,256,51230,1,8
256,192,51567,12,4,53588
256,248,54283,5,2
160,200,54619,6,2,B|256:104|352:200,1,210
256,248,55967,1,0
256,344,56304,1,4
256,248,56641,1,0
160,280,56978,5,2
88,208,57315,1,4
120,112,57651,1,2
256,248,58325,5,4
392,112,58999,5,2
392,112,59336,1,0
424,208,59673,1,6
352,280,60010,1,0
256,224,60347,6,0,B|256:136,2,70,2|4|2
184,296,61357,6,0,B|128:352,2,70,0|2|2
256,224,62368,1,2
256,224,62705,1,2
256,224,63042,5,0
328,296,63379,2,0,B|384:352,2,70,2|0|2
256,224,64389,2,0,B|256:152,2,70,0|2|6
168,272,65400,6,0,B|264:368|355:265,1,210,2|2
256,232,66747,1,0
256,136,67084,1,2
256,40,67421,1,0
168,80,67758,6,0,B|104:144|168:208,2,140,2|0|2
256,128,69443,1,0
336,80,69779,6,0,B|400:144|336:208,2,140,2|4|2
256,128,71464,1,0
256,128,71801,1,6
256,192,72475,12,4,74496
256,192,74833,6,0,B|256:104,2,70
256,192,75843,1,4
448,192,76544,6,0,B|448:288|368:288,1,140,2|2
352,192,77555,1,2
256,192,77892,2,0,B|256:96|336:96,1,140,2|2
332,96,78903,1,2
332,96,79240,1,0
352,192,79577,6,0,B|352:288|272:288,2,140,2|2|2
256,160,81263,1,0
176,216,81600,1,2
96,160,81937,1,0
176,112,82274,6,0,B|176:32,2,70,2|4|2
256,160,83285,1,2
336,112,83600,1,4
424,160,83937,5,0
336,208,84274,2,0,B|336:280,2,70,8|0|8
256,160,85285,1,0
184,216,85622,1,8
256,280,85959,1,0
328,216,86296,1,8
328,216,86633,5,4
256,280,86970,1,8
184,216,87307,1,0
256,160,87644,1,12
256,192,87813,12,0,89330
