osu file format v7

[General]
AudioFilename: CRAWL.mp3
AudioLeadIn: 2000
PreviewTime: 54616
Countdown: 1
SampleSet: Normal
StackLeniency: 0.7
Mode: 0
LetterboxInBreaks: 1

[Editor]
DistanceSpacing: 1
BeatDivisor: 4
GridSize: 8

[Metadata]
Title:CRAWL (TV Size)
Artist:VELTPUNCH
Creator:tmokb93
Version:Kuro no Jutsu
Source:Nabari No Ou
Tags:Yuhki Kamatani Kuroneko-sHerald Armin

[Difficulty]
HPDrainRate:3
CircleSize:3
OverallDifficulty:3
SliderMultiplier:1
SliderTickRate:1

[Events]
//Background and Video events
0,0,"Senza titolo-1.jpg"
Video,0,"02 Nabari no Ou - Arriva Raimei - DVDnux By Lain.avi"
//Break Periods
//Storyboard Layer 0 (Background)
//Storyboard Layer 1 (Fail)
//Storyboard Layer 2 (Pass)
//Storyboard Layer 3 (Foreground)
//Storyboard Sound Samples
//Background Colour Transformations
3,100,255,255,255

[TimingPoints]
322,337.647720877884,4,1,0,80,1,0
32375,337.078651685393,4,1,0,80,1,0
32712,337.078651685393,4,1,0,80,1,0
39439,336.889387984279,4,1,0,80,1,0
54283,336.889387984279,4,1,0,80,1,0
54619,-100,4,1,0,80,0,1
75085,-100,4,2,0,80,0,1
75870,337.078651685393,4,1,0,80,1,0
76038,-100,4,2,0,80,0,0
83600,337.078651685393,4,1,0,80,1,0
87644,-100,4,2,0,0,0,0

[Colours]
Combo1 : 128,128,192
Combo2 : 74,74,74
Combo3 : 0,155,0
Combo4 : 153,77,77

[HitObjects]
40,48,322,2,0,B|144:48,3,100,0|0|0|4
192,136,1672,2,0,B|88:136,3,100,0|0|0|4
144,224,3023,6,8,B|264:224,3,100,8|0|8|0
200,312,4373,2,0,B|320:312,3,100,8|0|8|0
352,224,5724,6,0,B|288:224,4,50
456,224,6737,1,4
456,120,7074,2,0,B|520:120,4,50
352,120,8087,1,4
256,192,8425,12,4,10451
352,336,10789,5,0
352,336,11126,2,0,B|456:296|448:152,1,200
296,40,12477,5,8
216,104,12814,1,0
296,160,13152,1,8
216,224,13490,2,0,B|296:288,1,100,0|8
216,344,14165,1,0
128,288,14503,1,8
56,216,14840,2,0,B|128:144,3,100,0|8|0|8
200,72,16191,6,0,B|360:192|240:336,1,300
416,240,17879,6,0,B|416:352,1,100,8|0
336,296,18554,1,8
256,240,18892,2,0,B|256:136,2,100,0|8|0
176,296,19905,1,8
96,240,20243,2,0,B|96:168,2,50
352,64,21593,6,0,B|352:192|160:192|160:48,1,300
96,256,23282,5,8
192,256,23619,1,0
144,168,23957,2,0,B|208:136|256:184,2,100,8|0|8
72,96,24970,1,0
144,32,25307,2,0,B|216:32,4,50,8|0|0|0|8
144,136,26320,2,0,B|144:192,2,50,0|0|8
48,144,26996,6,0,B|48:272|240:272|240:128,1,300
56,56,28684,6,0,B|160:56,1,100,8|0
256,56,29359,1,8
360,56,29697,2,0,B|480:56,1,100,0|8
408,144,30372,1,0
304,144,30710,1,8
336,240,31047,2,0,B|304:192|288:200|272:376|256:360|240:376|224:200|208:184|168:248,1,300,0|4
208,152,32375,5,0
304,152,32712,1,0
120,272,34060,6,0,B|256:416|392:264,1,300
432,192,35408,1,0
336,192,35745,1,0
384,104,36082,1,0
384,104,36419,2,0,B|248:-40|112:112,1,300
256,192,37768,12,4,39116
392,112,39439,6,0,B|256:-32|120:120,1,300
80,192,40787,1,0
176,192,41124,1,0
128,280,41461,1,0
128,280,41798,2,0,B|264:424|400:272,1,300
256,192,43144,12,4,44492
256,296,44829,6,0,B|256:360,4,50
256,192,45839,1,4
320,120,46176,6,0,B|328:40|176:40|184:128,1,200
152,216,47187,2,0,B|192:344|328:344|360:208,1,300
256,192,48535,12,4,49882
256,104,50219,6,0,B|256:224,3,100,0|0|0|4
168,152,51567,6,0,B|168:264,3,100
344,152,53251,2,0,B|344:272,2,100
256,104,54262,1,0
256,208,54619,5,8
256,208,54788,1,4
152,208,55125,1,0
104,296,55462,2,0,B|208:336|320:288,1,200
256,48,56978,6,0,B|256:120,3,50,8|0|0|4
160,128,57820,2,0,B|256:272|368:112,1,250
424,200,58999,6,0,B|344:280|248:304,1,200
255,302,60347,2,0,B|165:279|85:199,1,200
40,104,61357,5,0
128,64,61694,1,0
208,120,62031,1,0
256,208,62368,1,0
256,208,63042,2,0,B|296:96|400:56,1,200
464,192,64221,1,0
464,192,64389,1,4
320,328,65063,6,0,B|200:328,3,100,8|0|8|0
120,328,66411,2,0,B|56:224|128:120,1,200,8|8
296,56,67758,6,0,B|360:56,3,50,8|0|0|0
448,56,68600,1,0
448,160,68937,2,0,B|288:160,1,150
256,72,69779,1,0
256,72,70285,1,0
256,320,71127,5,0
256,320,71295,1,0
208,232,71632,2,0,B|328:232,1,100
256,88,72475,5,0
256,88,72643,1,0
256,192,72980,12,4,74496
256,192,75170,5,0
208,104,75507,1,0
304,104,75843,1,0
448,256,76544,2,0,B|256:344|48:248,1,400
256,224,78566,1,2
24,32,79577,6,0,B|208:136,1,200,0|2
256,208,80589,1,2
320,128,80926,2,0,B|504:24,1,200,2|0
448,224,82274,5,2
352,224,82611,1,2
256,224,82948,1,0
160,224,83285,1,0
64,224,83600,1,0
256,192,83937,12,0,86970
256,192,87813,12,0,89161
