osu file format v7

[General]
AudioFilename: CRAWL.mp3
AudioLeadIn: 2000
PreviewTime: 54616
Countdown: 1
SampleSet: Normal
StackLeniency: 0.7
Mode: 0
LetterboxInBreaks: 1

[Editor]
Bookmarks: 9776,47187
DistanceSpacing: 0.899999976158142
BeatDivisor: 4
GridSize: 8

[Metadata]
Title:CRAWL (TV Size)
Artist:VELTPUNCH
Creator:tmokb93
Version:Armin no Jutsu
Source:Nabari No Ou
Tags:Yuhki Kamatani Kuroneko-sHerald Armin

[Difficulty]
HPDrainRate:7
CircleSize:4
OverallDifficulty:7
SliderMultiplier:1.7
SliderTickRate:2

[Events]
//Background and Video events
0,0,"bg armin.jpg"
Video,0,"02 Nabari no Ou - Arriva Raimei - DVDnux By Lain.avi"
//Break Periods
//Storyboard Layer 0 (Background)
//Storyboard Layer 1 (Fail)
//Storyboard Layer 2 (Pass)
//Storyboard Layer 3 (Foreground)
//Storyboard Sound Samples
//Background Colour Transformations
3,100,255,255,255

[TimingPoints]
322,337.647720877884,4,1,0,80,1,0
32375,337.078651685393,4,1,0,80,1,0
32712,337.078651685393,4,1,0,80,1,0
39439,336.889387984279,4,1,0,80,1,0
54283,336.889387984279,4,1,0,80,1,1
75085,-100,4,2,0,80,0,1
75338,-100,4,1,0,80,0,1
75870,337.078651685393,4,2,0,80,1,0
76038,-100,4,2,0,80,0,0
76122,-100,4,1,0,80,0,0
76207,-200,4,1,0,80,0,0
76291,-100,4,2,0,80,0,0
76881,-100,4,1,0,80,0,0
76965,-200,4,2,0,80,0,0
77555,-200,4,1,0,80,0,0
77639,-200,4,2,0,80,0,0
78229,-100,4,1,0,80,0,0
78313,-200,4,2,0,80,0,0
78903,-200,4,1,0,80,0,0
78987,-200,4,2,0,80,0,0
79577,-200,4,1,0,80,0,0
79662,-200,4,2,0,80,0,0
80252,-200,4,1,0,80,0,0
80336,-200,4,2,0,80,0,0
80926,-200,4,1,0,80,0,0
81010,-200,4,2,0,80,0,0
82274,-200,4,1,0,80,0,0
83600,337.078651685393,4,1,0,80,1,0
87982,-100,4,2,0,0,0,0

[Colours]
Combo1 : 37,54,205
Combo2 : 234,203,28
Combo3 : 233,1,6
Combo4 : 13,198,22

[HitObjects]
216,160,322,1,4
192,88,490,1,0
256,40,659,1,8
320,88,828,1,0
296,160,997,1,0
323,326,1334,2,0,B|308:282|249:269|206:276|187:330|187:330,1,170,8|4
260,363,1841,1,0
260,362,2010,2,0,B|260:170|260:170,1,170,8|0
376,88,2685,5,8
376,88,3023,1,0
312,40,3192,1,0
256,96,3360,1,8
200,40,3529,1,0
136,88,3698,1,0
160,240,4036,5,8
160,240,4204,2,0,B|224:312,1,85
295,303,4542,2,0,B|352:240,1,85,0|8
336,160,4880,1,0
336,160,5049,2,0,B|249:109|162:169,1,170,0|8
256,24,5724,5,0
184,48,5893,1,0
256,24,6062,1,8
328,48,6230,1,0
323,124,6399,2,0,B|308:168|249:181|206:174|187:120|187:120,2,170,0|8|0
364,196,7243,5,0
296,240,7412,1,8
216,240,7581,1,0
148,196,7750,1,0
171,346,8087,2,0,L|347:346|347:346,1,170,8|0
368,272,8594,5,0
296,240,8763,1,8
224,272,8932,1,0
152,240,9100,1,0
256,128,9438,1,8
256,192,9776,12,2,10789
150,88,11126,6,0,B|192:26|256:10|325:26|368:96,1,255
363,88,11802,1,2
256,192,12139,1,8
150,290,12477,2,0,B|192:352|256:368|325:352|368:282,2,255,0|0|8
128,136,13827,5,2
256,48,14165,1,8
384,136,14503,1,2
296,256,14840,5,10
320,328,15009,1,0
256,376,15178,1,2
192,328,15347,1,0
216,256,15516,1,8
256,104,15853,5,2
256,104,16191,1,8
318,148,16360,1,0
318,148,16529,2,0,B|354:208|333:284|252:307|175:286|148:186|211:134,1,340,2|2
120,272,17542,1,8
256,344,17879,1,2
392,272,18217,1,8
323,135,18554,6,0,B|308:179|249:192|206:185|187:131|187:131,1,170,2|8
256,96,19061,1,0
256,96,19230,2,0,B|256:280|256:280,1,170,2|8
384,184,19905,1,2
128,184,20243,1,8
256,352,20580,1,2
352,136,21593,5,2
352,136,21762,1,0
352,136,21931,2,0,B|353:43|289:27|257:11|257:11|225:27|145:43|161:155|161:155,1,340,8|2
220,168,22775,2,0,L|204:208|220:248,1,85,0|8
292,248,23113,2,0,L|307:209|291:169,1,85,0|2
432,144,23619,5,8
256,32,23957,1,2
80,144,24294,1,8
172,326,24632,2,0,B|356:326|356:326,1,170,2|8
392,240,25139,5,0
392,160,25307,1,2
328,200,25476,1,0
320,120,25645,1,8
256,160,25814,1,0
192,120,25983,1,2
184,200,26152,1,0
120,160,26320,1,8
120,240,26489,1,0
188,276,26658,6,0,B|203:320|262:333|305:326|324:272|324:272,1,170,2|8
382,141,27333,2,0,B|361:53|243:-16|135:46|122:166|122:166,2,340,2|8|2
384,296,29022,1,8
256,216,29359,1,2
128,296,29697,1,8
72,248,29866,5,0
144,224,30034,2,0,B|76:117|201:68|201:68,1,170,2|8
256,104,30541,1,0
333,79,30710,2,0,B|423:137|365:229,1,170,2|8
256,344,31385,1,4
72,72,31723,1,12
440,72,32060,1,4
257,195,32375,5,2
257,195,32543,1,0
318,148,32712,2,0,B|354:208|333:284|252:307|175:286|148:186|211:134,1,340,2|2
198,146,33723,1,8
125,280,34060,1,0
179,333,34228,1,0
256,352,34397,1,8
333,333,34565,1,0
387,280,34734,1,0
256,208,35071,1,8
381,130,35408,6,0,B|360:42|242:-27|134:35|121:155|121:155,1,340,2|2
150,296,36419,1,8
150,296,36588,1,0
150,296,36756,2,0,B|192:358|256:374|325:358|368:288,1,255,2|0
363,296,37431,1,8
256,192,37768,5,2
150,94,38105,2,0,B|192:32|256:16|325:32|368:102,2,255,2|0|8
216,232,39439,1,0
192,304,39607,1,0
256,352,39775,1,8
320,304,39944,1,0
296,232,40112,1,0
376,112,40449,5,8
256,24,40786,1,2
136,112,41123,1,8
189,255,41460,2,0,B|204:299|263:312|306:305|325:251|325:251,1,170,2|8
392,288,41965,1,0
392,288,42134,2,0,B|344:391|205:406|143:341|112:278,1,340,2|8
256,192,43144,5,2
256,192,43313,1,0
256,192,43481,1,2
256,192,43650,12,8,44492
376,320,44829,5,0
320,272,44997,1,0
256,320,45166,1,8
192,272,45334,1,0
136,320,45503,1,0
256,224,45839,5,8
128,136,46176,1,2
256,56,46513,1,8
384,136,46850,1,2
408,272,47187,2,0,B|359:227|308:279|308:279|284:300|259:307|227:302|202:277|202:277|149:230|94:275|94:275,1,340,10|8
256,224,48198,1,8
192,88,48535,5,2
256,56,48703,1,0
320,88,48871,1,2
256,192,49040,12,8,49882
192,168,50219,6,0,B|173:147|176:104|194:84,1,85
256,128,50556,1,8
320,88,50724,2,0,B|339:109|336:152|318:172,1,85
336,320,51230,2,0,B|280:304|280:304|232:336|232:336|176:320,1,170,8|0
112,280,51735,5,0
128,208,51903,1,8
184,152,52072,1,0
256,128,52240,1,8
328,152,52409,1,0
384,208,52577,1,8
400,280,52746,1,0
328,336,52914,5,8
296,312,52998,1,0
256,296,53083,1,0
216,312,53167,1,0
184,336,53251,1,8
256,200,53588,1,8
256,200,53756,1,0
192,152,53925,2,0,B|232:136|256:98|256:98|272:136|327:155,1,170,8|6
320,240,54451,5,0
256,280,54619,1,2
192,240,54788,1,0
117,119,55125,2,0,B|94:76|124:29|162:3|212:27|212:27,1,170,8|0
184,96,55630,1,2
256,128,55799,1,0
328,96,55967,1,2
300,26,56135,2,0,B|347:10|388:29|417:76|396:124,1,170,0|0
397,119,56641,1,8
328,256,56978,5,2
256,288,57146,1,0
184,256,57315,1,2
189,179,57483,2,0,B|204:135|263:122|306:129|325:183|325:183,2,170,0|2|8
144,112,58325,1,2
256,32,58662,1,0
368,112,58999,1,2
368,112,59167,1,0
383,253,59504,5,10
383,253,59673,2,0,B|366:335|244:410|130:341|121:229|121:229,1,340,0|2
193,234,60515,2,0,B|203:271|257:307|312:283|323:229|323:229,1,170,0|8
257,212,61020,1,2
152,120,61357,5,0
256,32,61694,1,2
360,120,62031,1,0
256,192,62368,12,2,65063
192,296,65400,5,0
192,296,65568,2,0,B|232:312|256:350|256:350|272:312|327:293,1,170,2|0
256,248,66074,1,0
323,216,66242,2,0,B|308:172|249:159|206:166|187:220|187:220,2,170,2|0|2
292,81,67253,1,8
220,81,67421,1,8
152,192,67758,5,2
88,224,67927,1,0
120,288,68095,1,2
184,256,68263,1,0
256,360,68600,1,2
328,256,68937,1,0
392,288,69106,1,2
424,224,69274,1,0
360,192,69443,1,2
300,69,69779,6,0,L|188:69|188:69,1,85,2|0
104,160,70285,1,2
104,160,70453,2,0,B|153:115|204:167|204:167|228:188|253:195|285:190|310:165|310:165|363:118|418:163|418:163,1,340,2|8
411,158,71295,1,2
296,288,71632,2,0,L|256:304|216:288,1,85,2|0
80,56,72475,5,2
80,56,72643,1,0
432,56,72980,1,2
432,56,73148,1,0
256,192,73317,12,2,75170
256,104,75507,5,0
256,104,75870,1,6
326,145,76207,2,0,B|307:182|255:199|205:190|176:126,1,170
152,224,77218,2,0,B|128:320|128:320,1,85
216,296,77892,2,0,L|254:311|294:295,1,85
380,306,78566,2,0,B|360:224,1,85
384,144,79240,5,0
336,72,79577,1,0
256,40,79914,1,0
176,72,80252,1,0
128,144,80589,1,0
128,232,80926,2,0,B|145:314|267:389|381:320|390:208|390:208,1,340
320,176,82611,5,4
256,112,82948,1,0
192,176,83285,1,0
256,240,83600,1,8
256,240,83937,5,4
312,296,84105,1,0
256,352,84274,1,8
200,296,84442,1,0
176,224,84611,5,0
104,208,84779,1,0
96,136,84948,1,8
168,104,85116,1,0
216,160,85285,1,0
256,96,85453,1,0
296,160,85622,1,8
344,104,85791,1,0
416,136,85959,1,0
408,208,86128,1,0
336,224,86296,1,8
296,288,86465,6,0,L|311:326|295:366,1,85
216,368,86802,2,0,L|200:328|215:289,1,85,0|8
176,224,87139,1,0
192,152,87307,1,0
256,104,87476,1,0
320,152,87644,1,8
336,224,87813,1,4
256,192,87982,12,0,89667
