osu file format v5

[General]
AudioFilename: Half Life 2- Episode 2 Soundtrack- 'Sector Sweep'.mp3
AudioLeadIn: 0
PreviewTime: -1
Countdown: 1
SampleSet: Normal
StackLeniency: 0.7
Mode: 0
LetterboxInBreaks: 1
EditorDistanceSpacing: 0.800000011920929

[Metadata]
Title:Half Life 2 Episode 2 OST - "Sector Sweep"
Artist:VALVE Orchestra
Creator:geogzm
Version:Pachira/George doing slightly badly difficulty (Easy)
Source:Half Life 2: Episode Two
Tags:half life 2 episode two ost sector sweep valve

[Difficulty]
HPDrainRate:4
CircleSize:6
OverallDifficulty:0
SliderMultiplier:1.2
SliderTickRate:2

[Events]
//Background and Video events
1,0,"New HL2 Episode 2 trailer.wmv"
//Break Periods
2,89231,92670
//Storyboard Layer 0 (Background)
4,0,1,"stencilmetrocoptn1.png",320,240 M,0,10000,10000,550,391,550,391 S,0,10000,10000,0.4572799,0.4572799
//Storyboard Layer 1 (Failing)
//Storyboard Layer 2 (Passing)
//Storyboard Layer 3 (Foreground)
//Storyboard Sound Samples
//Background Colour Transformations
3,100,255,255,255

[TimingPoints]
0,967.741935483871,4,1,0,100,1,0

[Colours]
Combo1 : 255,150,0
Combo2 : 176,222,247
Combo3 : 193,184,0
Combo4 : 0,0,0

[HitObjects]
256,192,0,12,0,2903
256,192,3870,12,0,6774
32,128,7741,6,0,B|224:128|288:128|256:320|288:320,1,360
384,320,11612,2,0,B|128:320|160:64,1,360
32,224,15483,5,0
224,224,16451,1,0
96,192,17419,1,0
288,224,18387,1,0
256,288,19354,1,0
160,288,20322,1,0
64,288,21290,1,0
96,224,22258,1,0
128,224,23225,1,0
256,256,24193,1,0
256,256,25161,1,0
256,256,26129,1,0
256,256,27096,1,0
352,192,28064,1,0
352,128,29032,1,0
192,160,30000,1,0
160,256,30967,1,0
96,192,31935,2,0,B|352:192,1,240
352,192,34838,2,0,B|64:192,2,240
32,64,39677,2,0,B|192:64|160:320|320:256|352:128|352:128|96:128|96:128|96:288,1,720
256,192,46451,12,0,54193
64,128,58064,5,0
224,128,59032,1,0
256,128,60000,1,0
160,160,61935,5,0
320,224,62903,1,0
256,160,63870,1,0
192,160,64838,1,0
192,160,65806,1,0
224,160,66774,1,0
224,160,67741,1,0
256,160,68709,1,0
288,160,69677,1,0
320,160,70645,1,0
352,192,71612,1,0
256,256,72580,1,0
256,160,73548,1,0
192,96,74516,1,0
384,288,75483,1,0
320,160,76451,1,0
64,64,77419,2,0,B|352:256|416:160|224:32|96:128|96:256|192:288|224:288,2,480
96,192,87096,2,0,B|416:192,1,240
128,192,93870,6,0,B|448:192,1,240
96,192,98709,1,0
128,192,100645,5,0
224,192,102580,1,0
288,192,103548,1,0
352,192,104516,1,0
384,192,106451,1,0
352,192,107419,1,0
224,192,108387,1,0
64,192,110322,1,0
160,192,111290,1,0
224,192,112258,1,0
224,192,114193,1,0
288,192,115161,1,0
192,128,116129,1,0
256,192,117096,1,0
96,192,118064,1,0
160,96,119032,1,0
128,160,120000,1,0
160,192,120967,1,0
192,160,121935,1,0
224,160,122903,1,0
224,192,123870,1,0
192,160,124838,1,0
224,192,125806,1,0
256,224,126774,1,0
192,192,127741,1,0
288,192,128709,1,0
224,192,129677,5,0
160,192,130645,5,0
64,192,131612,1,0
192,128,132580,1,0
256,160,133548,5,0
224,160,134516,1,0
160,160,135483,5,0
256,160,136451,1,0
288,160,137419,1,0
128,160,138387,1,0
96,160,139354,5,0
224,160,140322,1,0
256,160,141290,1,0
64,64,143225,2,0,B|64:288|256:256|352:192,1,360
64,160,148064,1,0
96,160,151935,1,0
32,160,154838,2,0,B|448:160|384:320|32:320,1,600
256,192,160645,12,0,162580
256,192,162580,12,0,165483
256,192,165483,12,0,166451
