osu file format v13

[General]
AudioFilename: 01 Butterfly Core.mp3
AudioLeadIn: 0
PreviewTime: 61261
Countdown: 1
SampleSet: Normal
StackLeniency: 0.7
Mode: 0
LetterboxInBreaks: 1
WidescreenStoryboard: 0

[Editor]
Bookmarks: 14285,28336,39564,50792,83583,98145
DistanceSpacing: 0.8
BeatDivisor: 4
GridSize: 4
TimelineZoom: 2.5

[Metadata]
Title:Butterfly Core(TV Size)
TitleUnicode:Butterfly Core(TV Size)
Artist:VALSHE
ArtistUnicode:VALSHE
Creator:S h i o n
Version:Insane
Source:Detective Conan
Tags:minato niconico douga
BeatmapID:475635
BeatmapSetID:200737

[Difficulty]
HPDrainRate:8
CircleSize:4
OverallDifficulty:8
ApproachRate:9
SliderMultiplier:1.7
SliderTickRate:1

[Events]
//Background and Video events
Video,27229,"HD-Butterfly Core 动漫-名侦探柯南- OP37--音悦Tai.avi"
0,0,"BC~1.jpg",0,0
//Break Periods
//Storyboard Layer 0 (Background)
//Storyboard Layer 1 (Fail)
//Storyboard Layer 2 (Pass)
//Storyboard Layer 3 (Foreground)
//Storyboard Sound Samples
//Background Colour Transformations
3,100,163,162,255

[TimingPoints]
-493,350.877192982456,4,2,1,20,1,0
910,-166.666666666667,4,2,1,30,0,0
3542,-166.666666666667,4,2,1,20,0,0
3892,-166.666666666667,4,2,1,30,0,0
4243,-166.666666666667,4,2,1,20,0,0
4419,-166.666666666667,4,2,1,30,0,0
4594,-166.666666666667,4,2,1,20,0,0
4770,-166.666666666667,4,2,1,30,0,0
4945,-166.666666666667,4,2,1,20,0,0
6699,-166.666666666667,4,2,1,20,0,0
6875,-166.666666666667,4,2,1,25,0,0
7401,-166.666666666667,4,2,1,20,0,0
7577,-166.666666666667,4,2,1,30,0,0
7752,-166.666666666667,4,2,1,30,0,0
8103,-166.666666666667,4,2,1,40,0,0
8454,-166.666666666667,4,2,1,30,0,0
8629,-166.666666666667,4,2,1,40,0,0
9156,-166.666666666667,4,2,1,30,0,0
9506,-166.666666666667,4,2,1,40,0,0
9682,-166.666666666667,4,2,1,45,0,0
10208,-166.666666666667,4,2,1,30,0,0
12138,-166.666666666667,4,2,1,5,0,0
12489,-166.666666666667,4,2,1,50,0,0
12840,-100,4,1,0,50,0,0
24770,-100,4,2,1,50,0,0
27050,-66.6666666666667,4,2,1,50,0,0
27226,-66.6666666666667,4,2,1,5,0,0
27314,-166.666666666667,4,2,1,5,0,0
27577,-100,4,2,1,50,0,0
38805,-100,4,2,1,30,0,0
39068,-100,4,2,1,50,0,0
44419,-100,4,2,1,30,0,0
44682,-100,4,2,1,50,0,0
47226,-100,4,2,1,35,0,0
47577,-100,4,2,1,40,0,0
47928,-100,4,2,1,45,0,0
48454,-100,4,2,1,50,0,0
50384,-166.666666666667,4,2,1,50,0,0
55296,-100,4,1,0,50,0,0
60910,-66.6666666666667,4,1,0,50,0,0
61261,-100,4,1,0,50,0,1
85121,-100,4,1,0,50,0,0
86173,-66.6666666666667,4,1,0,50,0,0
86564,350.877192982456,4,1,0,50,1,0
87269,-100,4,1,0,50,0,0
91787,-66.6666666666667,4,1,0,50,0,0

[Colours]
Combo1 : 86,86,86
Combo2 : 157,0,0
Combo3 : 192,192,192
Combo4 : 0,97,193

[HitObjects]
80,192,911,5,0,0:0:0:0:
120,264,1261,1,0,0:0:0:0:
192,296,1613,2,0,P|244:312|296:288,1,101.999996887207,0|0,0:0|0:0,0:0:0:0:
308,260,2138,2,0,L|324:148,1,101.999996887207,0|0,0:0|0:0,0:0:0:0:
176,64,2664,2,0,P|226:62|268:92,1,101.999996887207,0|0,0:0|0:0,0:0:0:0:
176,288,3542,6,0,P|124:292|84:264,1,101.999996887207,2|0,0:0|0:0,0:0:0:0:
88,184,4068,2,0,L|37:189,1,50.9999984436036,0|2,0:0|0:0,0:0:0:0:
32,80,4419,2,0,L|82:74,1,50.9999984436036,0|2,0:0|0:0,0:0:0:0:
184,112,4770,1,0,0:0:0:0:
224,184,4946,2,0,L|208:304,1,101.999996887207,2|0,0:0|0:0,0:0:0:0:
328,336,5472,1,0,0:0:0:0:
328,336,5648,2,0,L|312:232,1,101.999996887207,2|0,0:0|0:0,0:0:0:0:
488,140,6174,6,0,P|441:149|400:204,1,101.999996887207
312,136,6700,1,2,0:0:0:0:
268,68,6875,2,0,P|236:60|204:68,1,50.9999984436036,0|0,0:0|0:0,0:0:0:0:
144,184,7226,2,0,P|169:185|193:178,1,50.9999984436036,0|2,0:0|0:0,0:0:0:0:
128,104,7577,1,0,0:0:0:0:
104,248,7753,6,0,L|88:360,1,101.999996887207,2|0,0:0|0:0,0:0:0:0:
168,320,8279,2,0,P|199:319|224:312,1,50.9999984436036,0|2,0:0|0:0,0:0:0:0:
364,164,8630,2,0,P|316:192|292:244,1,101.999996887207
328,320,9156,5,2,0:0:0:0:
192,228,9507,1,0,0:0:0:0:
240,160,9683,2,0,L|232:56,1,101.999996887207,0|0,0:0|0:0,0:0:0:0:
344,196,10209,2,0,L|328:316,1,101.999996887207,2|0,0:0|0:0,0:0:0:0:
308,324,10647,5,0,0:0:0:0:
292,336,10735,1,8,0:0:0:0:
256,192,10910,12,0,12139,0:0:0:0:
240,320,12490,6,0,P|283:323|328:296,1,76.4999976654053
344,264,12840,5,0,0:0:0:0:
312,128,13016,1,0,0:0:0:0:
368,64,13191,1,0,0:0:0:0:
240,176,13367,5,0,0:0:0:0:
240,176,13454,1,0,0:0:0:0:
240,176,13542,2,0,B|188:160|188:160|104:184,1,127.5
24,64,13893,2,0,P|64:72|120:56,1,85,2|0,0:0|0:0,0:0:0:0:
192,80,14244,1,2,0:0:0:0:
192,80,14419,2,0,L|176:168,1,85,2|0,0:0|0:0,0:0:0:0:
312,320,14770,6,0,P|317:257|285:203,1,127.5,2|0,0:0|0:0,0:0:0:0:
144,240,15121,2,0,P|170:269|216:288,1,85,2|0,0:0|0:0,0:0:0:0:
168,152,15472,1,0,0:0:0:0:
168,152,15560,1,0,0:0:0:0:
168,152,15647,2,0,P|126:139|72:152,1,85,0|2,0:0|0:0,0:0:0:0:
96,312,15998,2,0,B|152:320|152:320|216:288,1,127.5,2|0,0:0|0:0,0:0:0:0:
256,272,16349,6,0,P|271:227|256:168,1,85
160,72,16700,2,0,P|156:113|170:153,1,85,2|0,0:0|0:0,0:0:0:0:
364,188,17051,1,0,0:0:0:0:
260,92,17226,1,2,0:0:0:0:
208,192,17402,2,0,L|200:336,1,127.5
240,328,17753,2,0,P|288:336|328:312,1,85,0|2,0:0|0:0,0:0:0:0:
456,200,18103,2,0,P|415:190|376:207,1,85,0|0,0:0|0:0,0:0:0:0:
344,232,18367,5,0,0:0:0:0:
344,232,18454,1,2,0:0:0:0:
204,164,18630,1,0,0:0:0:0:
204,164,18718,1,0,0:0:0:0:
204,164,18805,2,0,B|148:168|148:168|84:120,1,127.5,2|0,0:0|0:0,0:0:0:0:
64,92,19156,6,0,L|88:4,1,85
32,232,19507,2,0,L|64:328,1,85,2|0,0:0|0:0,0:0:0:0:
232,288,19858,1,0,0:0:0:0:
232,288,20033,2,0,L|148:260,1,85,2|0,0:0|0:0,0:0:0:0:
64,104,20384,6,0,P|131:105|184:144,1,127.5,2|0,0:0|0:0,0:0:0:0:
168,176,20735,2,0,P|160:216|168:264,1,85,2|0,0:0|0:0,0:0:0:0:
340,332,21086,1,0,0:0:0:0:
340,332,21174,1,0,0:0:0:0:
340,332,21261,2,0,P|316:280|284:264,1,85,0|2,0:0|0:0,0:0:0:0:
168,56,21612,6,0,B|184:116|184:116|236:160,1,127.5,2|0,0:0|0:0,0:0:0:0:
280,152,21963,2,0,P|320:144|368:152,1,85
320,304,22314,6,0,P|285:279|259:245,1,85,2|0,0:0|0:0,0:0:0:0:
176,136,22665,1,0,0:0:0:0:
176,136,22840,2,0,P|176:88|192:56,1,85,2|0,0:0|0:0,0:0:0:0:
400,152,23191,6,0,P|344:168|264:136,1,127.5,2|0,0:0|0:0,0:0:0:0:
264,96,23542,1,2,0:0:0:0:
356,116,23718,1,0,0:0:0:0:
432,256,23893,1,2,0:0:0:0:
432,256,23981,1,0,0:0:0:0:
432,256,24068,2,0,P|444:300|424:344,1,85,0|0,0:0|0:0,0:0:0:0:
312,284,24332,1,0,0:0:0:0:
336,256,24419,2,0,P|384:248|428:256,1,85,0|0,0:0|0:0,0:0:0:0:
292,312,24770,5,2,0:0:0:0:
160,232,24946,1,0,0:0:0:0:
264,120,25121,1,0,0:0:0:0:
296,148,25296,1,2,0:0:0:0:
248,80,25471,5,0,0:0:0:0:
132,212,25647,1,0,0:0:0:0:
88,200,25822,1,0,0:0:0:0:
88,200,25998,6,0,B|84:132|56:84|56:84|108:52,1,170,2|0,0:0|0:0,0:0:0:0:
208,88,26436,1,0,0:0:0:0:
224,108,26525,2,0,P|236:144|216:208,1,85,0|0,0:0|0:0,0:0:0:0:
256,192,27050,12,0,27577,0:0:0:0:
420,92,27928,6,0,P|376:80|328:92,1,85,2|0,0:0|0:0,0:0:0:0:
276,208,28279,2,0,P|316:219|358:212,1,85,0|0,0:0|0:0,0:0:0:0:
228,176,28630,2,0,L|244:324,1,127.5,2|0,0:0|0:0,0:0:0:0:
296,344,28981,2,0,P|376:348|444:288,1,170,0|2,0:0|0:0,0:0:0:0:
468,160,29507,2,0,P|385:157|322:211,1,170
248,168,29946,1,0,0:0:0:0:
236,156,30033,6,0,L|224:260,1,85,2|0,0:0|0:0,0:0:0:0:
120,280,30384,2,0,P|72:288|24:276,1,85
140,192,30735,2,0,P|183:214|214:252,1,85,2|0,0:0|0:0,0:0:0:0:
48,188,31086,1,0,0:0:0:0:
48,188,31261,2,0,L|64:72,1,85,0|2,0:0|0:0,0:0:0:0:
240,176,31613,2,0,B|252:264|252:264|196:336,1,170
128,60,32139,1,2,0:0:0:0:
128,60,32314,2,0,B|196:88|196:88|288:48,1,170
344,104,32753,1,0,0:0:0:0:
364,116,32840,6,0,P|380:152|368:204,1,85,2|0,0:0|0:0,0:0:0:0:
224,308,33191,2,0,P|207:269|215:228,1,85
388,264,33542,2,0,L|288:260,1,85,2|0,0:0|0:0,0:0:0:0:
464,180,33893,1,0,0:0:0:0:
464,180,34068,2,0,L|376:144,1,85,0|2,0:0|0:0,0:0:0:0:
304,188,34419,1,0,0:0:0:0:
220,308,34595,2,0,P|176:324|64:268,1,170,0|2,0:0|0:0,0:0:0:0:
0,124,35121,2,0,P|81:109|150:155,1,170
176,236,35559,1,0,0:0:0:0:
204,232,35647,6,0,L|180:328,1,85,2|0,0:0|0:0,0:0:0:0:
352,336,35998,2,0,P|308:344|260:328,1,85
288,200,36349,1,2,0:0:0:0:
360,248,36525,1,0,0:0:0:0:
360,248,36700,2,0,P|401:239|432:196,1,85
312,112,37051,1,8,0:0:0:0:
360,248,37226,5,4,0:0:0:0:
248,144,37577,1,8,0:0:0:0:
428,268,37928,1,4,0:0:0:0:
240,240,38279,1,8,0:0:0:0:
240,240,38367,1,8,0:0:0:0:
240,240,38454,6,0,P|200:212|192:168,1,85,0|0,0:0|0:0,0:0:0:0:
128,52,38805,2,0,B|200:52|200:52|252:20,1,127.5,4|0,0:0|0:0,0:0:0:0:
300,36,39156,6,0,P|332:64|352:112,1,85,8|0,0:0|0:0,0:0:0:0:
276,240,39507,1,0,0:0:0:0:
224,172,39682,5,0,0:0:0:0:
256,288,39858,2,0,P|297:290|340:284,1,85,8|0,0:0|0:0,0:0:0:0:
476,148,40208,2,0,P|433:141|391:143,1,85,0|0,0:0|0:0,0:0:0:0:
376,228,40560,1,8,0:0:0:0:
216,216,40735,6,0,P|200:160|240:100,1,127.5
248,64,41086,2,0,L|163:53,1,85,0|8,0:0|0:0,0:0:0:0:
136,232,41437,1,0,0:0:0:0:
136,232,41612,2,0,B|80:252|80:252|8:240,1,127.5
48,200,41963,6,0,P|32:164|48:116,1,85,8|0,0:0|0:0,0:0:0:0:
172,80,42314,2,0,P|183:120|167:158,1,85,0|0,0:0|0:0,0:0:0:0:
224,280,42664,1,8,0:0:0:0:
292,232,42840,1,0,0:0:0:0:
460,304,43016,6,0,P|400:320|344:292,1,127.5,0|0,0:0|0:0,0:0:0:0:
292,232,43367,2,0,L|284:140,1,85,8|0,0:0|0:0,0:0:0:0:
448,160,43893,1,0,0:0:0:0:
328,96,44068,1,8,0:0:0:0:
328,96,44244,6,0,L|370:90,1,42.5
290,89,44419,2,0,P|267:146|292:204,1,127.5,4|0,0:0|0:0,0:0:0:0:
268,56,44770,6,0,L|184:60,1,85,8|0,0:0|0:0,0:0:0:0:
96,204,45121,2,0,L|180:212,1,85
80,112,45471,2,0,L|88:16,1,85,8|0,0:0|0:0,0:0:0:0:
152,284,45823,5,0,0:0:0:0:
80,112,45998,1,0,0:0:0:0:
164,132,46174,1,8,0:0:0:0:
264,304,46349,2,0,P|216:268|220:200,1,127.5
252,184,46700,1,0,0:0:0:0:
388,172,46875,1,8,0:0:0:0:
396,196,46963,1,0,0:0:0:0:
408,220,47051,5,0,0:0:0:0:
408,220,47139,1,0,0:0:0:0:
408,220,47226,2,0,L|496:236,1,85,12|0,0:0|0:0,0:0:0:0:
308,332,47577,2,0,L|408:308,1,85,12|0,0:0|0:0,0:0:0:0:
176,228,47928,2,0,L|264:244,1,85,12|0,0:0|0:0,0:0:0:0:
288,152,48191,5,0,0:0:0:0:
304,132,48279,2,0,P|299:83|268:52,1,85,8|4,0:0|0:0,0:0:0:0:
144,208,48805,5,0,0:0:0:0:
168,196,48893,1,0,0:0:0:0:
192,184,48981,1,8,0:0:0:0:
192,184,49156,5,0,0:0:0:0:
328,216,49331,1,8,0:0:0:0:
288,348,49506,1,0,0:0:0:0:
156,312,49682,1,8,0:0:0:0:
156,312,49857,2,0,P|112:308|64:304,1,85
108,84,50384,5,2,0:0:0:0:
100,212,50735,2,0,P|152:216|192:176,1,101.999996887207,8|0,0:0|0:0,0:0:0:0:
288,28,51262,2,0,P|252:60|240:116,1,101.999996887207,2|0,0:0|0:0,0:0:0:0:
232,188,51700,1,0,0:0:0:0:
256,204,51788,6,0,P|288:204|320:200,1,50.9999984436036,2|0,0:0|0:0,0:0:0:0:
344,336,52139,2,0,P|318:338|293:337,1,50.9999984436036,8|0,0:0|0:0,0:0:0:0:
204,272,52489,1,0,0:0:0:0:
400,296,52841,6,0,P|430:247|424:188,1,101.999996887207,2|0,0:0|0:0,0:0:0:0:
328,76,53367,1,0,0:0:0:0:
264,136,53542,2,0,P|264:161|280:192,2,50.9999984436036,8|0|0,0:0|0:0|0:0,0:0:0:0:
344,248,54069,2,0,L|308:364,1,101.999996887207,8|0,0:0|0:0,0:0:0:0:
232,288,54507,1,0,0:0:0:0:
200,280,54595,6,0,L|188:216,1,50.9999984436036,8|0,0:0|0:0,0:0:0:0:
60,172,54946,2,0,L|69:222,1,50.9999984436036,8|0,0:0|0:0,0:0:0:0:
172,116,55296,5,0,0:0:0:0:
172,116,55384,1,0,0:0:0:0:
172,116,55472,1,0,0:0:0:0:
172,116,55560,1,0,0:0:0:0:
172,116,55647,6,0,B|200:88|200:88|200:36,1,85
204,232,55998,2,0,B|204:280|204:280|232:332,1,85
348,256,56349,2,0,B|392:256|392:256|424:220,1,85
396,56,56700,2,0,B|352:56|352:56|324:86,1,85,0|0,0:0|0:0,0:0:0:0:
260,164,56963,1,0,0:0:0:0:
248,188,57051,6,0,P|240:232|268:288,1,85
408,340,57402,2,0,P|416:296|388:240,1,85
328,144,57753,5,0,0:0:0:0:
172,180,57928,1,0,0:0:0:0:
224,84,58103,1,0,0:0:0:0:
276,244,58279,1,0,0:0:0:0:
276,244,58367,1,0,0:0:0:0:
276,244,58455,6,0,P|204:288|128:248,1,170,2|0,0:0|0:0,0:0:0:0:
0,104,58981,2,0,P|68:60|143:93,1,170,2|0,0:0|0:0,0:0:0:0:
200,200,59419,1,0,0:0:0:0:
220,192,59507,6,0,L|208:292,1,85,0|6,0:0|0:0,0:0:0:0:
236,52,60033,1,0,0:0:0:0:
208,276,60209,2,0,L|116:272,1,85,0|4,0:0|0:0,0:0:0:0:
124,273,60735,1,0,0:0:0:0:
124,273,60823,1,0,0:0:0:0:
124,273,60911,6,0,B|172:244|172:244|248:276|248:276|316:268,1,191.250007295609
336,264,61262,6,0,B|358:224|358:224|356:172,1,85,0|2,0:0|0:0,0:0:0:0:
352,104,61612,1,0,0:0:0:0:
280,56,61788,1,2,0:0:0:0:
272,240,61964,2,0,P|336:264|424:224,1,170,0|0,0:0|0:0,0:0:0:0:
248,160,62489,1,2,0:0:0:0:
176,216,62665,6,0,B|136:216|136:216|88:192,1,85,0|2,0:0|0:0,0:0:0:0:
232,304,63016,2,0,P|200:320|152:312,1,85,0|0,0:0|0:0,0:0:0:0:
304,328,63279,1,0,0:0:0:0:
304,344,63367,2,0,L|400:320,1,85,0|0,0:0|0:0,0:0:0:0:
368,240,63718,1,0,0:0:0:0:
264,32,63893,6,0,L|296:216,1,170,2|0,0:0|0:0,0:0:0:0:
392,144,64419,2,0,P|432:160|456:208,1,85,0|2,0:0|0:0,0:0:0:0:
368,240,64770,1,0,0:0:0:0:
304,80,64946,1,2,0:0:0:0:
256,184,65121,1,0,0:0:0:0:
184,248,65296,5,2,0:0:0:0:
184,248,65384,1,0,0:0:0:0:
184,248,65472,2,0,B|136:248|136:248|104:224,1,85,0|2,0:0|0:0,0:0:0:0:
128,48,65823,1,0,0:0:0:0:
128,48,65998,2,0,L|112:136,1,85,2|0,0:0|0:0,0:0:0:0:
104,328,66349,5,0,0:0:0:0:
112,312,66437,1,0,0:0:0:0:
120,296,66525,2,0,L|126:254,1,42.5
200,352,66700,1,0,0:0:0:0:
224,336,66788,1,0,0:0:0:0:
240,320,66875,2,0,B|248:272|248:272|280:248,1,85
496,216,67226,6,0,P|440:240|368:216,1,127.5,2|0,0:0|0:0,0:0:0:0:
392,352,67577,2,0,L|376:256,1,85
400,152,67928,5,0,0:0:0:0:
256,136,68103,2,0,B|272:64|272:64|328:32,1,127.5
432,56,68454,2,0,P|413:93|375:111,1,85,0|0,0:0|0:0,0:0:0:0:
256,200,68805,2,0,B|208:160|208:160|184:88,1,127.5,2|0,0:0|0:0,0:0:0:0:
224,80,69156,5,0,0:0:0:0:
352,128,69332,1,0,0:0:0:0:
224,80,69507,1,0,0:0:0:0:
168,264,69683,6,0,P|224:304|320:272,1,170,4|0,0:0|0:0,0:0:0:0:
464,136,70209,2,0,P|393:93|316:122,1,170,4|0,0:0|0:0,0:0:0:0:
148,112,70647,1,0,0:0:0:0:
164,88,70735,2,0,L|252:72,1,85,0|4,0:0|0:0,0:0:0:0:
328,272,71261,5,0,0:0:0:0:
240,168,71437,1,0,0:0:0:0:
320,72,71612,1,0,0:0:0:0:
208,240,71788,5,0,0:0:0:0:
208,240,71875,1,0,0:0:0:0:
208,240,71963,2,0,L|136:248,1,42.5
112,144,72139,1,0,0:0:0:0:
112,144,72226,1,0,0:0:0:0:
112,144,72314,2,0,L|154:139,1,42.5
240,168,72489,6,0,B|269:197|269:197|320:200,1,85,4|2,0:0|0:0,0:0:0:0:
392,160,72840,2,0,P|432:136|456:80,1,85,0|2,0:0|0:0,0:0:0:0:
296,120,73192,2,0,L|336:320,1,170,2|0,0:0|0:0,0:0:0:0:
256,328,73718,5,2,0:0:0:0:
400,240,73893,1,0,0:0:0:0:
266,187,74068,1,2,0:0:0:0:
266,187,74244,2,0,P|230:199|176:192,1,85,0|2,0:0|0:0,0:0:0:0:
304,264,74507,1,0,0:0:0:0:
320,272,74595,2,0,L|312:360,2,85,0|0|0,0:0|0:0|0:0,0:0:0:0:
88,176,75121,6,0,P|188:166|232:112,1,170,2|0,0:0|0:0,0:0:0:0:
152,72,75647,1,0,0:0:0:0:
72,88,75823,1,2,0:0:0:0:
136,300,75998,2,0,P|188:300|220:272,1,85,0|2,0:0|0:0,0:0:0:0:
248,204,76349,1,0,0:0:0:0:
500,184,76525,6,0,B|418:197|418:197|328:176,1,170,2|0,0:0|0:0,0:0:0:0:
292,52,77051,2,0,L|384:76,1,85,0|2,0:0|0:0,0:0:0:0:
172,76,77402,5,0,0:0:0:0:
172,76,77489,1,0,0:0:0:0:
172,76,77577,1,0,0:0:0:0:
172,76,77665,1,0,0:0:0:0:
176,192,77753,1,0,0:0:0:0:
164,224,77840,1,0,0:0:0:0:
156,256,77928,1,0,0:0:0:0:
156,256,78016,1,0,0:0:0:0:
156,256,78103,6,0,L|182:336,1,85,0|2,0:0|0:0,0:0:0:0:
360,232,78454,2,0,L|296:296,1,85,0|2,0:0|0:0,0:0:0:0:
80,224,78805,2,0,P|108:251|168:256,1,85,0|2,0:0|0:0,0:0:0:0:
296,72,79156,2,0,P|248:88|216:128,1,85,2|0,0:0|0:0,0:0:0:0:
240,328,79507,6,0,P|280:316|311:288,1,85,0|2,0:0|0:0,0:0:0:0:
400,104,79858,2,0,L|380:194,1,85,0|2,0:0|0:0,0:0:0:0:
216,248,80209,2,0,L|248:360,1,85
112,48,80560,2,0,L|88:144,1,85,2|2,0:0|0:0,0:0:0:0:
176,160,80823,1,0,0:0:0:0:
208,168,80910,5,0,0:0:0:0:
296,64,81086,1,0,0:0:0:0:
432,56,81261,1,0,0:0:0:0:
344,160,81437,1,0,0:0:0:0:
248,112,81612,5,0,0:0:0:0:
192,288,81788,1,0,0:0:0:0:
384,256,81963,1,0,0:0:0:0:
176,200,82139,5,0,0:0:0:0:
176,200,82226,1,0,0:0:0:0:
176,200,82314,2,0,B|136:200|136:200|96:176,1,85,2|0,0:0|0:0,0:0:0:0:
216,304,82665,1,0,0:0:0:0:
216,304,82840,2,0,B|256:303|256:303|294:327,1,85,2|0,0:0|0:0,0:0:0:0:
424,204,83191,1,2,0:0:0:0:
424,204,83367,2,0,B|384:204|384:204|344:180,1,85
248,24,83718,6,0,L|264:136,1,85,4|0,0:0|0:0,0:0:0:0:
232,216,83981,1,0,0:0:0:0:
256,232,84068,2,0,P|295:243|344:224,1,85
368,80,84419,5,4,0:0:0:0:
136,136,84595,1,0,0:0:0:0:
344,200,84770,1,4,0:0:0:0:
248,104,84946,1,0,0:0:0:0:
220,236,85121,1,4,0:0:0:0:
220,236,86174,6,0,B|276:260|276:260|348:248,1,127.500004863739
416,344,86564,6,0,P|384:280|416:208,1,127.5
416,192,86914,2,0,L|432:88,1,85,2|0,0:0|0:0,0:0:0:0:
312,40,87265,1,0,0:0:0:0:
312,40,87441,2,0,L|299:124,1,85,2|0,0:0|0:0,0:0:0:0:
192,216,87792,6,0,P|172:277|208:336,1,127.5,2|0,0:0|0:0,0:0:0:0:
72,288,88142,2,0,P|104:304|160:296,1,85,2|0,0:0|0:0,0:0:0:0:
328,288,88493,1,2,0:0:0:0:
328,288,88581,1,0,0:0:0:0:
328,288,88669,2,0,P|289:270|248:276,1,85
104,184,89020,6,0,L|88:40,1,127.5,0|0,0:0|0:0,0:0:0:0:
136,56,89371,6,0,P|185:48|216:16,1,85
232,160,89721,1,2,0:0:0:0:
208,240,89897,1,0,0:0:0:0:
328,336,90072,2,0,P|381:334|437:268,1,127.5,2|0,0:0|0:0,0:0:0:0:
436,252,90423,2,0,L|420:164,1,85,0|2,0:0|0:0,0:0:0:0:
376,88,90686,5,0,0:0:0:0:
392,120,90774,1,0,0:0:0:0:
176,96,90949,1,2,0:0:0:0:
204,116,91037,1,0,0:0:0:0:
232,136,91125,2,0,B|272:140|272:140|316:104,1,85,0|0,0:0|0:0,0:0:0:0:
324,208,91388,5,0,0:0:0:0:
324,208,91476,2,0,L|340:260,1,42.5
264,260,91651,2,0,L|280:312,1,42.5,0|0,0:0|0:0,0:0:0:0:
364,352,91827,5,0,0:0:0:0:
188,244,92002,1,0,0:0:0:0:
