osu file format v14

[General]
AudioFilename: For Bloodlust and Anima.mp3
AudioLeadIn: 0
PreviewTime: 79306
Countdown: 1
SampleSet: Normal
StackLeniency: 0.7
Mode: 0
LetterboxInBreaks: 1
WidescreenStoryboard: 0

[Editor]
Bookmarks: 8195,15306,22417,36639,50861,65083,79306,93528,107750,121972,136194,203139,217361,245805,250250,264472,292916,307139
DistanceSpacing: 1
BeatDivisor: 3
GridSize: 8
TimelineZoom: 2

[Metadata]
Title:...for Bloodlust and Anima
TitleUnicode:...for Bloodlust and Anima
Artist:VAGUEDGE DIES FOR DIES IRAE
ArtistUnicode:VAGUEDGE DIES FOR DIES IRAE
Creator:aidanbh123
Version:Phantasmal Legacy
Source:東方Project
Tags:touhou eiyashou imperishable night th08 keine kamishirasawa nostalgic blood of the east old world ZUN Rib:y(uhki) Hull imperial circus dead decadence rsi
BeatmapID:1315792
BeatmapSetID:624285

[Difficulty]
HPDrainRate:4
CircleSize:4
OverallDifficulty:10
ApproachRate:10
SliderMultiplier:1.8
SliderTickRate:1

[Events]
//Background and Video events
0,0,"keine.jpg",0,0
//Break Periods
//Storyboard Layer 0 (Background)
//Storyboard Layer 1 (Fail)
//Storyboard Layer 2 (Pass)
//Storyboard Layer 3 (Foreground)
//Storyboard Sound Samples

[TimingPoints]
1084,444.444444444444,4,1,0,100,1,0
1084,-200,4,2,0,20,0,0
6417,-166.666666666667,4,2,0,20,0,0
6861,-142.857142857143,4,2,0,20,0,0
7306,-125,4,2,0,20,0,0
7750,-111.111111111111,4,2,0,20,0,0
8195,222.222222222222,4,1,0,100,1,0
18861,-83.3333333333333,4,1,0,100,0,0
22417,-83.3333333333333,4,1,0,100,0,1
36639,-100,4,1,0,100,0,0
50861,-83.3333333333333,4,1,0,100,0,0
65083,-100,4,1,0,100,0,0
79306,-100,4,1,0,100,0,1
84639,-100,4,1,0,100,0,0
86417,-100,4,1,0,100,0,1
91750,-100,4,1,0,100,0,0
93528,-142.857142857143,4,1,0,100,0,0
107750,-83.3333333333333,4,1,0,100,0,0
124861,-100,4,1,0,100,0,0
125083,-125,4,1,0,100,0,0
125306,-166.666666666667,4,1,0,100,0,0
125528,-83.3333333333334,4,1,0,100,0,0
131972,-100,4,1,0,100,0,0
132194,-125,4,1,0,100,0,0
132417,-166.666666666667,4,1,0,100,0,0
132639,-83.3333333333334,4,1,0,100,0,0
135528,-90.909090909091,4,1,0,100,0,0
135750,-100,4,1,0,100,0,0
135972,-111.111111111111,4,1,0,100,0,0
149972,272.727272727273,4,1,0,100,1,0
150517,600,4,1,0,100,1,0
188917,222.222222222222,4,1,0,100,1,0

[HitObjects]
72,128,1084,6,0,L|120:120,1,45
122,141,1417,1,0,0:0:0:0:
130,165,1528,2,0,L|178:157,1,45
336,112,1972,2,0,L|288:96,1,45
256,192,2417,2,0,L|304:176,1,45
304,200,2750,1,0,0:0:0:0:
312,224,2861,2,0,L|264:240,1,45
120,192,3306,2,0,L|112:160,2,22.5
152,256,3750,2,0,L|144:288,2,22.5
184,192,4195,2,0,L|176:160,2,22.5
216,256,4639,6,0,L|264:248,1,45
336,240,5083,2,0,L|288:232,1,45
302,256,5417,1,0,0:0:0:0:
310,280,5528,2,0,L|336:328,1,45
216,256,5972,2,0,L|242:208,1,45
184,320,6417,2,0,L|144:312,3,26.9999991760254
344,272,6861,2,0,L|384:264,3,31.4999990386963
152,224,7306,2,0,L|112:216,3,36
376,176,7750,2,0,L|416:168,3,40.4999987640381
120,128,8195,5,0,0:0:0:0:
120,128,8417,1,0,0:0:0:0:
208,224,11750,5,0,0:0:0:0:
208,224,11972,1,0,0:0:0:0:
248,128,15306,6,0,P|280:103|331:94,1,90
320,184,15528,2,0,P|345:216|354:267,1,90
264,256,15750,2,0,P|232:281|181:290,1,90
192,200,15972,2,0,P|167:168|158:117,1,90
280,120,16194,6,0,P|325:107|370:117,1,90
328,216,16417,2,0,P|341:261|331:306,1,90
232,264,16639,2,0,P|187:277|142:267,1,90
184,168,16861,2,0,P|171:123|181:78,1,90
320,120,17083,6,0,P|358:122|410:147,1,90
328,256,17306,2,0,P|326:294|301:346,1,90
192,264,17528,2,0,P|154:262|102:237,1,90
184,128,17750,2,0,P|186:90|211:38,1,90
368,136,17972,6,0,P|404:154|446:192,1,90
312,304,18194,2,0,P|294:340|256:382,1,90
144,248,18417,2,0,P|108:230|66:192,1,90
200,80,18639,2,0,P|218:44|256:2,1,90
336,192,18861,6,0,L|312:304,1,107.999996704102
160,160,19306,2,0,L|184:272,1,107.999996704102
368,128,19750,2,0,L|344:240,1,107.999996704102
128,96,20194,2,0,L|152:208,1,107.999996704102
400,64,20639,5,0,0:0:0:0:
429,68,20694,1,0,0:0:0:0:
452,87,20750,1,0,0:0:0:0:
463,114,20805,1,0,0:0:0:0:
459,143,20861,1,0,0:0:0:0:
442,167,20916,1,0,0:0:0:0:
415,179,20972,1,0,0:0:0:0:
385,176,21027,1,0,0:0:0:0:
362,158,21083,6,0,L|321:123,1,53.9999983520508
254,68,21194,2,0,L|213:33,1,53.9999983520508
307,217,21306,6,0,L|256:194,1,53.9999983520508
171,152,21417,2,0,L|123:129,1,53.9999983520508
360,242,21528,5,0,0:0:0:0:
379,250,21583,1,0,0:0:0:0:
398,259,21639,1,0,0:0:0:0:
417,268,21694,1,0,0:0:0:0:
436,277,21750,1,0,0:0:0:0:
414,277,21805,1,0,0:0:0:0:
393,279,21861,1,0,0:0:0:0:
372,281,21916,1,0,0:0:0:0:
351,283,21972,6,0,L|296:286,1,53.9999983520508
163,295,22083,2,0,L|109:299,1,53.9999983520508
360,242,22194,6,0,L|309:263,1,53.9999983520508
187,317,22305,2,0,L|136:338,1,53.9999983520508
294,191,22417,6,0,P|333:164|392:166,1,107.999996704102
263,339,22639,1,0,0:0:0:0:
236,104,22750,1,0,0:0:0:0:
360,242,22861,1,0,0:0:0:0:
126,214,22972,1,0,0:0:0:0:
318,120,23083,2,0,L|277:231,1,107.999996704102
153,69,23306,6,0,L|194:180,1,107.999996704102
252,51,23528,1,0,0:0:0:0:
56,185,23639,1,0,0:0:0:0:
296,192,23750,1,0,0:0:0:0:
56,185,23861,1,0,0:0:0:0:
296,192,23972,2,0,P|345:198|393:235,1,107.999996704102
120,264,24194,5,0,0:0:0:0:
236,104,24306,1,0,0:0:0:0:
272,240,24417,1,0,0:0:0:0:
96,184,24528,1,0,0:0:0:0:
376,200,24639,6,0,L|408:96,1,107.999996704102
264,248,24861,1,0,0:0:0:0:
104,176,24972,1,0,0:0:0:0:
392,208,25083,6,0,L|424:104,1,107.999996704102
256,256,25306,1,0,0:0:0:0:
112,168,25417,1,0,0:0:0:0:
408,216,25528,6,0,L|440:112,1,107.999996704102
248,264,25750,1,0,0:0:0:0:
120,160,25861,1,0,0:0:0:0:
321,218,25972,6,0,P|333:275|311:322,1,107.999996704102
240,144,26194,1,0,0:0:0:0:
440,199,26306,1,0,0:0:0:0:
248,264,26417,1,0,0:0:0:0:
375,125,26528,1,0,0:0:0:0:
216,185,26639,2,0,P|173:224|163:275,1,107.999996704102
337,141,26861,6,0,L|239:92,1,107.999996704102
304,233,27083,1,0,0:0:0:0:
382,45,27194,1,0,0:0:0:0:
304,233,27306,1,0,0:0:0:0:
270,15,27417,1,0,0:0:0:0:
304,233,27528,2,0,P|326:286|371:312,1,107.999996704102
278,120,27750,5,0,0:0:0:0:
262,342,27861,1,0,0:0:0:0:
200,175,27972,1,0,0:0:0:0:
388,233,28083,1,0,0:0:0:0:
216,296,28194,6,0,L|112:264,1,107.999996704102
248,160,28417,1,0,0:0:0:0:
388,233,28528,1,0,0:0:0:0:
200,304,28639,6,0,L|96:272,1,107.999996704102
256,152,28861,1,0,0:0:0:0:
388,233,28972,1,0,0:0:0:0:
184,312,29083,6,0,L|80:280,1,107.999996704102
264,144,29306,1,0,0:0:0:0:
388,233,29417,1,0,0:0:0:0:
122,190,29528,6,0,P|64:192|24:225,1,107.999996704102
233,358,29750,1,0,0:0:0:0:
211,138,29861,1,0,0:0:0:0:
96,272,29972,1,0,0:0:0:0:
253,208,30083,1,0,0:0:0:0:
357,336,30194,2,0,L|389:228,1,107.999996704102
212,300,30417,6,0,L|180:192,1,107.999996704102
299,294,30639,1,0,0:0:0:0:
96,272,30750,1,0,0:0:0:0:
310,134,30861,1,0,0:0:0:0:
81,190,30972,1,0,0:0:0:0:
308,210,31083,2,0,P|359:236|382:283,1,107.999996704102
385,140,31306,5,0,0:0:0:0:
212,300,31417,1,0,0:0:0:0:
242,65,31528,1,0,0:0:0:0:
212,300,31639,1,0,0:0:0:0:
385,140,31750,6,0,P|440:127|488:148,1,107.999996704102
265,340,31972,1,0,0:0:0:0:
328,237,32083,1,0,0:0:0:0:
391,130,32194,6,0,P|446:117|494:138,1,107.999996704102
265,340,32417,1,0,0:0:0:0:
331,232,32528,1,0,0:0:0:0:
397,120,32639,6,0,P|452:107|500:128,1,107.999996704102
265,340,32861,1,0,0:0:0:0:
334,226,32972,1,0,0:0:0:0:
403,110,33083,6,0,L|438:213,1,107.999996704102
310,140,33306,1,0,0:0:0:0:
275,242,33417,1,0,0:0:0:0:
421,80,33528,1,0,0:0:0:0:
455,182,33639,1,0,0:0:0:0:
328,56,33750,2,0,P|271:62|233:98,1,107.999996704102
134,59,33972,6,0,L|131:166,1,107.999996704102
241,80,34194,1,0,0:0:0:0:
28,177,34306,1,0,0:0:0:0:
248,206,34417,1,0,0:0:0:0:
30,59,34528,1,0,0:0:0:0:
182,255,34639,2,0,P|229:286|281:282,1,107.999996704102
145,145,34861,5,0,0:0:0:0:
63,340,34972,1,0,0:0:0:0:
248,206,35083,1,0,0:0:0:0:
63,340,35194,1,0,0:0:0:0:
77,113,35306,5,0,0:0:0:0:
179,329,35417,1,0,0:0:0:0:
3,207,35528,1,0,0:0:0:0:
291,264,35639,1,0,0:0:0:0:
202,132,35750,5,0,0:0:0:0:
188,108,35805,1,0,0:0:0:0:
186,82,35861,1,0,0:0:0:0:
197,58,35916,1,0,0:0:0:0:
219,42,35972,1,0,0:0:0:0:
246,39,36027,1,0,0:0:0:0:
270,49,36083,1,0,0:0:0:0:
290,67,36138,1,0,0:0:0:0:
306,89,36194,1,0,0:0:0:0:
322,111,36249,1,0,0:0:0:0:
342,129,36305,1,0,0:0:0:0:
366,139,36361,1,0,0:0:0:0:
393,138,36416,1,0,0:0:0:0:
416,125,36472,1,0,0:0:0:0:
430,102,36527,1,0,0:0:0:0:
431,75,36583,1,0,0:0:0:0:
419,50,36639,6,0,B|388:25|356:33|332:48|331:80|315:106|264:114,1,180
174,106,36972,1,0,0:0:0:0:
87,39,37083,2,0,L|176:28,1,90
199,142,37306,2,0,L|107:131,1,90
174,194,37528,2,0,P|213:221|229:265,1,90
199,344,37750,2,0,P|160:317|144:273,1,90
228,259,37972,1,0,0:0:0:0:
288,192,38083,1,0,0:0:0:0:
258,107,38194,2,0,P|227:74|184:64,1,90
288,192,38417,6,0,L|467:146,1,180
412,243,38750,1,0,0:0:0:0:
354,334,38861,2,0,L|328:240,1,90
204,172,39083,2,0,L|230:266,1,90
303,138,39306,5,0,0:0:0:0:
137,189,39417,1,0,0:0:0:0:
308,245,39528,1,0,0:0:0:0:
142,296,39639,1,0,0:0:0:0:
262,167,39750,5,0,0:0:0:0:
96,218,39861,1,0,0:0:0:0:
267,274,39972,1,0,0:0:0:0:
101,325,40083,1,0,0:0:0:0:
221,196,40194,6,0,P|309:172|397:196,1,180
294,344,40528,1,0,0:0:0:0:
141,209,40639,2,0,P|151:154|175:127,1,90
324,208,40861,1,0,0:0:0:0:
169,285,40972,2,0,P|113:284|82:265,1,90
136,104,41194,1,0,0:0:0:0:
330,120,41306,2,0,L|291:203,1,90
359,196,41528,2,0,L|283:248,1,90
354,280,41750,2,0,L|262:287,1,90
96,208,41972,6,0,L|147:132,1,90
168,248,42194,1,0,0:0:0:0:
240,288,42306,1,0,0:0:0:0:
312,248,42417,2,0,L|261:172,1,90
240,288,42639,1,0,0:0:0:0:
168,328,42751,1,0,0:0:0:0:
96,208,42861,2,0,L|72:304,1,90
112,144,43083,2,0,L|135:232,1,90
96,80,43306,2,0,L|232:216,1,180
456,80,43750,6,0,P|368:64|280:96,1,180
248,184,44083,1,0,0:0:0:0:
156,132,44194,2,0,L|68:156,1,90
104,264,44417,2,0,L|192:288,1,90
232,208,44639,1,0,0:0:0:0:
272,128,44750,1,0,0:0:0:0:
392,136,44861,2,0,B|416:176|416:176|392:216,1,90
304,256,45083,2,0,B|280:216|280:216|304:176,1,90
392,216,45306,2,0,B|416:256|416:256|392:296,1,90
304,256,45528,5,0,0:0:0:0:
216,216,45639,1,0,0:0:0:0:
128,176,45750,2,0,B|105:213|105:213|129:253,1,90
219,290,45973,2,0,B|241:252|241:252|217:212,1,90
128,256,46195,2,0,B|105:293|105:293|129:333,1,90
216,216,46417,2,0,L|288:112,3,90
128,176,46861,2,0,L|56:280,3,90
216,217,47306,6,0,P|302:248|330:325,1,180
154,346,47639,1,0,0:0:0:0:
128,176,47750,2,0,P|148:123|176:101,1,90
231,318,47972,2,0,P|187:353|151:358,1,90
216,217,48194,1,0,0:0:0:0:
296,248,48306,1,0,0:0:0:0:
376,280,48417,2,0,L|476:320,1,90
360,200,48639,2,0,L|460:240,1,90
344,120,48861,2,0,L|444:160,1,90
304,104,49083,6,0,P|259:102|219:122,1,90
192,296,49306,2,0,P|236:297|276:277,1,90
304,96,49528,2,0,P|259:94|219:114,1,90
192,304,49750,2,0,P|236:305|276:285,1,90
120,184,49972,2,0,L|104:272,1,90
216,184,50194,1,0,0:0:0:0:
237,163,50249,1,0,0:0:0:0:
265,153,50305,1,0,0:0:0:0:
295,156,50360,1,0,0:0:0:0:
321,170,50416,5,0,0:0:0:0:
344,190,50471,1,0,0:0:0:0:
369,206,50527,1,0,0:0:0:0:
398,211,50582,1,0,0:0:0:0:
425,199,50638,1,0,0:0:0:0:
442,174,50693,1,0,0:0:0:0:
442,145,50749,1,0,0:0:0:0:
427,119,50805,1,0,0:0:0:0:
394,106,50861,6,0,P|285:122|206:62,1,215.999993408203
362,23,51194,1,0,0:0:0:0:
321,170,51306,2,0,L|290:276,1,107.999996704102
216,184,51528,2,0,L|247:78,1,107.999996704102
240,296,51750,1,0,0:0:0:0:
104,216,51861,1,0,0:0:0:0:
272,112,51972,2,0,P|325:113|368:144,1,107.999996704102
240,296,52194,2,0,P|186:294|143:263,1,107.999996704102
280,104,52417,2,0,P|333:105|376:136,1,107.999996704102
136,192,52639,5,0,0:0:0:0:
192,48,52750,1,0,0:0:0:0:
288,240,52861,2,0,L|336:336,1,107.999996704102
328,168,53083,2,0,L|376:264,1,107.999996704102
368,96,53306,2,0,L|416:192,1,107.999996704102
240,112,53528,2,0,P|187:113|144:144,1,107.999996704102
272,296,53750,2,0,P|326:294|369:263,1,107.999996704102
232,104,53973,2,0,P|179:105|136:136,1,107.999996704102
280,304,54194,2,0,P|333:303|376:272,1,107.999996704102
208,216,54417,6,0,P|128:288|24:272,1,215.999993408203
104,96,54750,1,0,0:0:0:0:
256,184,54861,2,0,B|256:232|256:232|264:240|264:240|264:288,1,107.999996704102
112,232,55083,2,0,B|112:184|112:184|104:176|104:176|104:128,1,107.999996704102
256,184,55306,1,0,0:0:0:0:
352,96,55417,1,0,0:0:0:0:
456,176,55528,2,0,P|461:228|435:275,1,107.999996704102
272,144,55750,2,0,L|384:128,1,107.999996704102
328,288,55972,2,0,L|216:304,1,107.999996704102
296,176,56194,5,0,0:0:0:0:
200,80,56306,1,0,0:0:0:0:
96,192,56417,2,0,P|91:244|117:291,1,107.999996704102
270,215,56639,2,0,P|275:163|249:116,1,107.999996704102
167,228,56861,1,0,0:0:0:0:
277,304,56972,1,0,0:0:0:0:
336,183,57083,2,0,P|388:174|436:196,1,107.999996704102
419,335,57306,1,0,0:0:0:0:
264,224,57417,2,0,P|255:171|277:123,1,107.999996704102
416,140,57639,1,0,0:0:0:0:
304,295,57750,2,0,P|251:303|203:281,1,107.999996704102
129,144,57972,5,0,0:0:0:0:
71,297,58083,1,0,0:0:0:0:
264,224,58194,2,0,L|368:256,1,107.999996704102
216,344,58417,2,0,L|112:312,1,107.999996704102
232,216,58639,1,0,0:0:0:0:
176,88,58750,1,0,0:0:0:0:
48,144,58861,1,0,0:0:0:0:
104,272,58972,1,0,0:0:0:0:
232,216,59083,2,0,P|241:163|219:115,1,107.999996704102
112,224,59306,2,0,P|103:277|125:325,1,107.999996704102
264,224,59528,1,0,0:0:0:0:
400,256,59639,1,0,0:0:0:0:
280,352,59750,5,0,0:0:0:0:
144,320,59861,1,0,0:0:0:0:
184,160,59972,2,0,P|234:178|264:221,1,107.999996704102
144,320,60194,2,0,P|93:301|63:258,1,107.999996704102
192,152,60417,2,0,P|242:170|272:213,1,107.999996704102
112,312,60639,2,0,L|88:200,1,107.999996704102
192,296,60861,2,0,L|216:184,1,107.999996704102
320,280,61083,2,0,L|296:168,1,107.999996704102
400,264,61306,2,0,L|424:152,1,107.999996704102
272,224,61528,6,0,P|168:192|144:96,1,215.999993408203
280,96,61861,1,0,0:0:0:0:
216,224,61972,2,0,L|168:320,1,107.999996704102
96,192,62194,2,0,L|144:96,1,107.999996704102
216,224,62417,1,0,0:0:0:0:
352,241,62528,1,0,0:0:0:0:
280,96,62639,2,0,P|226:95|183:125,1,107.999996704102
256,272,62861,2,0,P|309:272|352:242,1,107.999996704102
272,88,63083,2,0,P|218:87|175:117,1,107.999996704102
144,280,63306,5,0,0:0:0:0:
328,296,63417,1,0,0:0:0:0:
304,144,63528,1,0,0:0:0:0:
128,280,63639,5,0,0:0:0:0:
344,320,63750,1,0,0:0:0:0:
304,128,63861,1,0,0:0:0:0:
112,280,63972,5,0,0:0:0:0:
360,344,64083,1,0,0:0:0:0:
304,112,64194,2,0,P|270:69|219:56,1,107.999996704102
240,216,64417,5,0,0:0:0:0:
243,242,64472,1,0,0:0:0:0:
247,269,64528,1,0,0:0:0:0:
251,296,64583,1,0,0:0:0:0:
255,322,64639,1,0,0:0:0:0:
375,180,64750,1,0,0:0:0:0:
360,344,64861,1,0,0:0:0:0:
240,216,64972,1,0,0:0:0:0:
448,264,65083,6,0,P|488:296|504:336,1,90
360,242,65306,2,0,P|384:197|421:174,1,90
385,335,65528,2,0,P|298:305|215:331,1,180
110,132,65972,2,0,L|98:225,1,90
213,130,66194,2,0,B|247:103|293:105|293:105|304:88|304:88|343:101|377:93,1,180
242,227,66639,2,0,P|223:267|226:312,1,90
417,212,66861,5,0,0:0:0:0:
213,130,67083,2,0,L|129:96,1,90
242,227,67306,1,0,0:0:0:0:
127,210,67417,2,0,P|84:222|52:253,2,90
212,313,67750,2,0,P|256:316|297:298,2,90
213,130,68083,2,0,P|172:111|127:114,2,90
33,174,68417,2,0,L|52:83,1,90
166,263,68639,5,0,0:0:0:0:
213,130,68861,2,0,P|257:127|297:146,1,90
166,263,69083,2,0,P|121:265|81:246,1,90
272,216,69306,2,0,L|256:304,1,90
176,208,69528,2,0,L|192:120,1,90
272,216,69750,2,0,B|294:253|338:266|338:266|343:286|343:286|384:287|413:306,1,180
232,208,70194,2,0,P|187:205|147:224,1,90
296,336,70417,5,0,0:0:0:0:
344,128,70639,2,0,P|384:109|428:112,1,90
352,256,70861,2,0,P|307:259|267:240,1,90
464,200,71083,2,0,L|440:288,1,90
320,168,71306,5,0,0:0:0:0:
216,240,71417,1,0,0:0:0:0:
128,152,71528,2,0,L|96:240,1,90
328,176,71750,5,0,0:0:0:0:
224,248,71861,1,0,0:0:0:0:
136,160,71972,2,0,L|104:248,1,90
256,120,72194,5,0,0:0:0:0:
288,216,72306,1,0,0:0:0:0:
320,312,72417,2,0,P|360:330|404:327,1,90
256,120,72750,5,0,0:0:0:0:
192,136,72861,1,0,0:0:0:0:
128,152,72972,1,0,0:0:0:0:
288,216,73083,5,0,0:0:0:0:
256,120,73639,5,0,0:0:0:0:
192,136,73750,1,0,0:0:0:0:
128,152,73861,1,0,0:0:0:0:
288,216,73972,6,0,P|324:242|342:282,1,90
128,248,74194,1,0,0:0:0:0:
256,120,74528,5,0,0:0:0:0:
320,136,74639,1,0,0:0:0:0:
384,152,74750,1,0,0:0:0:0:
224,216,74861,5,0,0:0:0:0:
256,120,75750,5,0,0:0:0:0:
224,216,75862,1,0,0:0:0:0:
192,312,75973,2,0,P|151:330|107:327,1,90
256,120,76306,5,0,0:0:0:0:
320,136,76417,1,0,0:0:0:0:
384,152,76528,1,0,0:0:0:0:
224,216,76639,5,0,0:0:0:0:
256,120,77194,5,0,0:0:0:0:
320,136,77305,1,0,0:0:0:0:
384,152,77416,1,0,0:0:0:0:
224,216,77527,5,0,0:0:0:0:
208,224,77750,1,0,0:0:0:0:
192,232,77972,1,0,0:0:0:0:
176,240,78194,1,0,0:0:0:0:
216,144,78306,1,0,0:0:0:0:
288,296,78417,1,0,0:0:0:0:
328,88,78528,1,0,0:0:0:0:
160,248,78639,1,0,0:0:0:0:
360,200,78750,5,0,0:0:0:0:
382,203,78805,1,0,0:0:0:0:
402,212,78861,1,0,0:0:0:0:
420,225,78916,1,0,0:0:0:0:
435,243,78972,1,0,0:0:0:0:
160,248,79083,1,0,0:0:0:0:
242,73,79306,6,0,P|286:69|327:87,1,90
356,171,79528,5,0,0:0:0:0:
357,204,79583,1,0,0:0:0:0:
361,238,79639,1,0,0:0:0:0:
359,271,79694,1,0,0:0:0:0:
347,302,79750,1,0,0:0:0:0:
321,324,79805,1,0,0:0:0:0:
288,329,79861,1,0,0:0:0:0:
255,322,79916,1,0,0:0:0:0:
224,310,79972,1,0,0:0:0:0:
192,300,80028,1,0,0:0:0:0:
158,295,80083,1,0,0:0:0:0:
125,299,80139,1,0,0:0:0:0:
93,310,80194,6,0,L|54:333,3,45
160,248,80417,5,0,0:0:0:0:
181,221,80472,1,0,0:0:0:0:
198,192,80528,1,0,0:0:0:0:
209,161,80583,1,0,0:0:0:0:
207,127,80639,1,0,0:0:0:0:
186,101,80694,1,0,0:0:0:0:
154,99,80750,1,0,0:0:0:0:
132,123,80805,1,0,0:0:0:0:
134,156,80861,1,0,0:0:0:0:
157,180,80917,1,0,0:0:0:0:
188,194,80972,1,0,0:0:0:0:
221,201,81028,1,0,0:0:0:0:
255,205,81083,6,0,L|302:205,3,45
160,216,81306,5,0,0:0:0:0:
127,225,81361,1,0,0:0:0:0:
102,246,81417,1,0,0:0:0:0:
89,277,81472,1,0,0:0:0:0:
93,310,81528,1,0,0:0:0:0:
114,336,81583,1,0,0:0:0:0:
145,349,81639,1,0,0:0:0:0:
179,349,81694,1,0,0:0:0:0:
212,341,81750,1,0,0:0:0:0:
243,330,81806,1,0,0:0:0:0:
276,322,81861,1,0,0:0:0:0:
310,323,81917,1,0,0:0:0:0:
342,333,81972,6,0,L|382:356,3,45
269,275,82194,5,0,0:0:0:0:
242,253,82249,1,0,0:0:0:0:
224,225,82305,1,0,0:0:0:0:
219,192,82360,1,0,0:0:0:0:
229,161,82416,1,0,0:0:0:0:
252,137,82471,1,0,0:0:0:0:
284,125,82527,1,0,0:0:0:0:
317,128,82582,1,0,0:0:0:0:
346,146,82638,1,0,0:0:0:0:
369,170,82694,1,0,0:0:0:0:
393,193,82749,1,0,0:0:0:0:
425,205,82805,1,0,0:0:0:0:
458,205,82861,6,0,L|505:200,3,45
368,222,83083,5,0,0:0:0:0:
328,231,83138,1,0,0:0:0:0:
290,244,83194,1,0,0:0:0:0:
250,249,83249,1,0,0:0:0:0:
210,246,83305,1,0,0:0:0:0:
170,240,83360,1,0,0:0:0:0:
129,236,83416,1,0,0:0:0:0:
89,241,83471,1,0,0:0:0:0:
56,263,83527,1,0,0:0:0:0:
50,302,83583,1,0,0:0:0:0:
80,325,83638,1,0,0:0:0:0:
117,311,83694,1,0,0:0:0:0:
139,278,83749,5,0,0:0:0:0:
152,240,83805,1,0,0:0:0:0:
159,200,83860,1,0,0:0:0:0:
164,160,83916,1,0,0:0:0:0:
174,120,83971,1,0,0:0:0:0:
195,86,84027,1,0,0:0:0:0:
232,75,84083,1,0,0:0:0:0:
262,100,84138,1,0,0:0:0:0:
254,138,84194,1,0,0:0:0:0:
218,155,84249,1,0,0:0:0:0:
178,155,84305,1,0,0:0:0:0:
138,146,84360,1,0,0:0:0:0:
99,139,84416,1,0,0:0:0:0:
60,149,84471,1,0,0:0:0:0:
37,182,84527,1,0,0:0:0:0:
28,221,84583,1,0,0:0:0:0:
39,260,84639,5,0,0:0:0:0:
46,281,84694,1,0,0:0:0:0:
54,302,84750,2,0,L|70:347,1,45
152,200,84861,2,0,L|136:157,1,45
39,260,84972,5,0,0:0:0:0:
46,281,85027,1,0,0:0:0:0:
54,302,85083,2,0,L|70:347,1,45
160,192,85194,2,0,L|144:149,1,45
39,260,85306,5,0,0:0:0:0:
46,281,85361,1,0,0:0:0:0:
54,302,85417,2,0,L|70:347,1,45
168,184,85528,2,0,L|152:139,1,45
39,260,85639,5,0,0:0:0:0:
46,281,85694,1,0,0:0:0:0:
54,302,85750,2,0,L|70:347,1,45
176,176,85861,1,0,0:0:0:0:
174,354,85972,1,0,0:0:0:0:
71,197,86083,1,0,0:0:0:0:
256,258,86194,1,0,0:0:0:0:
54,302,86306,1,0,0:0:0:0:
184,96,86417,6,0,P|223:77|268:80,1,90
338,139,86639,5,0,0:0:0:0:
319,171,86694,1,0,0:0:0:0:
291,196,86750,1,0,0:0:0:0:
256,206,86805,1,0,0:0:0:0:
220,198,86861,1,0,0:0:0:0:
187,179,86916,1,0,0:0:0:0:
154,163,86972,1,0,0:0:0:0:
117,164,87027,1,0,0:0:0:0:
87,186,87083,1,0,0:0:0:0:
74,221,87139,1,0,0:0:0:0:
76,259,87194,1,0,0:0:0:0:
75,296,87250,1,0,0:0:0:0:
60,328,87306,6,0,L|32:365,3,45
123,262,87528,5,0,0:0:0:0:
151,237,87583,1,0,0:0:0:0:
180,213,87639,1,0,0:0:0:0:
213,197,87694,1,0,0:0:0:0:
250,191,87750,1,0,0:0:0:0:
282,209,87805,1,0,0:0:0:0:
291,244,87861,1,0,0:0:0:0:
269,273,87916,1,0,0:0:0:0:
232,278,87972,1,0,0:0:0:0:
201,258,88028,1,0,0:0:0:0:
180,228,88083,1,0,0:0:0:0:
153,202,88139,1,0,0:0:0:0:
116,199,88194,6,0,L|71:208,3,45
208,191,88417,5,0,0:0:0:0:
244,197,88472,1,0,0:0:0:0:
276,217,88528,1,0,0:0:0:0:
310,233,88583,1,0,0:0:0:0:
346,231,88639,1,0,0:0:0:0:
372,205,88694,1,0,0:0:0:0:
373,168,88750,1,0,0:0:0:0:
358,134,88805,1,0,0:0:0:0:
340,101,88861,1,0,0:0:0:0:
333,65,88917,1,0,0:0:0:0:
352,33,88972,1,0,0:0:0:0:
387,22,89028,1,0,0:0:0:0:
424,28,89083,6,0,L|475:29,3,45
330,28,89306,5,0,0:0:0:0:
292,31,89361,1,0,0:0:0:0:
258,46,89417,1,0,0:0:0:0:
229,69,89472,1,0,0:0:0:0:
208,100,89528,1,0,0:0:0:0:
198,136,89583,1,0,0:0:0:0:
198,174,89639,1,0,0:0:0:0:
209,209,89694,1,0,0:0:0:0:
230,240,89750,1,0,0:0:0:0:
259,264,89806,1,0,0:0:0:0:
294,278,89861,1,0,0:0:0:0:
331,281,89917,1,0,0:0:0:0:
367,273,89972,6,0,L|410:255,3,45
290,295,90194,5,0,0:0:0:0:
245,301,90249,1,0,0:0:0:0:
201,310,90305,1,0,0:0:0:0:
160,328,90360,1,0,0:0:0:0:
117,343,90416,1,0,0:0:0:0:
74,333,90471,1,0,0:0:0:0:
55,295,90527,1,0,0:0:0:0:
66,251,90582,1,0,0:0:0:0:
87,212,90638,1,0,0:0:0:0:
108,172,90694,1,0,0:0:0:0:
122,129,90749,1,0,0:0:0:0:
116,85,90805,1,0,0:0:0:0:
82,59,90860,5,0,0:0:0:0:
42,75,90916,1,0,0:0:0:0:
42,118,90971,1,0,0:0:0:0:
76,147,91027,1,0,0:0:0:0:
119,158,91082,1,0,0:0:0:0:
164,155,91138,1,0,0:0:0:0:
207,142,91194,1,0,0:0:0:0:
248,124,91249,1,0,0:0:0:0:
289,106,91305,1,0,0:0:0:0:
333,97,91360,1,0,0:0:0:0:
376,109,91416,1,0,0:0:0:0:
403,144,91471,1,0,0:0:0:0:
403,188,91527,1,0,0:0:0:0:
374,221,91582,1,0,0:0:0:0:
330,228,91638,1,0,0:0:0:0:
286,223,91694,1,0,0:0:0:0:
242,230,91750,5,0,0:0:0:0:
231,234,91805,1,0,0:0:0:0:
221,239,91861,1,0,0:0:0:0:
213,247,91916,1,0,0:0:0:0:
206,256,91972,1,0,0:0:0:0:
201,265,92027,1,0,0:0:0:0:
197,276,92083,1,0,0:0:0:0:
196,287,92138,1,0,0:0:0:0:
197,299,92194,1,0,0:0:0:0:
200,309,92250,1,0,0:0:0:0:
204,320,92305,1,0,0:0:0:0:
211,329,92361,1,0,0:0:0:0:
219,337,92416,1,0,0:0:0:0:
228,343,92472,1,0,0:0:0:0:
238,348,92527,1,0,0:0:0:0:
249,350,92583,1,0,0:0:0:0:
260,351,92638,5,0,0:0:0:0:
324,187,92750,1,0,0:0:0:0:
394,350,92861,1,0,0:0:0:0:
213,247,92972,1,0,0:0:0:0:
400,253,93083,1,0,0:0:0:0:
400,253,93139,1,0,0:0:0:0:
400,253,93194,1,0,0:0:0:0:
252,153,93306,1,0,0:0:0:0:
260,351,93417,1,0,0:0:0:0:
381,132,93528,6,0,P|441:121|502:158,1,125.999996154785
328,265,93861,2,0,P|268:276|207:239,1,125.999996154785
381,132,94194,2,0,L|395:197,1,62.9999980773926
431,346,94417,5,0,0:0:0:0:
424,328,94861,1,0,0:0:0:0:
131,132,95306,6,0,P|71:121|10:158,1,125.999996154785
184,265,95639,2,0,P|244:276|305:239,1,125.999996154785
131,132,95972,2,0,L|117:197,1,62.9999980773926
81,346,96195,5,0,0:0:0:0:
88,328,96639,1,0,0:0:0:0:
192,96,97083,6,0,B|213:109|233:130|233:130|241:121|241:121|264:149|288:167,1,125.999996154785
168,232,97417,2,0,B|147:219|127:198|127:198|119:207|119:207|96:179|72:161,1,125.999996154785
240,240,97750,2,0,P|230:270|197:300,1,62.9999980773926
192,96,97972,5,0,0:0:0:0:
192,80,98417,1,0,0:0:0:0:
296,208,98861,6,0,B|309:229|330:249|330:249|321:257|321:257|349:280|367:304,1,125.999996154785
432,184,99195,2,0,B|419:163|398:143|398:143|407:135|407:135|379:112|361:88,1,125.999996154785
440,256,99528,2,0,P|470:246|500:213,1,62.9999980773926
296,208,99750,5,0,0:0:0:0:
280,208,100195,1,0,0:0:0:0:
432,184,100639,6,0,P|461:238|450:299,1,125.999996154785
342,164,100972,2,0,P|374:111|432:90,1,125.999996154785
372,254,101306,2,0,P|330:258|309:252,1,62.9999980773926
312,74,101528,5,0,0:0:0:0:
312,58,101972,1,0,0:0:0:0:
80,184,102417,6,0,P|50:238|61:299,1,125.999996154785
170,164,102750,2,0,P|137:111|79:90,1,125.999996154785
140,254,103084,2,0,P|182:258|203:252,1,62.9999980773926
200,74,103306,5,0,0:0:0:0:
200,58,103750,1,0,0:0:0:0:
344,232,104194,6,0,B|384:280|384:280|448:280,1,125.999996154785
280,189,104528,2,0,B|267:250|267:250|308:300,1,125.999996154785
273,111,104861,2,0,B|217:140,1,62.9999980773926
344,232,105083,5,0,0:0:0:0:
273,111,105528,1,0,0:0:0:0:
349,35,105639,1,0,0:0:0:0:
425,111,105750,1,0,0:0:0:0:
349,186,105861,1,0,0:0:0:0:
273,111,105972,5,0,0:0:0:0:
244,97,106027,1,0,0:0:0:0:
213,93,106083,1,0,0:0:0:0:
182,99,106138,1,0,0:0:0:0:
154,113,106194,1,0,0:0:0:0:
344,232,106306,1,0,0:0:0:0:
273,111,106417,5,0,0:0:0:0:
244,97,106472,1,0,0:0:0:0:
213,93,106528,1,0,0:0:0:0:
182,99,106583,1,0,0:0:0:0:
154,113,106639,1,0,0:0:0:0:
344,248,106750,1,0,0:0:0:0:
273,111,106861,5,0,0:0:0:0:
244,97,106916,1,0,0:0:0:0:
213,93,106972,1,0,0:0:0:0:
182,99,107027,1,0,0:0:0:0:
154,113,107083,1,0,0:0:0:0:
344,264,107194,1,0,0:0:0:0:
273,111,107306,5,0,0:0:0:0:
208,256,107417,1,0,0:0:0:0:
409,135,107528,1,0,0:0:0:0:
344,280,107639,1,0,0:0:0:0:
203,132,107750,6,0,B|115:64|38:102|38:102|49:47,1,215.999993408203
66,218,108083,1,0,0:0:0:0:
203,131,108194,2,0,P|253:114|304:128,1,107.999996704102
208,256,108417,2,0,P|157:273|106:259,1,107.999996704102
256,192,108639,1,0,0:0:0:0:
291,331,108750,1,0,0:0:0:0:
256,192,108861,2,0,L|234:86,1,107.999996704102
108,164,109083,1,0,0:0:0:0:
208,256,109194,2,0,P|259:269|309:252,1,107.999996704102
108,164,109417,2,0,L|86:275,2,107.999996704102
208,256,109750,6,0,L|187:361,1,107.999996704102
88,256,109972,2,0,L|108:150,1,107.999996704102
208,264,110194,2,0,L|187:369,1,107.999996704102
88,248,110417,5,0,0:0:0:0:
256,312,110528,1,0,0:0:0:0:
152,152,110639,1,0,0:0:0:0:
320,216,110750,1,0,0:0:0:0:
104,232,110861,5,0,0:0:0:0:
272,296,110972,1,0,0:0:0:0:
168,136,111083,1,0,0:0:0:0:
336,200,111194,1,0,0:0:0:0:
120,216,111306,6,0,P|26:258|16:360,1,215.999993408203
184,343,111639,1,0,0:0:0:0:
168,136,111750,2,0,P|191:88|237:60,1,107.999996704102
306,199,111972,2,0,P|282:246|236:274,1,107.999996704102
248,136,112194,1,0,0:0:0:0:
408,168,112306,1,0,0:0:0:0:
208,240,112417,1,0,0:0:0:0:
368,272,112529,1,0,0:0:0:0:
248,136,112639,2,0,P|195:132|148:158,1,107.999996704102
216,283,112861,2,0,P|269:286|316:260,1,107.999996704102
136,216,113083,5,0,0:0:0:0:
112,352,113194,1,0,0:0:0:0:
184,216,113306,2,0,P|236:207|285:229,1,107.999996704102
112,352,113528,5,0,0:0:0:0:
192,200,113639,2,0,P|244:191|293:213,1,107.999996704102
112,352,113861,5,0,0:0:0:0:
200,184,113972,2,0,P|252:175|301:197,1,107.999996704102
112,352,114194,5,0,0:0:0:0:
208,168,114306,2,0,P|260:159|309:181,1,107.999996704102
112,352,114528,5,0,0:0:0:0:
216,152,114639,2,0,P|268:143|317:165,1,107.999996704102
152,234,114861,6,0,P|118:193|112:140,1,107.999996704102
258,228,115083,1,0,0:0:0:0:
211,323,115194,1,0,0:0:0:0:
200,160,115306,2,0,L|310:137,1,107.999996704102
208,264,115528,2,0,L|98:287,1,107.999996704102
200,160,115750,5,0,0:0:0:0:
312,200,115861,1,0,0:0:0:0:
272,312,115972,1,0,0:0:0:0:
160,272,116083,1,0,0:0:0:0:
200,160,116194,1,0,0:0:0:0:
128,64,116306,1,0,0:0:0:0:
16,104,116417,2,0,P|0:160|8:208,1,107.999996704102
160,272,116639,6,0,P|176:216|168:168,1,107.999996704102
36,277,116861,1,0,0:0:0:0:
223,251,116972,1,0,0:0:0:0:
78,164,117083,1,0,0:0:0:0:
250,338,117194,2,0,P|306:354|354:346,1,107.999996704102
256,235,117417,6,0,P|200:219|152:227,1,107.999996704102
250,338,117639,1,0,0:0:0:0:
308,175,117750,1,0,0:0:0:0:
354,345,117861,1,0,0:0:0:0:
204,136,117972,5,0,0:0:0:0:
250,306,118083,1,0,0:0:0:0:
308,143,118194,1,0,0:0:0:0:
354,313,118305,1,0,0:0:0:0:
204,136,118417,6,0,P|151:128|99:143,1,107.999996704102
77,268,118639,1,0,0:0:0:0:
174,221,118750,1,0,0:0:0:0:
99,143,118861,1,0,0:0:0:0:
2,190,118972,1,0,0:0:0:0:
77,268,119083,2,0,P|129:275|181:260,1,107.999996704102
2,190,119306,1,0,0:0:0:0:
0,315,119417,1,0,0:0:0:0:
128,192,119528,2,0,P|179:176|232:184,1,107.999996704102
304,320,119750,2,0,P|252:335|199:327,1,107.999996704102
120,184,119972,2,0,P|171:168|224:176,1,107.999996704102
77,268,120194,5,0,0:0:0:0:
96,96,120306,1,0,0:0:0:0:
204,207,120417,2,0,B|241:245|241:245|226:297,1,107.999996704102
318,268,120639,2,0,B|370:254|370:254|407:294,1,107.999996704102
300,189,120861,2,0,B|262:150|262:150|277:98,1,107.999996704102
370,255,121083,2,0,L|264:281,1,107.999996704102
367,124,121306,5,0,0:0:0:0:
402,122,121361,1,0,0:0:0:0:
437,131,121417,1,0,0:0:0:0:
467,151,121472,1,0,0:0:0:0:
485,181,121528,1,0,0:0:0:0:
488,217,121583,1,0,0:0:0:0:
472,249,121639,1,0,0:0:0:0:
442,268,121694,1,0,0:0:0:0:
406,273,121750,1,0,0:0:0:0:
371,271,121806,1,0,0:0:0:0:
335,267,121861,1,0,0:0:0:0:
299,269,121917,1,0,0:0:0:0:
265,280,121972,5,0,0:0:0:0:
367,124,122639,2,0,L|470:153,1,107.999996704102
265,280,122861,5,0,0:0:0:0:
375,116,123528,2,0,L|478:145,1,107.999996704102
265,280,123750,5,0,0:0:0:0:
383,108,124639,6,0,L|486:137,2,71.9999978027344
243,108,124861,2,0,L|140:137,1,90
363,192,125083,6,0,P|395:216|411:248,1,72
263,192,125306,2,0,P|231:216|215:248,1,53.9999983520508
343,276,125528,5,0,0:0:0:0:
208,152,126194,2,0,L|105:181,1,107.999996704102
343,276,126417,5,0,0:0:0:0:
200,144,127083,2,0,L|97:173,1,107.999996704102
343,276,127306,5,0,0:0:0:0:
200,144,128194,5,0,0:0:0:0:
217,148,128249,1,0,0:0:0:0:
234,153,128305,1,0,0:0:0:0:
252,157,128360,1,0,0:0:0:0:
265,144,128417,5,0,0:0:0:0:
282,148,128472,1,0,0:0:0:0:
299,153,128528,1,0,0:0:0:0:
317,157,128583,1,0,0:0:0:0:
330,144,128639,5,0,0:0:0:0:
347,148,128694,1,0,0:0:0:0:
364,153,128750,1,0,0:0:0:0:
382,157,128805,1,0,0:0:0:0:
395,144,128861,5,0,0:0:0:0:
412,148,128916,1,0,0:0:0:0:
429,153,128972,1,0,0:0:0:0:
447,157,129027,1,0,0:0:0:0:
460,144,129083,5,0,0:0:0:0:
265,144,129750,2,0,L|201:232,1,107.999996704102
460,144,129972,5,0,0:0:0:0:
253,144,130639,2,0,L|189:232,1,107.999996704102
460,144,130861,5,0,0:0:0:0:
253,144,131750,6,0,L|210:202,2,71.9999978027344
265,274,131972,2,0,L|229:322,2,60
387,168,132194,6,0,L|415:206,2,48
375,298,132417,2,0,L|395:327,2,35.9999989013672
259,209,132639,5,0,0:0:0:0:
80,192,133306,2,0,L|56:80,1,107.999996704102
259,209,133528,5,0,0:0:0:0:
64,192,134194,2,0,L|40:80,1,107.999996704102
259,209,134417,5,0,0:0:0:0:
48,192,135306,6,0,L|32:121,2,71.9999978027344
104,296,135528,2,0,L|90:360,2,66.0000020141602
160,200,135750,2,0,L|146:135,2,60
216,288,135972,2,0,L|204:340,2,53.9999983520508
272,208,136194,5,0,0:0:0:0:
