osu file format v7

[General]
AudioFilename: Inuyasha- Brand New World.mp3
AudioLeadIn: 0
PreviewTime: -1
Countdown: 1
SampleSet: Normal
StackLeniency: 0.7
Mode: 0
LetterboxInBreaks: 1

[Editor]
DistanceSpacing: 0.800000011920929
BeatDivisor: 3
GridSize: 8

[Metadata]
Title:Brand New World
Artist:V6
Creator:Gintsumata
Version:Hard
Source:Inuyasha
Tags:anime,gintsumata,demon

[Difficulty]
HPDrainRate:7
CircleSize:5
OverallDifficulty:8
SliderMultiplier:1.5
SliderTickRate:1

[Events]
//Background and Video events
0,0,"demoninu2.jpg"
Video,0,"video.flv"
//Break Periods
2,29685,34811
//Storyboard Layer 0 (Background)
//Storyboard Layer 1 (Fail)
//Storyboard Layer 2 (Pass)
//Storyboard Layer 3 (Foreground)
//Storyboard Sound Samples
//Background Colour Transformations
3,100,163,162,255

[TimingPoints]
3262.57445325144,444.475217391302,4,1,0,100,1,0

[HitObjects]
128,112,2669,1,0
200,112,3114,1,0
328,96,3558,1,8
200,176,4447,1,0
96,248,4744,2,0,L|144:288,4,50
296,112,6077,1,0
376,104,6522,1,0
240,200,6966,1,8
160,168,7855,1,0
328,200,8151,2,0,L|368:248,5,50
168,104,9633,5,0
160,152,10077,1,8
224,168,10522,1,0
224,128,10966,1,0
224,168,11114,1,8
264,112,11411,1,0
264,160,11855,1,8
272,192,12300,1,0
304,192,12744,1,8
304,192,13189,1,0
312,136,13485,1,0
360,112,14078,1,0
176,216,14967,5,8
264,224,15115,2,8,L|320:264,5,50
120,80,16596,1,0
216,96,17041,1,0
400,96,17633,1,0
192,224,18374,1,0
240,224,18819,1,0
240,224,19115,1,0
280,224,19559,1,0
304,96,20004,1,0
304,96,20597,1,0
368,88,21041,1,0
160,88,21930,1,0
112,168,22375,1,8
120,216,22523,1,0
160,240,22967,1,8
240,192,23412,1,12
392,80,24893,1,0
152,256,25486,1,0
136,80,25782,1,0
320,256,26227,1,0
240,80,26671,1,0
240,272,27116,1,0
112,176,27560,1,0
336,176,28005,1,0
224,152,28893,6,2,L|288:208,4,50
200,96,35561,5,0
272,112,35709,1,0
344,88,36153,1,0
368,152,36301,1,0
344,208,36598,1,0
344,256,36746,1,0
312,288,36894,1,0
264,296,37190,1,0
200,248,37339,1,0
184,104,37931,1,0
184,104,38079,5,8
344,80,38376,1,0
192,184,38968,1,0
112,192,39116,1,0
120,112,39413,1,0
160,80,39561,1,0
208,80,39857,1,0
280,96,40154,1,0
288,160,40302,1,0
264,184,40450,1,0
176,184,40746,1,0
120,216,41042,1,0
176,296,41339,1,0
304,256,41783,1,8
224,152,43265,1,0
224,96,43561,1,0
312,104,43709,1,0
336,168,44006,1,0
240,240,44450,1,0
168,216,44895,1,0
160,136,45043,1,0
248,88,45339,1,0
360,168,45784,1,0
384,200,45932,1,8
248,88,46821,5,0
136,96,47117,1,0
176,192,47561,1,0
296,176,47858,1,0
176,264,48895,1,0
144,240,49043,1,0
128,208,49191,1,0
120,168,49487,1,0
144,128,49636,1,0
160,96,49932,1,0
272,88,50228,1,0
312,88,50673,1,0
312,88,50969,5,8
224,80,52303,1,0
176,80,52451,1,0
136,104,52747,1,0
112,144,53043,1,0
104,176,53191,1,0
104,224,53488,1,0
152,264,53784,1,0
256,288,54080,1,8
256,288,54525,5,8
328,88,55858,1,0
352,128,56006,1,0
352,128,56303,1,0
352,184,56451,1,0
336,208,56747,1,0
336,208,56895,1,0
312,264,57340,1,0
256,296,57636,1,0
256,296,57933,1,8
200,104,59266,1,0
320,112,59562,5,8
128,152,59710,1,0
72,184,60007,1,0
104,240,60155,1,0
200,280,60451,1,0
232,232,60896,1,0
200,136,61044,1,0
200,136,61488,1,8
88,80,62229,1,0
280,72,62674,1,0
216,184,63118,1,0
368,264,64007,1,0
152,240,64451,6,0,L|224:296,5,50
224,128,65637,5,0
320,120,66081,1,0
352,192,66526,1,0
208,280,67415,1,0
144,88,67859,2,0,L|216:136,5,50
320,72,69193,5,0
336,104,69637,1,0
344,144,70082,1,0
264,104,70526,1,0
176,88,70970,1,0
112,128,71415,1,0
112,176,71859,1,0
152,200,72304,1,0
192,168,72748,1,0
232,136,73045,1,8
280,128,73489,1,0
368,152,74674,2,0,L|368:256,1,99.9999999999999
432,256,75119,2,0,L|432:136,1,99.9999999999999
152,112,76156,1,0
248,120,76600,1,0
352,112,77045,1,0
208,160,78082,5,0
112,168,78378,1,0
112,168,78675,1,0
112,168,79119,1,0
384,104,79712,1,0
472,104,80156,1,0
296,248,80601,1,0
48,120,81490,1,0
416,80,81934,1,0
416,80,82082,1,0
128,280,82675,1,0
384,264,82971,1,0
240,120,84453,1,0
224,240,84897,1,0
344,208,85342,1,0
400,112,85934,1,0
248,72,86231,1,0
120,80,86675,1,0
72,176,87120,1,0
192,184,87564,1,0
296,88,88749,5,0
344,72,88898,1,0
440,56,89194,1,0
424,168,89490,1,0
336,240,89935,1,0
256,200,90231,1,0
248,88,90527,1,0
240,280,91120,1,0
256,208,91268,12,0,112751
